#TITLE:Electro Tuned ( the SubS Mix );
#SUBTITLE:;
#ARTIST:TaQ;
#TITLETRANSLIT:;
#SUBTITLETRANSLIT:;
#ARTISTTRANSLIT:;
#GENRE:;
#CREDIT:;
#BANNER:Electro Tuned ( the SubS Mix ).png;
#BACKGROUND:Electro Tuned ( the SubS Mix )-bg.png;
#LYRICSPATH:;
#CDTITLE:;
#MUSIC:Electro Tuned ( the SubS Mix ).ogg;
#OFFSET:0.000000;
#SAMPLESTART:65.470001;
#SAMPLELENGTH:15.000000;
#SELECTABLE:YES;
#DISPLAYBPM:125.000000;
#BPMS:0.000000=111.306999
,3.500000=124.999992
;
#STOPS:
;
#BGCHANGES:;
#KEYSOUNDS:;
#ATTACKS:;

//---------------dance-single - ----------------
#NOTES:
     dance-single:
     :
     Beginner:
     4:
     0.151421,0.224989,0.049998,0.000000,0.000000,106.000000,101.000000,5.000000,0.000000,0.000000,0.000000,0.151421,0.224989,0.049998,0.000000,0.000000,106.000000,101.000000,5.000000,0.000000,0.000000,0.000000:
0000
0000
0000
0000
,
0000
0000
0000
0000
0000
0000
0000
1000
,
0000
1000
0000
1000
0000
1000
0000
1000
,
0000
1000
0000
1000
0000
1000
0000
1000
,
0000
1000
0000
1000
0000
1000
0000
0000
,
0000
0001
0000
0001
,
0000
0100
0000
0100
,
0000
0010
0000
0100
,
0000
1000
0000
0110
,
0000
0001
0000
0001
,
0000
1000
0000
1000
,
0000
0001
0000
0001
,
0000
1000
0000
1000
,
0000
0110
0000
0001
,
0000
0110
0000
1000
,
0000
0110
0000
0001
,
0000
0100
0100
0100
,
0000
0010
0000
0100
,
0000
0010
0000
0100
,
0000
0010
0000
0100
,
0000
0010
0000
0100
,
0000
0000
0000
0000
,
0010
0000
0000
0000
,
0100
0000
0000
0000
,
0010
0000
0000
0000
,
0100
0000
0000
1000
,
1000
0000
0001
0001
,
0000
1000
0000
0001
,
0001
0001
0000
0010
,
0000
0100
0100
0100
,
0000
0100
0000
0001
,
0000
0010
0000
0100
,
0000
0001
0000
0100
,
0000
0010
0010
0000
,
0000
0010
0000
0001
,
0000
1000
0000
0100
,
0000
0001
0000
1000
,
0000
0010
0000
0010
,
0000
1000
1000
1000
,
0000
0001
0001
0001
,
0000
1000
0000
0010
,
0000
0100
0000
0110
,
0000
0000
0000
1000
,
0000
0000
0000
0001
,
0000
0000
0000
0010
,
0000
0000
0000
0100
,
0000
1000
0000
0001
,
0000
1000
0000
0001
,
0000
1000
0000
0001
,
0000
0010
0010
0010
,
0010
0000
0000
0000
,
0000
0000
0000
0000
;

//---------------dance-single - ----------------
#NOTES:
     dance-single:
     :
     Easy:
     6:
     0.257130,0.324984,0.010000,0.000000,0.000000,180.000000,179.000000,1.000000,0.000000,0.000000,0.000000,0.257130,0.324984,0.010000,0.000000,0.000000,180.000000,179.000000,1.000000,0.000000,0.000000,0.000000:
0000
0000
0000
0000
,
0000
0000
0000
0000
0000
0000
0000
1000
,
0000
1000
0000
1000
0000
1000
0000
1000
,
0000
1000
0000
0000
0000
1000
0000
0000
,
0000
1001
0000
0100
0000
0100
0000
0000
,
0000
1000
0010
0010
,
0000
0100
0001
0001
,
0000
0010
0100
0100
,
0000
1000
0001
1000
,
0100
0000
0000
0001
,
1000
0000
0000
0010
,
0100
0000
0000
0010
,
1000
0000
0000
0001
,
0100
0010
0100
0001
,
1000
0010
0100
0001
,
1000
1000
0010
0010
,
0100
0100
0001
0001
,
1000
0000
0010
0000
1000
0010
0100
0000
,
0001
0000
1000
0000
0010
0100
0001
0000
,
1000
0001
1000
0000
1000
0001
1000
0000
,
0010
0100
0001
0000
1000
0010
1000
0000
,
0001
0000
0000
0000
,
1000
0000
0000
0000
,
0100
0000
0000
0000
,
0010
0000
0000
0000
,
0001
0000
0000
1000
,
0001
0000
0001
0100
,
0010
0000
0010
1000
,
0001
0100
0010
1000
,
0001
0001
1000
1000
,
0000
0010
0100
0000
0000
0000
0001
0000
,
0000
1000
0010
0000
0000
0000
0100
0000
,
0001
1000
0001
0000
0000
0000
0100
0000
,
0010
0010
0000
0010
,
0100
0010
0100
0001
,
1000
0100
1000
0010
,
0100
0010
1000
0001
,
0100
0100
0100
0010
,
1000
0000
1000
0000
0001
0001
0001
0000
,
0100
0000
0100
0000
0001
0001
0001
0000
,
1000
0000
1000
0000
0010
0010
0010
0000
,
1000
0010
0100
0000
0001
1000
0010
0000
,
0100
0000
0100
0000
0001
0010
1000
0000
,
0001
0000
0001
0000
1000
0010
0100
0000
,
0001
0000
1000
0000
0010
0100
0001
0000
,
1000
0000
1000
0000
1000
0010
0100
0000
,
0001
0000
1000
0000
0010
0100
0001
0000
,
1000
0000
0010
0000
0100
0001
1000
0000
,
0010
0000
0100
0000
0001
1000
0010
0000
,
0100
0000
0100
0000
0100
0001
1000
0000
,
0010
0000
0000
0000
,
0000
0000
0000
0000
;

//---------------dance-single - ----------------
#NOTES:
     dance-single:
     :
     Medium:
     9:
     0.412837,0.474976,0.209990,0.000000,0.000000,289.000000,268.000000,21.000000,0.000000,0.000000,0.000000,0.412837,0.474976,0.209990,0.000000,0.000000,289.000000,268.000000,21.000000,0.000000,0.000000,0.000000:
0000
0000
0000
0000
,
0000
0000
0000
0000
,
0000
0100
0000
0100
0001
0100
0010
1000
,
0000
0000
0000
1000
0010
0100
0001
0000
,
0000
0100
0000
0010
0000
0100
0000
0000
,
0001
1000
0010
0100
,
0001
0100
1000
0000
0001
0100
1000
0000
,
0010
1000
0001
0100
,
0001
0000
0001
0001
0100
0010
1000
0001
,
1000
1000
1000
0010
,
0100
0000
0100
0000
0100
0001
1000
0010
,
0100
0001
1000
0010
0100
0000
0100
0001
,
1000
1000
1000
1000
1000
0000
1000
0010
,
0100
0001
0100
1000
,
0100
0001
0100
0010
,
1000
0100
1000
0000
1000
0010
1000
0000
,
0001
0100
0010
1000
0001
0001
0001
0000
,
1000
0010
1000
0010
1000
0001
0001
0000
,
0100
0001
0100
0001
0100
0010
0010
0000
,
1000
0010
0100
0001
1000
0001
0001
0000
,
1000
0100
1000
0010
1000
0001
0001
0100
,
0000
0000
0000
0000
,
0100
0100
0100
0001
,
1000
1000
1000
0010
,
0100
0000
0100
0001
1000
0010
1000
0001
,
0100
0000
0100
0010
1000
0001
1000
0001
,
0100
0000
0010
0000
1000
0000
1001
1001
,
0000
0000
0100
0000
1000
0001
1001
1001
,
0000
0100
0001
1000
0010
0000
1010
1010
,
0000
0001
0100
0010
1000
0001
0101
0101
,
0000
0000
1000
0000
1000
0001
0100
0000
,
0010
0000
1000
0001
0100
0101
0101
0000
,
0000
0000
0001
0100
0010
1010
1010
0000
,
0000
0000
0100
0100
0000
0000
0001
0000
,
0100
0000
0100
0000
0100
0010
1000
0001
,
1000
0000
1000
0000
1000
0010
0100
0001
,
1000
0010
1000
0000
0001
0100
0001
0000
,
1000
0010
0100
0001
1000
1000
1000
0001
,
0100
0000
0100
0000
0100
0010
1000
0001
,
1000
0000
1000
0000
1000
0010
0100
0001
,
1000
0010
1000
0000
0001
0100
0001
0000
,
1000
0010
0100
0001
1000
0001
1000
0000
,
0010
0000
0100
0000
1001
1001
1001
0000
,
0100
0000
0001
0000
1010
1010
1010
0000
,
0001
0000
0010
0000
1100
1100
1100
0000
,
0010
0000
1000
0001
0100
0001
1000
0000
,
0000
0000
0001
0000
0000
1000
1000
1000
,
0010
0000
0100
0001
1000
0010
0100
0000
,
0001
0000
0001
1000
0010
0100
0010
1000
,
0001
0000
0100
0010
1000
0001
0100
0010
,
1000
0000
0000
0000
,
0000
0000
0000
0000
;

//---------------dance-single - ----------------
#NOTES:
     dance-single:
     :
     Hard:
     12:
     0.507118,0.524974,0.059997,0.000000,0.384981,355.000000,349.000000,6.000000,0.000000,0.000000,0.000000,0.507118,0.524974,0.059997,0.000000,0.384981,355.000000,349.000000,6.000000,0.000000,0.000000,0.000000:
0000
0000
0000
0000
,
0000
0000
0000
0000
0000
0000
0000
1000
,
0000
0000
1000
0000
0000
0000
0010
0010
0000
0000
1010
0000
0000
0000
0100
0000
,
0000
0000
0100
0000
0000
0000
0001
0001
0000
0000
0101
0000
0000
0000
0010
0000
,
0000
0100
0000
1000
0000
0001
0000
0000
,
0100
0000
0000
0100
0001
0000
0000
0001
1000
0000
0010
0000
1000
0000
0001
0000
,
0100
0000
0000
0100
0010
0000
0000
0010
1000
0000
0001
0000
0100
0000
0010
0000
,
1000
0000
0000
1000
0001
0000
0000
0001
0100
0000
0010
0000
1000
0000
0001
0000
,
0100
0000
0000
0100
0001
0000
0000
0001
0100
0000
0001
0000
1000
0000
0010
0000
,
0100
0000
0000
0000
0000
0000
0001
1000
,
0010
0010
0000
0100
0100
0000
0001
0001
0000
1000
1000
0000
0001
0000
1000
0000
,
0100
0100
0000
1000
1000
0000
0010
0010
0000
0100
0100
0000
0001
0000
1000
0000
,
0010
0010
0000
0100
0100
0000
0001
0001
0000
1000
1000
0000
0010
0000
0100
0000
,
0001
0001
0000
1000
0001
0000
0100
0010
0000
0100
0010
0000
1000
0000
0001
0000
,
1000
0100
0000
1000
0100
0000
1000
0100
0000
1000
0100
0000
1000
0000
0001
0000
,
0010
0001
0000
0010
0001
0000
0010
0001
0000
0010
0001
0000
0010
0000
0100
0000
,
1000
0001
0000
0100
0001
0000
1000
0001
0000
0100
0001
0000
1000
0000
0010
0000
,
0100
0100
0000
0001
0001
0000
1000
1000
0010
0000
0000
0000
1001
0000
0000
0000
,
0100
0100
0000
0001
0001
0000
0010
0010
0100
0000
0000
0000
1001
0000
0000
0000
,
0100
0010
0000
1000
0001
0000
0100
0010
0000
1000
0001
0000
0100
0000
0000
0000
,
0100
0010
0000
1000
0001
0000
0100
0010
0000
1000
0001
0000
0100
0000
0000
0000
,
0000
0000
0000
0000
,
0100
0100
0100
0100
,
0001
0000
0001
0000
0001
0001
0001
0001
,
1000
1000
1000
1000
1000
1000
1000
1000
,
0001
0100
0010
1000
0001
1000
0010
0100
,
0001
0000
0000
0001
0100
0000
0000
0100
0000
0000
0010
0000
1000
0000
0001
0000
,
0100
0000
0000
0100
0010
0000
0000
0010
0000
0000
1000
0000
0001
0000
0100
0000
,
0001
0000
0000
0001
0010
0000
0000
0010
0000
0000
0100
0000
1000
0000
0001
0000
,
1000
0000
0000
1000
0100
0000
0000
0100
0000
0000
0010
0000
0001
0000
1000
0000
,
0010
0010
0100
0100
0000
0001
1000
0001
,
0000
0100
0100
0100
0010
1000
0001
0000
,
0100
0100
0001
0001
1000
0010
0100
0001
,
1000
0100
0000
0000
1000
0001
1000
0001
1000
0000
0000
0000
0000
0000
0000
0000
,
0100
0100
0100
0100
,
0001
0000
0001
0000
0001
0001
0001
0001
,
1000
1000
1000
1000
1000
1000
1000
1000
,
0001
0100
0010
1000
0001
1000
0010
0100
,
0001
0000
0000
0001
0100
0000
0000
0100
0000
0000
0010
0000
1000
0000
0001
0000
,
0100
0000
0000
0100
0010
0000
0000
0010
0000
0000
1000
0000
0001
0000
0100
0000
,
0001
0000
0000
0001
0010
0000
0000
0010
0000
0000
0100
0000
1000
0000
0001
0000
,
1000
0000
0000
1000
0100
0000
0000
0100
0000
0000
0010
0000
0001
0000
1000
0000
,
0010
0010
0100
0100
0000
0001
1000
0001
,
0000
0100
0100
0100
0010
1000
0001
0000
,
0100
0100
0001
0001
1000
0010
0100
0001
,
1000
1000
1000
1000
0000
1001
1001
0000
,
0100
0000
0000
0100
0001
0000
0000
0001
1000
0000
0010
0000
1000
0000
0001
0000
,
0100
0000
0000
0100
0010
0000
0000
0010
1000
0000
0001
0000
0100
0000
0010
0000
,
1000
0000
0000
1000
0001
0000
0000
0001
0100
0000
0010
0000
1000
0000
0001
0000
,
0100
0010
1000
0001
0100
0100
0010
0100
,
0001
0000
0000
0000
;

//---------------dance-double - ----------------
#NOTES:
     dance-double:
     :
     Easy:
     5:
     0.241416,0.224989,0.010000,0.000000,0.000000,169.000000,168.000000,1.000000,0.000000,0.000000,0.000000,0.241416,0.224989,0.010000,0.000000,0.000000,169.000000,168.000000,1.000000,0.000000,0.000000,0.000000:
00000000
00000000
00000000
00000000
,
00000000
00000000
00000000
00000000
00000000
00000000
00000000
00000001
,
00000000
00000000
00000000
00000100
00000000
00010000
00000000
01000000
,
00000000
00000000
00000000
00001000
00000000
00000100
00000000
00000010
,
00000000
00000000
00000000
00000010
00000000
00000000
00000000
00000000
,
00000000
00001000
00000000
00000001
,
00000010
00000100
00000000
00010000
,
01000000
00000000
00000000
01000000
,
10000000
00100000
01000000
00010000
,
00000100
00000000
00000000
00000010
,
00010000
00000000
00000000
01000000
,
10000000
00100000
10000000
00100000
,
01000000
00001000
00100000
00001000
,
00000100
00000000
00000010
00001000
,
00000001
00000100
00000001
00001000
,
00000010
00010000
00000100
00010000
,
00001000
00001000
01000000
00010000
,
00100000
00010000
10000000
01000000
,
00100000
00010000
10000000
01000000
,
00100000
00001000
01000000
00001000
,
00010000
00000100
00010000
00000010
,
00001000
00000000
00000000
00000000
,
00000001
00000100
00010000
00001000
,
00100000
01000000
00010000
10000000
,
00100000
00100000
10000000
00010000
,
01000000
00001000
00010000
00000100
,
00000010
00000010
00000001
00000100
,
00000010
00010000
00001000
00100000
,
01000000
01000000
10000000
00010000
,
01000000
00001000
00100000
00001000
,
00000100
00000000
00000001
00001000
,
00000010
00000000
00010000
01000000
,
10000000
00100000
10000000
00010000
,
01000000
01000000
01000000
00000000
,
00000001
00000100
00010000
00001000
,
00100000
01000000
00010000
10000000
,
00100000
00100000
10000000
00010000
,
01000000
00001000
00010000
00000100
,
00000010
00000010
00000001
00000100
,
00000010
00010000
00001000
00100000
,
01000000
01000000
10000000
00010000
,
01000000
00001000
00100000
00001000
,
00000100
00000000
00000001
00001000
,
00000010
00000000
00010000
01000000
,
10000000
00100000
10000000
00010000
,
01000000
00000000
01000000
10010000
,
00000000
00000000
01000000
00000000
00000000
00001000
00001000
00000000
,
00010000
00000000
00000100
00000010
,
00000001
00001000
00000100
00000010
,
00000100
00010000
00001000
01000000
,
00100000
00000000
00000000
00000000
,
00000000
00000000
00000000
00000000
;

//---------------dance-double - ----------------
#NOTES:
     dance-double:
     :
     Medium:
     9:
     0.354268,0.399980,0.000000,0.000000,0.000000,248.000000,248.000000,0.000000,0.000000,0.000000,0.000000,0.354268,0.399980,0.000000,0.000000,0.000000,248.000000,248.000000,0.000000,0.000000,0.000000,0.000000:
00000000
00000000
00000000
00000000
,
00000000
00000000
00000000
00000000
,
01000000
01000000
00001000
01000000
,
00001000
00000000
00010000
00000000
00001000
00010000
00000010
00000100
,
00000000
00000001
00000000
00001000
00000000
00000010
00000000
00000100
,
00000001
00001000
00000100
00010000
,
01000000
00000000
01000000
00000000
00000000
10000000
00100000
01000000
,
00000000
00010000
00000000
01000000
00000000
00001000
00100000
00001000
,
00010000
00000000
00000100
00000010
,
00001000
00000000
00000000
00000000
00000000
00000100
00010000
00001000
,
01000000
00000000
00000000
00000000
00000000
00100000
10000000
00010000
,
01000000
00000000
01000000
00000000
01000000
00100000
10000000
00010000
,
01000000
00001000
00010000
01000000
10000000
00100000
00100000
00000000
,
01000000
00000000
00001000
00000100
,
00000010
00000000
00001000
00000001
00000100
00000001
00000001
00000000
,
00000100
00001000
00000100
00000001
,
00000100
00000000
00000010
00000000
00010000
00001000
00001000
00000000
,
01000000
00000000
00010000
00000000
10000000
00000000
01000000
01000000
,
10000000
00000000
00100000
00000000
01000000
00000000
00001000
00010000
,
00000100
00000000
00010000
00000000
00000010
00000000
00000010
00001000
,
00000001
00000000
00000100
00000001
00001000
00000010
00000010
00000000
,
00000100
00000000
00000000
00000000
,
00000001
00000000
00000001
00000000
00000001
00000000
00000001
00000010
,
00000100
00000000
00000100
00000000
00000100
00000000
00000100
00000010
,
00001000
00000010
00000100
00000010
00001000
00000010
00000100
00000010
,
00010000
00000000
00010000
00000000
00010000
00001000
01000000
00001000
,
00100000
00000000
00000000
00000000
00010000
01000000
10000000
01000000
,
00010000
00000000
00100000
00000000
01000000
10000000
01000000
00100000
,
00001000
00000000
00001000
00000000
00000100
00000010
00001000
00000001
,
00000100
00000000
00000010
00000000
00001000
00000000
00001000
00000100
,
00010000
00000000
01000000
00000000
10000000
01000000
00010000
00000000
,
10000000
00000000
00100000
00000000
01000000
00010000
10000000
00000000
,
00100000
00000000
00001000
00000000
00000010
00001000
00000001
00000000
,
00000100
00000010
00000000
00000000
00001000
00000001
00000100
00000000
,
00000001
00001000
00000001
00001000
00000001
00000000
00000001
00000100
,
00000010
00001000
00000001
00001000
00000010
00000000
00000010
00000100
,
00001000
00000100
00000010
00000100
00001000
00000100
00000010
00000100
,
00010000
00000000
00010000
00000000
00010000
00001000
00100000
00001000
,
01000000
00000000
00000000
00000000
00010000
00100000
10000000
00100000
,
00010000
00000000
01000000
00000000
00100000
10000000
00100000
01000000
,
00001000
00000000
00001000
00000000
00000010
00000100
00001000
00000001
,
00000010
00000000
00000100
00000000
00001000
00000000
00001000
00000010
,
00010000
00000000
00100000
00000000
10000000
00100000
00010000
00000000
,
10000000
00000000
01000000
00000000
00100000
00010000
10000000
00000000
,
01000000
00000000
00001000
00000000
00000100
00001000
00000001
00000000
,
00000100
00000000
00000100
00000000
00000010
00010000
01000000
00000000
,
10000000
00000000
00000000
00000000
00100000
10000000
00100000
01000000
,
00010000
00000000
00000000
00000000
01000000
00001000
01000000
00100000
,
00010000
00000000
00000000
00000000
00000010
00010000
00000100
00001000
,
00000001
00000001
00001000
00000010
,
00000100
00000000
00000000
00000000
,
00000000
00000000
00000000
00000000
;

//---------------dance-double - ----------------
#NOTES:
     dance-double:
     :
     Hard:
     11:
     0.444264,0.499975,0.059997,0.000000,0.054997,311.000000,305.000000,6.000000,0.000000,0.000000,0.000000,0.444264,0.499975,0.059997,0.000000,0.054997,311.000000,305.000000,6.000000,0.000000,0.000000,0.000000:
00000000
00000000
00000000
00000000
,
00000000
00000000
00000000
00000000
00000000
00000000
00000000
10000000
,
00000000
10000000
00000000
00100000
00000000
00001000
00000010
00001000
,
00000001
00000100
00000010
00010000
00000000
00001000
01000000
00010000
,
00100000
00000000
00010000
10000000
01000000
00100000
00000000
10000000
,
00010000
01000000
00001000
00000000
01000000
00100000
10000000
00000000
,
00100000
00001000
00000010
00000100
,
00000001
00000000
00001000
00000010
00010000
00000100
00001000
00000001
,
00000100
00000010
00010000
00000000
00001000
00000010
00010000
00000100
,
00001000
00000000
00000000
00000000
00000000
00000000
01000000
10000000
,
00100000
00000000
00000000
00000000
00000000
00000000
00100000
00001000
,
00010000
00000010
00010000
00000100
00001000
00010000
00010000
00000000
,
00001000
00000010
00000100
00000001
00001000
00000001
00000001
00000000
,
00000100
00000000
00010000
00000000
01000000
00100000
10000000
00010000
,
01000000
00010000
10000000
00100000
01000000
00010000
00010000
00010000
,
01000000
00001000
01000000
00010000
00100000
00100000
00100000
00100000
,
00001000
00010000
00001000
00000100
00000010
00000010
00000010
00000010
,
00001000
00000000
00000001
00000000
00001000
00000000
00000001
00000000
00000100
00000010
00000100
00000000
00000001
00000000
00000000
00000000
,
00000100
00000000
00010000
00000000
01000000
00000000
00001000
00000000
01000000
00010000
01000000
00000000
00100000
00000000
00000000
00000000
,
00000000
00000000
10000000
00000000
00100000
00000000
01000000
00000000
00010000
10000000
00100000
00000000
01000000
00000000
00000000
00000000
,
00001000
00000000
00100000
00000000
00001000
00000000
01000000
00000000
00001000
01000000
00001000
00000000
00010000
00000000
00010000
00000000
,
00000100
00000000
00000000
00000000
,
00000001
00000000
00001000
00000000
,
00000100
00000000
00010000
00000000
00000010
00000000
00010000
00001000
,
01000000
00000000
00001000
00000000
00100000
00000000
00001000
00010000
,
01000000
00000000
01000000
01000000
10000000
00000000
00010000
10010000
,
10000000
00100000
01000000
00001000
00010000
01000000
01000000
00000000
,
00100000
00001000
00010000
00000010
00010000
00001000
00001000
00000000
,
00000100
00000000
00000010
00000000
00001000
00000000
00000001
00000000
00000100
00000000
00000010
00000000
00001000
00000001
00001000
00000000
,
00000100
00000000
00010000
00000000
00000100
00000000
00001000
00000000
00000010
00000100
00000010
00000000
00001000
00000000
00001001
00000000
,
00000001
00000000
00000100
00000000
00000010
00010000
00001000
00000000
,
01000000
00000000
00001000
00000000
01000000
00010000
00100000
00000000
,
00001000
01000000
00100000
00000000
10000000
00010000
01000000
00000000
,
01000000
00100000
00000000
00000000
10000000
00010000
10000000
00010000
10000000
00000000
00000000
00000000
00100000
00000000
00000000
00000000
,
10000000
10000000
00100000
00000000
01000000
01000000
00010000
00000000
,
00100000
00001000
00100000
00000000
00010000
01000000
00001000
00010000
,
00000010
00000000
00010000
00000000
00000100
00000000
00010000
00001000
,
00000010
00000000
00000010
00000010
00000001
00000000
00001000
00001001
,
00000001
00000100
00000010
00010000
00001000
00000010
00000010
00000000
,
00000100
00010000
00001000
01000000
00001000
00010000
00010000
00000000
,
00100000
00000000
01000000
00000000
00010000
00000000
10000000
00000000
00100000
00000000
01000000
00000000
00010000
10000000
00010000
00000000
,
00100000
00000000
00001000
00000000
00100000
00000000
00010000
00000000
01000000
00100000
01000000
00000000
00010000
00000000
10010000
00000000
,
10000000
00000000
00100000
00000000
01000000
00001000
00010000
00000000
,
00000010
00000000
00010000
00000000
00000010
00001000
00000100
00000000
,
00010000
00000010
00000100
00000000
00000001
00001000
00000010
00000000
,
00010000
00000000
00001000
00010000
00000100
00000000
00010000
00000000
,
01000000
01000000
01000000
10000000
00100000
00000000
01000000
01000000
,
00001000
00000000
00100000
00001000
01000000
00010000
00010000
00000000
,
00100000
00001000
00000100
00000100
00000010
00000000
00001001
00001001
,
00001000
00000010
00000100
00000000
00000001
00001000
00000010
00000010
,
00010000
00000000
00000000
00000000
,
00000000
00000000
00000000
00000000
;

//---------------dance-single - ----------------
#NOTES:
     dance-single:
     :
     Challenge:
     14:
     0.677109,0.674966,0.059997,0.059997,0.914954,474.000000,468.000000,6.000000,6.000000,0.000000,0.000000,0.677109,0.674966,0.059997,0.059997,0.914954,474.000000,468.000000,6.000000,6.000000,0.000000,0.000000:
// measure 0
0000
0000
0000
0000
,  // measure 1
0000
0000
0000
0000
,  // measure 2
0000
0000
0000
0000
,  // measure 3
0000
0000
0000
0000
,  // measure 4
0000
0000
0000
0000
,  // measure 5
0001
0010
0100
1000
0001
0000
1000
0001
0000
0100
0001
0000
1000
0100
0010
0000
,  // measure 6
0001
0100
0010
1000
0100
0000
1000
0100
0000
1000
0100
0000
1000
0010
0100
0000
,  // measure 7
0010
0100
0001
0100
0010
0000
1000
0100
0000
0010
0001
0000
1000
0001
1000
0000
,  // measure 8
0001
0010
0000
0001
0100
0000
0010
1000
0000
0100
1000
0000
0001
1000
0001
0000
,  // measure 9
1000
0010
1000
0010
1000
0000
0010
1000
0000
0001
1000
0000
0001
1000
0001
1000
,  // measure 10
0001
0010
0001
0010
0001
0000
0010
0001
0000
1000
0001
0000
0100
0001
0100
0001
,  // measure 11
1000
0001
1000
0001
1000
0000
0001
0100
0000
0010
1000
0000
0100
1000
0100
1000
,  // measure 12
0010
0100
0010
0100
0010
0000
0001
0010
0000
0100
1000
0000
0001
0100
0010
1000
,  // measure 13
0001
1000
0100
0010
0001
0000
1000
0010
0000
0100
0001
0000
1000
0100
0010
0000
,  // measure 14
0100
1000
0100
0010
0100
0000
0010
0100
0000
1000
0100
0000
0010
0100
0010
0000
,  // measure 15
0001
1000
0010
0100
0001
0000
1000
0001
0000
0100
0001
0000
0010
0001
1000
0000
,  // measure 16
0001
0100
0010
0100
0001
0000
0010
0001
0000
0100
0001
0000
0010
0001
0010
0000
,  // measure 17
0001
1000
0010
1000
0100
0000
0010
1000
0100
0000
0010
0000
0001
0010
0001
0000
,  // measure 18
1000
0001
0100
0001
0010
0000
0001
0010
0100
0000
1000
0000
0001
1000
0100
0000
,  // measure 19
0010
0001
0010
0100
1000
0000
0010
0100
0001
0000
1000
0000
0001
0100
0010
0000
,  // measure 20
1000
0100
1000
0100
0010
0000
0001
1000
0001
0000
1000
0000
0001
0100
0020
0000
,  // measure 21
0000
0000
0000
0000
0000
0000
0000
0030
,  // measure 22
0000
0000
0000
0000
,  // measure 23
1010
0000
0000
0000
0100
0001
1000
0100
,  // measure 24
0101
0000
0000
0000
0100
0001
1000
0010
,  // measure 25
1010
0011
1010
1100
,  // measure 26
0001
0100
0010
1000
0001
0000
1000
0100
0000
0010
0001
0000
1000
0001
1000
0000
,  // measure 27
0001
0100
0000
0010
1000
0000
0001
1000
0100
0000
0010
0000
0001
1000
0001
0000
,  // measure 28
1000
0010
0000
0100
0001
0000
1000
0010
0000
0100
0001
0000
1000
0100
1000
0000
,  // measure 29
0001
0010
0100
1000
0001
0000
1000
0001
0100
0000
0010
0000
1000
0100
0010
0000
,  // measure 30
0001
0010
0000
0001
0010
0000
0000
0000
0100
1000
0000
0100
1000
0000
0000
0000
,  // measure 31
0001
0100
0000
0001
0100
0000
0000
0000
0010
1000
0000
0010
1000
0000
0000
0000
,  // measure 32
1000
0100
0000
1000
0100
0000
0000
0000
0010
0001
0000
0010
0001
0000
0000
0000
,  // measure 33
1000
0001
1000
0000
0001
0001
1000
1000
0002
0000
0000
0000
0003
0000
0000
0000
,  // measure 34
0001
0010
0100
1000
0001
0000
1000
0001
0100
0000
0010
0000
1000
0001
0100
0000
,  // measure 35
0001
0010
0100
1000
0001
0000
1000
0001
0000
0100
0001
0000
0010
0001
0010
0000
,  // measure 36
0001
0010
0000
0100
1000
0000
0001
0100
0010
0000
1000
0000
0001
1000
0001
0000
,  // measure 37
1000
0001
0000
0100
0001
0000
1000
0010
0000
1000
0100
0000
0010
0001
0010
0000
,  // measure 38
0001
1000
0001
0100
0001
0000
0010
0100
1000
0000
0100
0000
1000
0100
1000
0000
,  // measure 39
1000
0010
0100
0001
0010
0000
0001
0010
0000
0001
0010
0000
0001
0100
0001
0000
,  // measure 40
0001
0100
0000
0010
1000
0000
0001
1000
0100
0000
0010
0000
0001
0010
0001
0000
,  // measure 41
1000
0001
0000
0010
0001
0000
0100
0001
0000
1000
0002
0000
0020
0000
0033
0000
,  // measure 42
0001
0100
0010
1000
0100
0000
1000
0100
0010
0000
0100
0000
1000
0010
0100
0000
,  // measure 43
0001
0100
0010
1000
0001
0000
1000
0100
0000
0010
0001
0000
1000
0001
0100
0000
,  // measure 44
0001
0010
0000
0100
1000
0000
0001
0100
0000
0010
1000
0000
0001
1000
0001
0000
,  // measure 45
1000
0001
0000
0100
0001
0000
0010
0001
1000
0000
2000
0000
0020
0000
3030
0000
,  // measure 46
1000
0010
0100
0001
1000
0000
0001
0010
0100
0000
1000
0000
0001
1000
0100
0000
,  // measure 47
0010
0001
0100
0010
1000
0000
1000
0010
0000
1000
0100
0000
0010
0001
0010
0000
,  // measure 48
0001
0100
0000
0010
1000
0000
0001
1000
0001
0000
1000
0000
0100
0010
0001
0000
,  // measure 49
1000
0001
0000
0100
0001
0000
1000
0001
0000
0010
0001
0000
0100
0001
0010
0000
,  // measure 50
0001
0000
0000
0000
;
