#TITLE:Electric Touch;
#SUBTITLE:(Taylor's Version) (From The Vault);
#ARTIST:Taylor Swift (feat. Fall Out Boy);
#TITLETRANSLIT:;
#SUBTITLETRANSLIT:;
#ARTISTTRANSLIT:;
#GENRE:;
#CREDIT:;
#BANNER:;
#BACKGROUND:Electric Touch (Taylor's Version) (From The Vault)-bg.png;
#LYRICSPATH:;
#CDTITLE:;
#MUSIC:Electric Touch (Taylor's Version) (From The Vault).mp3;
#OFFSET:0.000000;
#SAMPLESTART:100.000000;
#SAMPLELENGTH:12.000000;
#SELECTABLE:YES;
#BPMS:0.000000=126.999992
,4.000000=131.000000
,351.000000=65.500000
,368.000000=98.250000
,380.000000=131.000000
,396.000000=262.000000
,460.000000=131.000000
,492.000000=262.000000
;
#STOPS:
;
#BGCHANGES:0.000=Electric Touch (Taylor's Version) (From The Vault)-bg.png=1.000=0=0=0=StretchNoLoop====,
0.500=Electric Touch (Taylor's Version) (From The Vault).mp4=1.000=0=0=1=====,
99999=-nosongbg-=1.000=0=0=0 // don't automatically add -songbackground-
;
#KEYSOUNDS:;
#ATTACKS:;

//---------------dance-single - ----------------
#NOTES:
     dance-single:
     :
     Challenge:
     17:
     0.479614,1.100791,0.481200,0.251705,0.272063,907.000000,777.000000,130.000000,68.000000,340.000000,0.000000,0.479614,1.100791,0.481200,0.251705,0.272063,907.000000,777.000000,130.000000,68.000000,340.000000,0.000000:
// measure 0
0000
0000
0000
0000
,  // measure 1
0000
0000
0000
0000
,  // measure 2
0000
0000
0000
0000
,  // measure 3
0000
0000
0000
0000
,  // measure 4
0000
0000
0000
0000
,  // measure 5
0000
0000
0000
0000
,  // measure 6
0000
0000
0000
0000
,  // measure 7
0000
0000
0000
0000
,  // measure 8
0000
0000
1100
0000
1010
0000
MMMM
0001
,  // measure 9
1001
0000
0101
0000
0110
0000
MMMM
0010
,  // measure 10
0110
0000
1100
0000
0101
0000
MMMM
0100
,  // measure 11
0110
0000
1010
0000
0011
0000
MMMM
0001
,  // measure 12
1001
0000
1100
0000
1010
0000
MMMM
1000
,  // measure 13
1001
0000
0011
0000
0101
0000
MMMM
0001
,  // measure 14
1001
0000
1100
0000
0011
0000
MMMM
0010
,  // measure 15
0110
0000
0101
0000
1010
0000
MMMM
1000
,  // measure 16
0001
0100
0010
0000
0210
0000
0310
0000
,  // measure 17
0120
0000
0000
0000
0130
0000
0000
0000
1000
0001
1000
0000
0200
0000
0000
0000
,  // measure 18
0301
0000
MMMM
0000
1000
0100
0010
0001
,  // measure 19
0100
1000
0200
0000
0301
0010
2000
0000
,  // measure 20
3001
0000
MMMM
0000
1000
0001
0100
0000
,  // measure 21
0110
0000
0010
0001
0100
0010
2000
0000
,  // measure 22
3010
0200
0000
0300
MMMM
0000
MMMM
0000
,  // measure 23
0100
0110
0000
0000
MMMM
0000
MMMM
0000
,  // measure 24
1000
0100
0010
0001
0100
0010
1000
0001
,  // measure 25
0101
0000
1010
0000
1000
0100
0010
0000
,  // measure 26
0011
0000
MMMM
0000
0100
0010
1000
0100
,  // measure 27
0001
0100
1000
1000
0010
0010
0200
0000
,  // measure 28
0310
0000
MMMM
0000
0101
0000
0001
0100
,  // measure 29
0010
1000
1100
1000
0001
0100
0110
0000
,  // measure 30
1001
0000
0200
0000
0000
2300
0000
0000
,  // measure 31
3002
0000
0003
MMMM
,  // measure 32
MMMM
0000
0200
0000
0000
0302
0000
0000
,  // measure 33
2003
0000
0000
0000
3000
0000
0000
0000
MMMM
0000
0000
0000
1000
0100
0010
0001
,  // measure 34
0100
0010
1000
0100
0010
0000
0000
0000
0011
0000
0000
0000
0001
0100
0001
0000
,  // measure 35
0100
0000
2000
0000
0000
0000
3000
0000
MMMM
0000
0001
1000
0001
0000
0001
0000
,  // measure 36
0010
0000
0010
0000
0110
0000
0000
0000
1001
0000
0000
0000
0110
0000
0000
0100
,  // measure 37
0010
0100
MMMM
1001
0000
0110
0000
1001
,  // measure 38
0000
0110
0000
MMMM
0010
0001
0100
1000
,  // measure 39
0100
0000
0001
0000
0010
0000
0000
0000
0110
0000
0000
0000
1000
0100
1000
0100
,  // measure 40
1000
0000
0010
0000
0001
0000
0000
0000
MMMM
0000
0100
0010
0100
0000
0010
0000
,  // measure 41
0000
1010
0000
1001
0000
1100
0000
1001
,  // measure 42
0001
0000
0010
0001
0010
0001
0010
0000
0011
0000
0000
0000
0000
0001
0100
0001
,  // measure 43
0010
0000
0000
0000
0110
0000
0000
0000
0000
MMMM
0000
0000
0000
0000
0000
MMMM
0000
0000
1000
0000
0000
0001
0000
0000
,  // measure 44
0100
0000
0010
0000
1000
0000
1001
0000
0000
0000
MMMM
0000
0000
0000
0001
0100
,  // measure 45
0001
0200
0000
1300
0001
0200
0000
1300
,  // measure 46
0100
0001
0010
0001
0100
0000
1000
0000
1001
0000
0001
0000
0101
0000
0100
0000
,  // measure 47
0110
0000
0010
0000
1010
0000
0000
0000
1001
0000
0000
0000
1000
0010
1000
0010
,  // measure 48
0100
0010
0000
0002
0000
0000
0000
0003
,  // measure 49
MMMM
0000
0020
0000
0000
0000
0000
0100
,  // measure 50
0100
0100
0030
0000
MMMM
0000
MMMM
0100
,  // measure 51
0001
0010
0100
1000
0001
0000
0000
0000
0101
0000
0100
0000
1100
0000
0000
0000
,  // measure 52
1000
0010
1010
0000
1000
0001
0101
0000
,  // measure 53
1100
0000
MMMM
1000
0001
0100
0010
1000
,  // measure 54
0100
0010
0002
0000
0103
1000
0020
0000
,  // measure 55
0031
0000
0000
0000
MMMM
0000
0010
0000
0001
0000
0100
0000
0001
0000
1000
0001
,  // measure 56
1000
0000
0100
0000
MMMM
0000
0010
0001
0010
0000
0001
0000
0100
0000
0010
0000
,  // measure 57
1000
0002
0000
0000
0000
0003
MMMM
0000
,  // measure 58
MMMM
0020
0000
0000
0000
0030
MMMM
0100
,  // measure 59
0110
0010
1010
1000
0100
0010
0001
0100
,  // measure 60
1000
0100
0001
1000
0001
0000
0101
0000
,  // measure 61
1010
0000
1000
0000
0100
0000
0010
0000
0001
0100
0001
0000
0011
0000
0000
1001
,  // measure 62
0000
0000
1100
0000
0100
0000
0000
0101
0000
0000
1001
0000
1000
0000
0100
0000
,  // measure 63
0010
0001
0010
0000
0001
0000
0100
0000
0001
1000
0001
0000
0100
0000
0010
0000
,  // measure 64
1000
0000
0100
0000
0020
0000
0000
0000
0031
0000
0100
0000
0010
1000
0010
1000
,  // measure 65
0001
0000
0020
0000
0000
0032
0000
0000
,  // measure 66
2003
0000
0000
3000
MMMM
0000
MMMM
0000
,  // measure 67
MMMM
0000
2020
0000
3030
0202
0000
0303
,  // measure 68
0000
0000
2002
0000
0000
0000
0000
0000
3003
0000
0000
0000
0001
0010
0100
1000
,  // measure 69
0001
0100
0010
1000
0100
0000
0000
0000
0110
0000
0000
0100
0010
0000
0001
0000
,  // measure 70
1000
0000
0001
0000
MMMM
0000
0100
0000
0101
0000
0001
1000
0001
0000
0100
0000
,  // measure 71
0010
0000
1000
0000
0200
0000
0000
0000
2300
0000
0000
0000
3001
0000
0000
0100
,  // measure 72
0010
0000
0020
0000
0000
0000
0032
0000
0000
0000
0103
0000
0000
0000
0010
0001
,  // measure 73
0100
0010
1000
0010
0100
0000
0010
0000
0001
0100
0001
0000
1000
0000
0010
0000
,  // measure 74
0001
0000
0000
0000
0100
0000
0000
0000
0110
0000
0000
0000
0000
0000
0000
0000
1001
0000
0000
0000
0000
0000
0000
0000
0001
0010
0001
0000
0010
0000
0100
0000
,  // measure 75
1000
0100
1000
0000
0100
0000
0010
0000
0001
0000
0000
0000
0100
0000
0000
0000
1000
0000
0000
0000
0100
0000
0000
0000
0001
0000
0010
0000
0001
0000
0000
0000
,  // measure 76
0100
0000
0010
1000
0000
0000
1000
0100
0000
0000
0100
0001
0000
0001
0010
0001
,  // measure 77
0100
0010
1000
0100
0010
0000
0000
0000
0011
0000
0000
0000
MMMM
0000
0001
0000
,  // measure 78
0100
0000
0000
1100
0000
0000
0000
0000
MMMM
0000
0000
0000
1000
0000
0100
0001
,  // measure 79
0010
0001
0100
0101
0000
MMMM
0000
0001
,  // measure 80
1000
0200
0000
0310
0001
0020
0000
0130
,  // measure 81
1000
0100
0010
0001
0100
0000
0010
0000
1000
0100
1000
0000
0100
0000
0010
0000
,  // measure 82
0001
0000
0000
0000
0100
0000
0000
0000
1000
0000
0000
0000
0000
0000
0000
0000
1001
0000
0000
0000
0000
0000
0000
0000
0001
0100
0001
0000
0100
0000
0010
0000
,  // measure 83
1000
0100
1000
0000
0100
0000
0000
0000
MMMM
0000
0000
0000
2002
0000
0000
0000
0000
0000
0000
0000
0000
0000
0000
0000
0000
0000
0000
0000
3003
0000
0000
0000
,  // measure 84
0000
MMMM
0000
0000
0220
0000
0000
0000
0000
0000
0000
0000
0000
0000
0000
0000
,  // measure 85
0000
0000
0000
0000
,  // measure 86
0000
0330
MMMM
MMMM
,  // measure 87
MMMM
0000
0000
0000
MMMM
0000
0000
0000
MMMM
0000
0000
0000
1000
0100
0010
0001
,  // measure 88
0200
0000
0000
2300
0000
0000
3001
MMMM
0002
0000
0000
0023
0100
0100
0130
0000
,  // measure 89
2000
0000
0000
3002
0000
0000
0103
MMMM
0020
0000
0000
0230
0001
0001
0301
0000
,  // measure 90
2000
0000
0000
3020
0000
0000
0031
0000
MMMM
0010
0001
0100
0000
0110
0000
1001
,  // measure 91
0000
MMMM
1000
0100
0000
1000
0100
0010
0000
0001
0010
0100
1000
0001
0100
0010
,  // measure 92
1000
0000
0000
0000
0000
0000
1000
0000
0000
0100
0000
0000
0000
0000
0000
0010
0000
0000
0001
0000
0000
0000
0000
0000
0100
0000
0000
0000
0000
0000
1000
0000
,  // measure 93
0000
0100
0000
0000
0010
0000
0000
0001
0000
0000
0100
0000
0000
0000
0000
0000
0010
0000
0000
0000
0000
0000
MMMM
0000
0000
1000
0000
0000
0000
0000
MMMM
0000
,  // measure 94
0000
0000
0001
0000
0000
0000
0000
0000
0100
0000
0000
0000
0000
0000
MMMM
0000
0000
0010
0000
0000
0000
0000
MMMM
0000
0000
0000
1000
0000
0000
0000
MMMM
0000
,  // measure 95
0100
0000
MMMM
0101
0000
0000
1001
0000
,  // measure 96
1000
0100
1000
0100
0010
0001
0010
0001
,  // measure 97
0100
0010
1000
0100
0010
0001
1000
0100
0010
0001
0010
0100
1000
0001
0010
0100
,  // measure 98
1000
0100
1000
0000
0100
0000
0010
0000
0001
0010
0001
0000
0010
0000
0100
0000
1000
0100
1000
0000
0100
0000
0010
0000
0001
0010
0001
0000
0100
0000
0020
0000
,  // measure 99
0200
0000
0000
0000
,  // measure 100
0000
0000
0000
0000
,  // measure 101
0000
0000
0000
0000
,  // measure 102
0030
0000
1000
1000
,  // measure 103
0000
0000
0001
0001
,  // measure 104
0000
0000
0010
0320
,  // measure 105
0000
0000
0100
0130
,  // measure 106
MMMM
0000
2002
3003
0001
0010
0100
1000
,  // measure 107
0100
0001
0100
1000
,  // measure 108
0100
0000
0001
0000
1000
0100
0001
0100
,  // measure 109
1000
0010
0001
0010
,  // measure 110
1000
0000
0010
0000
0001
0010
0100
0010
,  // measure 111
0001
0010
0100
0000
1000
0000
0100
0000
,  // measure 112
0010
0001
0100
0000
1000
0100
0010
0100
,  // measure 113
1000
0001
0100
1000
,  // measure 114
0100
0000
0001
0010
0100
1000
0100
0010
,  // measure 115
0001
0000
0101
0000
0100
0010
1000
1100
,  // measure 116
MMMM
0000
0001
0000
0101
0000
0100
0010
0100
0000
1000
0000
0100
0000
0010
0000
,  // measure 117
0001
0000
0000
0000
0101
0000
0000
0000
1100
0000
0000
1000
0100
0000
0110
0000
,  // measure 118
MMMM
0000
1001
0000
MMMM
0000
0110
0000
0000
0000
0001
0010
0100
1000
0100
0010
,  // measure 119
0001
0000
0100
0100
1000
1000
0001
0001
,  // measure 120
0010
0000
0000
0000
0000
0000
0000
0000
0110
0000
0000
0000
0000
0000
0000
0000
1000
0100
1000
0000
0100
0000
0010
0000
0001
0010
0001
0000
0010
0000
0000
0000
,  // measure 121
MMMM
2200
0000
0000
0000
3300
MMMM
0000
,  // measure 122
0101
0000
0000
0000
1010
0000
0000
0000
1000
0100
0010
0001
0100
0010
1000
0001
,  // measure 123
0100
0000
MMMM
0000
1100
0000
1000
0100
,  // measure 124
1000
0100
0001
0200
,  // measure 125
0000
0000
0010
0000
0310
0000
0001
1000
,  // measure 126
0001
0010
0100
1000
,  // measure 127
0200
0000
2300
0000
,  // measure 128
3001
0000
0000
0010
0001
0000
0110
0000
,  // measure 129
MMMM
1010
MMMM
1100
,  // measure 130
MMMM
0000
0100
0000
0001
0010
0100
0001
,  // measure 131
1000
MMMM
0110
0110
,  // measure 132
1000
0100
0001
0100
,  // measure 133
1000
MMMM
1100
MMMM
,  // measure 134
1000
0100
1000
0000
0100
0000
0010
0000
0001
0100
0001
0000
0100
0000
0000
0000
,  // measure 135
0110
0000
0000
0000
MMMM
0000
0000
0000
1001
0000
0000
0000
0001
0010
0001
0000
,  // measure 136
0110
0110
MMMM
1100
,  // measure 137
MMMM
0101
MMMM
0011
,  // measure 138
MMMM
0000
1000
0010
0001
0010
0100
1000
,  // measure 139
0001
MMMM
0101
0000
,  // measure 140
1010
0000
1000
0100
1000
0000
0000
2200
,  // measure 141
0000
0000
0000
0000
0000
3300
0000
MMMM
,  // measure 142
0000
0000
0110
0000
0101
0000
0001
0010
,  // measure 143
0100
1000
0001
0100
0010
0000
0000
0000
,  // measure 144
MMMM
0000
1000
0100
0010
0000
0011
0000
,  // measure 145
0000
0010
0001
0000
1001
0000
1100
0000
,  // measure 146
0000
0001
0100
0010
1000
0001
0100
0010
,  // measure 147
1000
0000
MMMM
0000
1100
0000
1000
0001
,  // measure 148
0100
0110
1001
0110
,  // measure 149
0011
MMMM
0101
MMMM
,  // measure 150
1000
0100
1000
0000
0100
0000
0010
0000
0001
0010
0001
0000
0010
0000
0100
0000
,  // measure 151
0000
2020
0000
0000
,  // measure 152
0000
3030
MMMM
MMMM
,  // measure 153
0020
0000
0000
0000
,  // measure 154
0000
0000
0000
0000
,  // measure 155
0000
0000
0000
0000
,  // measure 156
0000
0000
0000
0000
,  // measure 157
0000
0000
0000
0000
,  // measure 158
0000
0000
0000
0000
,  // measure 159
0000
0000
0000
0000
,  // measure 160
0000
0130
0110
0110
;
