#VERSION:0.83;
#TITLE:EZ DO DANCE;
#SUBTITLE:;
#ARTIST:TRF;
#TITLETRANSLIT:;
#SUBTITLETRANSLIT:;
#ARTISTTRANSLIT:;
#GENRE:;
#ORIGIN:;
#CREDIT:;
#BANNER:EZ DO DANCE.png;
#BACKGROUND:EZ DO DANCE-bg.png;
#PREVIEWVID:;
#JACKET:EZ DO DANCE-jacket.png;
#CDIMAGE:;
#DISCIMAGE:;
#LYRICSPATH:;
#CDTITLE:;
#MUSIC:EZ DO DANCE.ogg;
#OFFSET:0.000000;
#SAMPLESTART:63.439999;
#SAMPLELENGTH:15.000000;
#SELECTABLE:YES;
#BPMS:0.000=140.000;
#STOPS:;
#DELAYS:;
#WARPS:;
#TIMESIGNATURES:0.000=4=4;
#TICKCOUNTS:0.000=4;
#COMBOS:0.000=1;
#SPEEDS:0.000=1.000=0.000=0;
#SCROLLS:0.000=1.000;
#FAKES:;
#LABELS:0.000=Song Start;
#BGCHANGES:0.000=EZ DO DANCE.avi=1.000=0=0=0=StretchNoLoop====,
99999=-nosongbg-=1.000=0=0=0 // don't automatically add -songbackground-
;
#KEYSOUNDS:;
#ATTACKS:
;

//---------------dance-single - ----------------
#NOTEDATA:;
#CHARTNAME:;
#STEPSTYPE:dance-single;
#DESCRIPTION:;
#CHARTSTYLE:;
#DIFFICULTY:Beginner;
#METER:1;
#RADARVALUES:0.096485,0.135590,0.092099,0.000000,0.000000,66.000000,57.000000,9.000000,0.000000,0.000000,0.000000,0.000000,0.000000,0.000000,0.096485,0.135590,0.092099,0.000000,0.000000,66.000000,57.000000,9.000000,0.000000,0.000000,0.000000,0.000000,0.000000,0.000000;
#CREDIT:;
#NOTES:
0000
0000
0000
0000
,
0000
0000
0000
0000
,
0000
0000
0000
0000
,
0000
0000
0000
0000
,
0000
0000
0000
0000
,
0010
0000
0000
0000
,
0100
0000
0000
0000
,
0010
0000
0000
0000
,
0100
0000
0000
0000
,
0001
0000
0000
0000
,
0001
0000
0000
0000
,
1000
0000
0000
0000
,
1000
0000
0000
0000
,
0010
0000
0000
0000
,
0010
0000
0000
0000
,
0100
0000
0000
0000
,
0100
0000
0000
0000
,
1000
0000
1000
0000
,
1000
0000
0000
0000
,
0001
0000
0001
0000
,
0001
0000
0000
0000
,
0100
0000
0100
0000
,
0100
0000
0000
0000
,
0010
0000
0010
0000
,
0010
0000
0000
0000
,
0001
0000
0000
0000
,
1000
0000
0000
0000
,
1001
0000
0000
0000
,
1001
0000
0000
0000
,
0010
0000
0000
0000
,
0100
0000
0000
0000
,
1001
0000
0000
0000
,
1001
0000
0000
0000
,
1000
0000
0000
0000
,
0001
0000
0000
0000
,
0010
0000
0000
0000
,
0100
0000
0000
0000
,
0010
0000
0010
0000
,
0010
0000
0000
0000
,
0100
0000
0100
0000
,
0100
0000
0000
0000
,
0001
0000
0001
0000
,
0001
0000
0000
0000
,
1000
0000
1000
0000
,
1000
0000
0000
0000
,
1001
0000
0000
0000
,
1001
0000
0000
0000
,
0001
0000
0000
0000
,
1000
0000
0000
0000
,
1001
0000
0000
0000
,
1001
0000
0000
0000
,
0010
0000
0000
0000
,
0100
0000
0000
0000
,
1001
0000
0000
0000
,
0000
0000
0000
0000
;

//---------------dance-single - ----------------
#NOTEDATA:;
#CHARTNAME:;
#STEPSTYPE:dance-single;
#DESCRIPTION:;
#CHARTSTYLE:;
#DIFFICULTY:Easy;
#METER:4;
#RADARVALUES:0.194431,0.271180,0.112565,0.030700,0.000000,133.000000,122.000000,11.000000,3.000000,0.000000,0.000000,0.000000,0.000000,0.000000,0.194431,0.271180,0.112565,0.030700,0.000000,133.000000,122.000000,11.000000,3.000000,0.000000,0.000000,0.000000,0.000000,0.000000;
#CREDIT:;
#NOTES:
0000
0000
0000
0000
,
0000
0000
0000
0000
,
0000
0000
0000
0000
,
0000
0000
0000
0000
,
0000
0000
0000
0000
,
0010
0000
0001
0000
,
0100
0001
1000
0000
,
0010
0000
0100
0000
,
0200
0000
0000
0000
,
0310
0000
1000
0001
,
1000
0000
0010
0000
,
0100
0000
0001
0010
,
0100
0000
0100
0000
,
0010
0000
0001
1000
,
0001
0000
0010
0000
,
0010
0000
1000
0010
,
0100
0000
0010
0000
,
0100
0000
1000
0001
,
1000
0000
0100
0000
,
0100
0000
0001
0100
,
0010
0000
0100
0000
,
0100
0000
0001
1000
,
0001
0000
0100
0000
,
0100
0000
1000
0100
,
0010
0000
0001
0000
,
2000
0000
0000
3001
,
0002
0000
0000
1003
,
0010
0000
0100
0000
,
0001
1000
0001
0000
,
0100
0000
0010
0000
,
1000
0001
1000
0000
,
0100
0000
0010
0000
,
0001
1000
1001
0000
,
0010
0000
0100
0000
,
0001
0000
1000
0000
,
0010
0000
0100
0000
,
1001
0000
0000
0000
,
0010
0000
1000
0001
,
0010
0000
0001
1001
,
0010
0000
0100
0000
,
0010
0000
0100
1001
,
0010
0000
0001
1000
,
0100
0000
0001
1001
,
0100
0000
0010
0000
,
0100
0000
0010
1001
,
0001
0000
0001
1001
,
1000
0000
1000
1001
,
0010
0000
1000
0000
,
0100
1000
0001
0000
,
1000
0000
1000
1001
,
0001
0000
0001
1001
,
1000
1000
0001
0001
,
1000
0001
1000
0001
,
1001
0000
0000
0000
,
0000
0000
0000
0000
;

//---------------dance-single - ----------------
#NOTEDATA:;
#CHARTNAME:;
#STEPSTYPE:dance-single;
#DESCRIPTION:;
#CHARTSTYLE:;
#DIFFICULTY:Medium;
#METER:7;
#RADARVALUES:0.296763,0.325416,0.112565,0.092099,0.000000,203.000000,192.000000,11.000000,9.000000,0.000000,0.000000,0.000000,0.000000,0.000000,0.296763,0.325416,0.112565,0.092099,0.000000,203.000000,192.000000,11.000000,9.000000,0.000000,0.000000,0.000000,0.000000,0.000000;
#CREDIT:;
#NOTES:
0000
0000
0000
0000
,
0000
0000
0000
0000
,
0000
0000
0000
0000
,
0000
0000
0000
0000
,
0000
0000
0000
0000
,
0010
1000
0001
0000
,
0001
0010
0100
0000
,
0010
1000
0001
0000
,
0020
0000
0000
0000
,
1030
0000
0010
0000
0010
1000
0100
0000
,
0010
0000
0001
0000
0010
0001
0100
0000
,
0010
0000
0100
0000
0010
0100
0010
0000
,
0100
0010
0100
0000
,
0001
0000
0100
0000
0100
0001
0010
0000
,
0100
0000
1000
0000
0100
1000
0010
0000
,
0100
0000
0010
0000
0100
0010
0100
0000
,
0010
0100
0010
0000
,
0001
0000
0001
0000
1000
0100
0001
0000
,
1000
0000
1000
0000
0001
0100
1000
0000
,
0010
0100
0001
1000
,
0100
1000
0010
0000
,
1000
0000
1000
0000
0001
0100
1000
0000
,
0001
0000
0001
0000
1000
0100
0001
0000
,
0010
0100
1000
0001
,
0100
0001
0100
0000
,
2000
0000
3000
0100
,
0002
0000
0003
0100
,
0001
0001
1000
1000
,
0010
0100
0010
0000
,
2000
0000
0000
3001
0002
0000
0000
1003
,
0100
0010
0100
1000
,
0010
1000
0001
0100
,
0010
1000
0100
0001
,
0100
0000
0001
0000
0001
1000
0100
0000
,
0100
0000
1000
0000
1000
0001
0100
0000
,
0010
0000
0100
0000
0010
0100
0010
0000
,
1001
0000
0000
0000
,
1000
0000
0001
0000
1000
0001
0100
0000
,
0010
0100
1000
1001
,
0001
0000
1000
0000
0001
1000
0100
0000
,
0010
0100
0001
1001
,
1000
0000
0001
0000
1000
0001
0010
0000
,
0100
0010
1000
1001
,
0001
0000
1000
0000
0001
1000
0010
0000
,
0100
0010
0001
1001
,
0020
0000
0000
1030
0010
0000
1010
0000
,
0200
0000
0000
0301
0100
0000
0101
0000
,
0001
0010
0010
0100
,
0100
1000
1000
1001
,
0200
0000
0000
0301
0100
0000
0101
0000
,
0020
0000
0000
1030
0010
0000
1010
0000
,
1000
0100
0100
0010
,
0010
0001
0001
0100
,
1001
0000
0000
0000
,
0000
0000
0000
0000
;

//---------------dance-single - ----------------
#NOTEDATA:;
#CHARTNAME:;
#STEPSTYPE:dance-single;
#DESCRIPTION:;
#CHARTSTYLE:;
#DIFFICULTY:Hard;
#METER:10;
#RADARVALUES:0.385938,0.379652,0.214898,0.071633,0.107449,264.000000,243.000000,21.000000,7.000000,0.000000,0.000000,0.000000,0.000000,0.000000,0.385938,0.379652,0.214898,0.071633,0.107449,264.000000,243.000000,21.000000,7.000000,0.000000,0.000000,0.000000,0.000000,0.000000;
#CREDIT:;
#NOTES:
0000
0000
0000
0000
,
0000
0000
0000
0000
,
0000
0000
0000
0000
,
0000
0000
0000
0000
,
0000
0000
0000
0000
,
1000
0100
0001
0100
,
1000
0100
0001
0100
,
1000
0100
0001
0000
1000
0100
0001
0000
,
2000
0000
0000
0000
,
3001
0000
0000
0100
0000
0000
0001
0000
0000
0000
0001
0000
0010
0000
0100
0000
,
1000
0000
0000
0100
0000
0000
1000
0000
0000
0000
1000
0000
0100
0000
0010
0000
,
0001
0000
0000
0010
0000
0000
0100
0000
0000
0000
0010
0000
0100
0000
0010
0000
,
0001
0000
0000
0100
0000
0000
0010
0000
0100
0000
0000
0000
1001
0000
0000
0000
,
1000
0000
0000
0010
0000
0000
1000
0000
0000
0000
1000
0000
0100
0000
0010
0000
,
0001
0000
0000
0010
0000
0000
0001
0000
0000
0000
0001
0000
0010
0000
0100
0000
,
1000
0000
0000
0100
0000
0000
0010
0000
0000
0000
0100
0000
0010
0000
0100
0000
,
1000
0000
0000
0010
0000
0000
0100
0000
0010
0000
0000
0000
1001
0000
0000
0000
,
0010
0000
0000
1000
0000
0000
0100
0000
0000
0000
0010
0000
0001
0000
0100
0000
,
1000
0000
0000
0100
0000
0000
0001
0000
0000
0000
1000
0000
0010
0000
0100
0000
,
1000
0000
0000
0100
0000
0000
0001
0000
0000
0000
0100
0000
0001
0000
0010
0000
,
1000
0000
0000
0010
0000
0000
0100
0000
0010
0000
0000
0000
1001
0000
0000
0000
,
0100
0000
0000
0001
0000
0000
0010
0000
0000
0000
0100
0000
1000
0000
0010
0000
,
0001
0000
0000
0010
0000
0000
1000
0000
0000
0000
0001
0000
0100
0000
0010
0000
,
0001
0000
0000
0010
0000
0000
1000
0000
0000
0000
0010
0000
1000
0000
0100
0000
,
0001
0000
0000
0100
0000
0000
0010
0000
0100
0000
0000
0000
1001
0000
0000
0000
,
0012
1000
0103
0101
,
2010
0001
3100
1100
,
0001
0001
1000
1000
,
0010
0000
0000
0100
0000
0000
0010
0000
0100
0000
0000
0000
0110
0000
0000
0000
,
1000
1000
0001
0001
,
0010
0000
0100
0100
0010
0000
0110
0000
,
0001
0010
1000
0100
,
0001
0010
0200
0000
,
0302
0000
1000
0000
1003
0001
0100
0000
,
2000
0000
0001
0000
3001
1000
0100
0000
,
0020
0001
0100
1030
,
0110
0000
0000
0000
,
0001
0000
0100
0000
0010
1000
0100
0000
,
0010
0001
0100
0001
0010
0000
1001
0000
,
1000
0000
0100
0000
0010
0001
0100
0000
,
0010
1000
0100
1000
0010
0000
1001
0000
,
1000
0000
0010
0000
0100
0001
0010
0000
,
0100
1000
0010
1000
0100
0000
0110
0000
,
0001
0000
0010
0000
0100
1000
0010
0000
,
0100
0001
0010
0001
0100
0000
0110
0000
,
0010
0000
0000
1000
0000
0000
0100
0000
0010
0000
0000
0000
1001
0000
0000
0000
,
0010
0000
0000
0001
0000
0000
0100
0000
0010
0000
0000
0000
1001
0000
0000
0000
,
1000
0010
0001
0000
0010
0100
0010
0000
,
0001
0010
1000
0000
0100
0000
1001
0000
,
0100
0000
0000
1000
0000
0000
0010
0000
0100
0000
0000
0000
1001
0000
0000
0000
,
0100
0000
0000
0001
0000
0000
0010
0000
0100
0000
0000
0000
1001
0000
0000
0000
,
1000
0001
0010
0000
0001
1000
0100
0000
,
1000
0100
0010
0000
0001
0100
0010
0000
,
1001
0000
0000
0000
,
0000
0000
0000
0000
;

//---------------dance-double - ----------------
#NOTEDATA:;
#CHARTNAME:;
#STEPSTYPE:dance-double;
#DESCRIPTION:;
#CHARTSTYLE:;
#DIFFICULTY:Easy;
#METER:4;
#RADARVALUES:0.185660,0.244062,0.061399,0.143265,0.000000,127.000000,121.000000,6.000000,14.000000,0.000000,0.000000,0.000000,0.000000,0.000000,0.185660,0.244062,0.061399,0.143265,0.000000,127.000000,121.000000,6.000000,14.000000,0.000000,0.000000,0.000000,0.000000,0.000000;
#CREDIT:;
#NOTES:
00000000
00000000
00000000
00000000
,
00000000
00000000
00000000
00000000
,
00000000
00000000
00000000
00000000
,
00000000
00000000
00000000
00000000
,
00000000
00000000
00000000
00000000
,
00010000
00000000
00100000
00000000
,
10000000
00000000
00100000
00000000
,
00010000
00000000
00001000
00000000
,
00000200
00000000
00000000
00000000
,
00000310
00000000
00000001
00001000
,
00000100
00000000
00010000
00001000
,
01000000
00000000
10000000
00010000
,
00200000
00300000
02000000
03000000
,
00100000
00000000
10000000
00010000
,
01000000
00000000
00001000
00010000
,
00000010
00000000
00000001
00001000
,
00000020
00000030
00000200
00000300
,
00000001
00000000
00000100
00001000
,
00010000
00000000
00001000
00010000
,
00001000
00000000
00100000
01000000
,
10000000
00000000
00100000
00000000
,
10000000
00000000
00100000
00010000
,
00001000
00000000
00010000
00001000
,
00010000
00000000
00000100
00000010
,
00000001
00000000
00000010
00000000
,
00002000
00000000
00000000
00003001
,
00000002
00000000
00000000
00001003
,
00000001
00000001
00001000
00001000
,
00010000
00010000
01000000
00000000
,
20000000
00000000
30020000
00000000
,
20030000
00000000
30010000
00000000
,
10000000
10000000
00010000
00010000
,
00001000
00001000
00000100
00000000
,
00001000
00000000
00001000
00000000
,
00010000
00000000
00010000
00000000
,
00100000
00000000
00100000
00000000
,
10010000
00000000
00000000
00000000
,
00100000
00000000
01000000
00000000
,
00100000
00000000
01000000
10010000
,
00010000
00000000
00001000
00000000
,
00000100
00000000
00000010
00001001
,
00000100
00000000
00000010
00000000
,
00000100
00000000
00000010
00001001
,
00001000
00000000
00010000
00000000
,
00100000
00000000
01000000
10010000
,
00001000
00001000
00200000
00300000
,
00010000
00010000
00000020
00000030
,
00001000
00000000
00010000
00000000
,
00100000
00000000
00001000
00000000
,
00100000
00001000
00020000
00030000
,
00000010
00010000
00002000
00003000
,
00100000
00000000
01000000
00000000
,
00100000
00000000
01000000
00000000
,
10010000
00000000
00000000
00000000
,
00000000
00000000
00000000
00000000
;

//---------------dance-double - ----------------
#NOTEDATA:;
#CHARTNAME:;
#STEPSTYPE:dance-double;
#DESCRIPTION:;
#CHARTSTYLE:;
#DIFFICULTY:Medium;
#METER:7;
#RADARVALUES:0.306996,0.379652,0.122799,0.112565,0.000000,210.000000,198.000000,12.000000,11.000000,0.000000,0.000000,0.000000,0.000000,0.000000,0.306996,0.379652,0.122799,0.112565,0.000000,210.000000,198.000000,12.000000,11.000000,0.000000,0.000000,0.000000,0.000000,0.000000;
#CREDIT:;
#NOTES:
00000000
00000000
00000000
00000000
,
00000000
00000000
00000000
00000000
,
00000000
00000000
00000000
00000000
,
00000000
00000000
00000000
00000000
,
00000000
00000000
00000000
00000000
,
00010000
00100000
10000000
00000000
,
00100000
00001000
00010000
00000000
,
00000010
00000001
00000100
00000000
,
00020000
00000000
00000000
00000000
,
00031000
00000000
00000100
00000000
00000010
00001000
00000100
00000000
,
00000010
00000000
00000001
00000000
00000100
00000010
00000100
00000000
,
00000010
00000000
00001000
00000000
00010000
01000000
00100000
00000000
,
10000000
00010000
10000000
00000000
,
00010000
00000000
00100000
00000000
01000000
00010000
00100000
00000000
,
01000000
00000000
10000000
00000000
00100000
01000000
00100000
00000000
,
01000000
00000000
00010000
00000000
00001000
00000010
00000100
00000000
,
00000001
00001000
00000001
00000000
,
00000010
00000000
00000100
00000000
00001000
00000001
00000100
00000000
,
00000010
00000000
00001000
00000000
00000100
00010000
00000010
00000000
,
00010000
00001000
01000000
10000000
,
00100000
01000000
00010000
00000000
,
01000000
00000000
00100000
00000000
00010000
10000000
00100000
00000000
,
01000000
00000000
00010000
00000000
00100000
00001000
01000000
00000000
,
00001000
00010000
00000010
00000001
,
00000100
00000010
00001000
00000000
,
00000020
00000001
00000100
00001030
,
00020000
00001000
00000010
00030100
,
00010000
00100000
10000000
01000000
,
00010000
01000000
00010000
00001000
,
00000020
00000000
00000000
00000130
00000020
00000000
00000000
00000130
,
00001000
00010000
01000000
10000000
,
00100000
10000000
00010000
00100000
,
00001000
00010000
00022000
00033000
,
00001000
00000000
00000100
00000000
00000010
00000010
00001000
00000000
,
00000001
00000000
00000100
00000000
00000010
00000010
00001000
00000000
,
00010000
01000000
10000000
00100000
,
01100000
00000000
00000000
00000000
,
10000000
00100000
01000000
00000000
10000000
00000000
00010000
00000000
,
00100000
00010000
00001000
00000000
00000100
00000000
00000110
00000000
,
00000100
00001000
00000010
00000000
00000100
00000001
00000010
00000000
,
00001000
00000010
00000001
00001001
,
00000001
00000100
00000010
00000000
00000001
00000000
00001100
00000000
,
00000100
00001000
00010000
00000000
00100000
00000000
01100000
00000000
,
00100000
00010000
01000000
00000000
00100000
10000000
01000000
00000000
,
00010000
01000000
10000000
10010000
,
00200000
00000000
00000000
00301000
00010000
00000000
00011000
00000000
,
00000020
00000000
00000000
00010030
00001000
00000000
00011000
00000000
,
00010000
00010000
00001000
00001000
,
00100000
00001000
00010000
00000000
,
00000200
00000000
00000000
00010300
00001000
00000000
00011000
00000000
,
02000000
00000000
00000000
03001000
00010000
00000000
00011000
00000000
,
00001000
00001000
00010000
00010000
,
00000100
00001000
00000010
00000100
,
00001001
00000000
00000000
00000000
,
00000000
00000000
00000000
00000000
;

//---------------dance-double - ----------------
#NOTEDATA:;
#CHARTNAME:;
#STEPSTYPE:dance-double;
#DESCRIPTION:;
#CHARTSTYLE:;
#DIFFICULTY:Hard;
#METER:10;
#RADARVALUES:0.374243,0.379652,0.173965,0.122799,0.107449,256.000000,239.000000,17.000000,12.000000,0.000000,0.000000,0.000000,0.000000,0.000000,0.374243,0.379652,0.173965,0.122799,0.107449,256.000000,239.000000,17.000000,12.000000,0.000000,0.000000,0.000000,0.000000,0.000000;
#CREDIT:;
#NOTES:
00000000
00000000
00000000
00000000
,
00000000
00000000
00000000
00000000
,
00000000
00000000
00000000
00000000
,
00000000
00000000
00000000
00000000
,
00000000
00000000
00000000
00000000
,
10000000
00010000
00100000
01000000
,
00010000
00001000
00000100
00000010
,
00001000
00000001
00000100
00000000
00000001
00001000
00000100
00000000
,
00000020
00000000
00000000
00000000
,
00001030
00000000
00000000
00000001
00000000
00000000
00000010
00000000
00000000
00000000
00000001
00000000
00000010
00000000
00000100
00000000
,
00001000
00000000
00000000
00000100
00000000
00000000
00010000
00000000
00000000
00000000
00001000
00000000
00010000
00000000
00001000
00000000
,
01000000
00000000
00000000
00100000
00000000
00000000
10000000
00000000
00000000
00000000
01000000
00000000
00100000
00000000
00001000
00000000
,
00100000
00000000
00000000
01000000
00000000
00000000
10000000
00000000
00100000
00000000
00000000
00000000
10010000
00000000
00000000
00000000
,
00010000
00000000
00000000
10000000
00000000
00000000
01000000
00000000
00000000
00000000
10000000
00000000
01000000
00000000
00100000
00000000
,
00010000
00000000
00000000
00100000
00000000
00000000
00001000
00000000
00000000
00000000
00010000
00000000
00001000
00000000
00010000
00000000
,
00000010
00000000
00000000
00000100
00000000
00000000
00000001
00000000
00000000
00000000
00000010
00000000
00000100
00000000
00010000
00000000
,
00000100
00000000
00000000
00000010
00000000
00000000
00000001
00000000
00000100
00000000
00000000
00000000
00001001
00000000
00000000
00000000
,
00000010
00000000
00000000
00001000
00000000
00000000
00000010
00000000
00000000
00000000
00000001
00000000
00000010
00000000
00001000
00000000
,
00000100
00000000
00000000
00001000
00000000
00000000
00000100
00000000
00000000
00000000
00010000
00000000
00001000
00000000
00100000
00000000
,
01000000
00000000
00000000
00010000
00000000
00000000
00001000
00000000
00000000
00000000
00010000
00000000
00100000
00000000
01000000
00000000
,
00010000
00000000
00000000
00100000
00000000
00000000
00010000
00000000
02000000
00000000
00000000
00000000
03000000
00000000
00000000
00000000
,
01000000
00000000
00000000
00010000
00000000
00000000
01000000
00000000
00000000
00000000
10000000
00000000
01000000
00000000
00010000
00000000
,
00100000
00000000
00000000
00010000
00000000
00000000
00100000
00000000
00000000
00000000
00001000
00000000
00010000
00000000
00000100
00000000
,
00000010
00000000
00000000
00001000
00000000
00000000
00010000
00000000
00000000
00000000
00001000
00000000
00000100
00000000
00000010
00000000
,
00001000
00000000
00000000
00000100
00000000
00000000
00000010
00000000
00000002
00000000
00000000
00000000
00000003
00000000
00000000
00000000
,
00000002
00000000
00000000
00000000
00000013
00000100
00001000
00000000
,
00020000
00000000
00000000
00000000
00031000
00010000
01000000
00000000
,
00200000
00310000
20000000
31000000
,
00100000
00000000
00000000
00100000
00000000
00000000
00100000
00000000
01000000
00000000
00000000
00000000
10010000
00000000
00000000
00000000
,
02000000
03010000
00002000
00013000
,
00001000
00000000
00010000
00010000
00001000
00000000
00011000
00000000
,
00000010
00000001
00000100
00001000
,
00010000
00100000
10000000
01000000
,
20010000
00000000
01000000
00000000
00010000
30010000
01000000
00000000
,
01002000
00000000
00100000
00000000
01000000
01003000
00010000
00000000
,
02000000
10000000
00010000
03100000
,
10010000
00000000
00000000
00000000
,
00100000
00000000
01000000
00000000
00010000
00100000
01000000
00000000
,
10000000
00100000
00010000
00100000
10000000
00000000
01100000
00000000
,
00100000
01000000
00010000
00000000
00010000
00000100
00000010
00000000
,
00000010
00001000
00000100
00000000
00000010
00000000
00001001
00000000
,
00000100
00000000
00000010
00000000
00001000
00000100
00000010
00000000
,
00000001
00000100
00001000
00000100
00000001
00000000
00000110
00000000
,
00000100
00000010
00001000
00000000
00001000
00100000
01000000
00000000
,
01000000
00010000
00100000
00000000
01000000
00000000
10010000
00000000
,
00100000
00000000
00000000
00001000
00000000
00000000
00010000
00000000
00001000
00000000
00000000
00000000
00010010
00000000
00000000
00000000
,
00000010
00000000
00000000
00010000
00000000
00000000
00001000
00000000
00010000
00000000
00000000
00000000
00101000
00000000
00000000
00000000
,
00010000
00100000
10000000
01000000
,
00001000
00000100
00000010
00001001
,
00000100
00000000
00000000
00010000
00000000
00000000
00001000
00000000
00010000
00000000
00000000
00000000
01001000
00000000
00000000
00000000
,
01000000
00000000
00000000
00001000
00000000
00000000
00010000
00000000
00001000
00000000
00000000
00000000
00010100
00000000
00000000
00000000
,
00000100
00001000
00000010
00000000
00000010
00010000
00001000
00000000
,
00001000
01000000
00100000
00000000
00100000
10000000
01000000
00000000
,
10010000
00000000
00000000
00000000
,
00000000
00000000
00000000
00000000
;

//---------------dance-single - ----------------
#NOTEDATA:;
#CHARTNAME:;
#STEPSTYPE:dance-single;
#DESCRIPTION:;
#CHARTSTYLE:;
#DIFFICULTY:Challenge;
#METER:16;
#RADARVALUES:0.918066,0.928664,0.613993,0.378629,1.115420,628.000000,568.000000,60.000000,37.000000,0.000000,0.000000,0.000000,0.000000,0.000000,0.918066,0.928664,0.613993,0.378629,1.115420,628.000000,568.000000,60.000000,37.000000,0.000000,0.000000,0.000000,0.000000,0.000000;
#CREDIT:;
#NOTES:
// measure 0
0000
0000
0000
0000
,  // measure 1
0000
0000
0000
0000
,  // measure 2
0000
0000
0000
0000
,  // measure 3
0000
0000
0000
0000
,  // measure 4
0000
0000
0000
0000
,  // measure 5
1001
0000
0001
0100
1000
0000
1100
0000
0110
0000
0100
0020
0000
0000
0031
0000
,  // measure 6
0010
0001
0100
0001
0010
0000
0011
0000
0001
0010
0100
1000
0020
0000
1030
0000
,  // measure 7
0101
0000
1000
0100
0000
0010
0001
0000
1000
0010
0000
0100
0001
0000
1001
0000
,  // measure 8
0001
0100
0001
1000
0100
0010
1000
0001
0200
0000
0310
0000
0001
1000
0010
0100
,  // measure 9
0020
0000
1000
1000
0000
0001
0031
0000
0011
0000
0001
0010
0100
1000
0010
0000
,  // measure 10
0200
0000
0001
0001
0000
1000
1300
0000
1100
0000
1000
0100
0010
0001
1000
0000
,  // measure 11
0002
0000
0010
0010
0000
0100
0103
0000
0101
0000
0001
0100
0010
1000
0100
0000
,  // measure 12
1100
0000
0010
0100
0000
0001
0010
0000
1000
0100
0010
0000
0011
0000
0001
0010
,  // measure 13
2000
0000
0001
0001
0000
0010
3010
0000
1010
0000
0010
1000
0001
0010
0100
0000
,  // measure 14
0020
0000
1000
1000
0000
0100
0130
0000
0011
0000
0001
0100
0010
1000
0100
0000
,  // measure 15
0200
0000
0010
0010
0000
0001
0301
0000
0101
0000
1000
0100
0010
0001
1000
0000
,  // measure 16
1001
0000
0001
0010
0000
0100
0010
0000
1000
0010
0100
0000
0101
0000
0001
0010
,  // measure 17
1000
0000
0100
1010
0000
0011
0100
0000
0011
0000
0001
0010
0100
1000
0010
0000
,  // measure 18
0100
0000
1000
0110
0000
1001
0100
0000
0110
0000
0010
1000
0001
0100
0010
0000
,  // measure 19
0001
0000
0100
1010
0000
0101
0010
0000
0101
0000
1000
0001
0010
1000
0100
0000
,  // measure 20
1000
0000
0001
0110
0000
1100
0010
0000
1000
0001
0100
0000
0101
0000
0001
1000
,  // measure 21
0010
0000
1000
0110
0000
0101
0010
0000
1010
0000
0010
0100
0001
1000
0100
0000
,  // measure 22
0010
0100
0001
1000
0100
0010
0100
0000
0101
0000
0001
0010
0100
1000
0010
0000
,  // measure 23
0011
0000
1000
0110
0000
1001
0100
0000
0110
0000
0010
1000
0001
0010
0100
0000
,  // measure 24
1010
0000
0101
1010
0000
1100
0011
0000
1000
0100
0001
0000
1001
0000
0001
0010
,  // measure 25
0100
0000
1000
0100
0000
0001
0100
0000
0010
1000
0200
0000
0010
0000
0301
0010
,  // measure 26
1000
0000
0010
0100
0000
0001
1000
0000
0100
0010
2000
0000
0100
0000
3010
0100
,  // measure 27
0001
0000
0010
0001
0000
1000
0010
0000
0100
0001
0010
1000
0200
0000
0310
0000
,  // measure 28
0001
0000
1000
0010
0000
0001
0100
0000
0010
1000
0002
0000
0010
0000
1003
0000
,  // measure 29
0001
0000
0100
0010
0000
1000
0100
0000
0010
0100
0001
1000
0100
0000
0110
0000
,  // measure 30
1000
0000
0010
0100
0000
0001
1000
0000
0100
1000
0020
0000
0100
0000
0031
0000
,  // measure 31
1000
0000
0001
1000
0000
0100
0010
0000
1000
0010
0200
0000
0001
0000
0310
0000
,  // measure 32
1000
0001
0100
0001
0010
0000
0100
0010
1000
0010
0100
0000
2002
0000
3003
0000
,  // measure 33
2000
0000
0010
0010
0000
0100
0100
0000
0001
0001
0000
0010
3010
0000
1010
0000
,  // measure 34
0002
0000
0010
0010
0000
1000
1000
0000
0100
0100
0000
0010
0013
0000
0011
0000
,  // measure 35
0010
0000
0000
0001
0000
0000
1000
0000
0000
0010
0000
0000
0100
0000
0000
0001
0000
0000
1000
0000
0000
0100
0000
0000
0010
0000
0000
0001
0000
0000
0100
0000
0000
0001
0000
0000
1000
0000
0100
0000
0010
0000
0001
0000
1000
0000
0200
0000
,  // measure 36
0020
0000
0000
0000
0000
0000
0000
0000
0330
0000
0000
0000
0001
0100
0010
0000
,  // measure 37
1010
0000
1000
0100
0001
0000
0001
0100
1000
0000
0001
1100
0000
1000
0010
0100
,  // measure 38
0001
0000
0000
0000
0000
0000
0010
0000
0000
0001
0000
0000
1000
0000
0000
0000
0000
0000
0010
0000
0000
0100
0000
0000
0001
0000
0000
0000
0000
0000
1000
0000
0000
0100
0000
0000
0010
0000
0001
0000
0100
0000
0010
0000
1000
0000
0100
0000
,  // measure 39
0010
0000
0010
0100
0001
0000
1000
0100
0010
0000
0100
0010
0001
2000
0020
0000
,  // measure 40
3030
0000
0000
0000
0000
0000
0020
0000
0000
0000
0000
0000
0032
0000
0000
0000
0000
0000
0100
0000
0000
0000
0000
0000
0103
0000
0000
0001
0000
0000
1000
0000
0000
0000
0000
0000
1000
0000
0100
0000
0010
0000
0001
0000
0000
0000
0000
0000
,  // measure 41
0011
0000
0001
0010
0100
0000
1000
0100
0010
0000
0100
0011
0000
0010
0100
0001
,  // measure 42
1000
0000
0000
0000
0000
0000
0010
0000
0000
1000
0000
0000
0100
0000
0000
0000
0000
0000
0001
0000
0000
1000
0000
0000
0100
0000
0000
0000
0000
0000
0010
0000
0000
0100
0000
0000
0001
0000
0010
0000
0100
0000
1000
0000
0100
0000
0010
0000
,  // measure 43
0001
0000
0100
0001
1000
0000
0010
1000
0100
0000
0010
1000
0001
2000
0200
0000
,  // measure 44
3300
0000
0000
0000
0000
0000
0002
0000
0000
0000
0000
0000
0203
0000
0000
0000
0000
0000
0001
0000
0000
0000
0000
0000
0310
0000
0000
0001
0000
0000
0100
0000
0000
0010
0000
0000
1000
0000
0100
0000
0010
0000
0001
0000
0010
0000
1000
0000
,  // measure 45
0200
0000
0010
0010
0000
0001
0301
0000
0010
0001
0100
0000
0101
0000
0000
0000
,  // measure 46
0020
0000
1000
1000
0000
0100
0130
0000
0010
1000
0100
0000
1100
0000
0000
0000
,  // measure 47
1010
0000
0010
0100
0001
0000
1000
0100
0010
0001
0100
0010
0001
0000
0100
1000
,  // measure 48
0010
0000
0000
0100
0000
0000
0001
0000
0000
0010
0000
0000
0001
0000
0000
0100
0000
0000
0010
0000
0000
1000
0000
0000
0100
0000
0000
0010
0000
0000
0100
0000
0000
0010
0000
0000
1000
0000
0100
0000
0010
0000
0001
0000
0010
0000
0100
0000
,  // measure 49
2000
0000
0001
0001
0000
0010
3010
0000
1000
0010
0001
0000
0101
0000
0000
0000
,  // measure 50
0002
0000
0010
0010
0000
1000
1003
0000
0100
0001
0010
0000
0110
0000
0000
0000
,  // measure 51
0011
0000
0010
1000
0001
0000
0100
0001
1000
0100
0010
0000
0110
0000
0100
0001
,  // measure 52
1000
0000
0000
0000
0000
0000
0010
0000
0000
1000
0000
0000
0001
0000
0000
0100
0000
0000
0010
0000
0000
1000
0000
0000
0100
0000
0000
0010
0000
0000
0001
0000
0000
1000
0000
0000
0010
0000
0001
0000
0100
0000
0001
0000
1000
0000
0100
0000
,  // measure 53
0020
0000
0001
0001
0000
0100
0130
0000
2000
0100
0000
0010
3010
0000
1010
0000
,  // measure 54
0002
0000
0100
0100
0000
1000
1003
0000
0200
0010
0000
0001
0301
0000
0101
0000
,  // measure 55
1100
0000
0000
0000
;
