#TITLE:ETERNITY;
#SUBTITLE:;
#ARTIST:ALEKY;
#TITLETRANSLIT:;
#SUBTITLETRANSLIT:;
#ARTISTTRANSLIT:;
#GENRE:;
#CREDIT:;
#BANNER:ETERNITY.png;
#BACKGROUND:ETERNITY-bg.png;
#LYRICSPATH:;
#CDTITLE:;
#MUSIC:ETERNITY.ogg;
#OFFSET:0.000000;
#SAMPLESTART:54.730000;
#SAMPLELENGTH:15.000000;
#SELECTABLE:YES;
#BPMS:0.000000=148.000000
;
#STOPS:
;
#BGCHANGES:;
#KEYSOUNDS:;
#ATTACKS:;

//---------------dance-single - ----------------
#NOTES:
     dance-single:
     :
     Beginner:
     1:
     0.095431,0.119215,0.010277,0.000000,0.000000,65.000000,64.000000,1.000000,0.000000,0.000000,0.000000,0.095431,0.119215,0.010277,0.000000,0.000000,65.000000,64.000000,1.000000,0.000000,0.000000,0.000000:
0000
0000
0000
0000
,
0000
0000
0000
0000
,
0000
0000
0000
0000
,
0000
0000
0000
0000
,
0000
0000
0000
0000
,
1000
0000
0000
0000
,
0001
0000
0000
0000
,
0100
0000
0000
0000
,
0100
0000
0000
0000
,
1000
0000
0000
0000
,
1000
0000
0000
0000
,
0001
0000
0000
0000
,
0001
0000
0000
0000
,
1000
0000
0000
0000
,
0100
0000
0000
0000
,
0001
0000
0000
0000
,
0100
0000
0000
0000
,
1000
0000
0000
0000
,
1000
0000
1000
0000
,
1000
0000
0000
0000
,
0100
0000
0000
0000
,
0001
0000
0000
0000
,
0001
0000
0001
0000
,
0001
0000
0000
0000
,
0000
0000
0000
0000
,
0010
0000
0000
0000
,
0010
0000
0000
0000
,
0100
0000
0000
0000
,
0100
0000
0000
0000
,
0001
0000
0000
0000
,
1000
0000
0000
0000
,
0010
0000
0000
0000
,
0100
0000
0100
0000
,
0100
0000
0000
0000
,
0001
0000
0001
0000
,
0001
0000
0000
0000
,
1000
0000
1000
0000
,
1000
0000
0000
0000
,
0001
0000
0001
0000
,
0001
0000
0000
0000
,
1000
0000
1000
0000
,
1000
0000
0000
0000
,
0010
0000
0000
0000
,
0100
0000
0000
0000
,
0001
0000
0001
0000
,
0001
0000
0000
0000
,
0010
0000
0000
0000
,
0100
0000
0000
0000
,
1000
0000
1000
0000
,
1000
0000
0000
0000
,
0100
0000
0100
0000
,
0100
0000
0000
0000
,
0001
0000
0000
0000
,
1000
0000
0000
0000
,
0010
0000
0010
0000
,
0010
0000
0000
0000
,
0001
0000
0000
0000
,
1000
0000
0000
0000
,
1001
0000
0000
0000
,
0000
0000
0000
0000
;

//---------------dance-single - ----------------
#NOTES:
     dance-single:
     :
     Easy:
     4:
     0.218757,0.298038,0.051386,0.123326,0.000000,149.000000,144.000000,5.000000,12.000000,0.000000,0.000000,0.218757,0.298038,0.051386,0.123326,0.000000,149.000000,144.000000,5.000000,12.000000,0.000000,0.000000:
0000
0000
0000
0000
,
0000
0000
0000
0000
,
0000
0000
0000
0000
,
0000
0000
0000
0000
,
0000
0000
0000
0000
,
0001
0000
0100
0000
,
1000
0000
0100
0000
,
0010
0000
0010
0000
,
0100
0100
0100
0000
,
0001
0000
0100
0000
,
0010
0100
0010
0000
,
1000
0000
1000
0000
,
1000
1000
1000
0000
,
0100
0000
0001
0000
,
0100
1000
0100
0000
,
2000
0000
0000
3000
,
0010
0100
0100
0000
,
0001
0000
0001
0000
,
0100
0010
0100
0000
,
0001
0000
0001
0000
,
0001
0001
0001
0000
,
1000
0000
0100
0000
,
0001
0010
0100
0000
,
1000
0000
0001
0000
,
1000
0001
1000
0001
,
0200
0000
0310
0000
,
2000
0000
3100
0000
,
0002
0000
0013
0000
,
0010
0100
0010
0000
,
1000
1000
0100
0000
,
0001
0000
1000
0000
,
0100
0100
0010
0000
,
0001
0001
1000
1000
,
1001
0000
0000
0000
,
1000
0100
1000
0010
,
2000
3000
0002
0003
,
0100
0100
0010
0010
,
0100
0000
1001
0000
,
0001
0010
0001
0100
,
0002
0003
2000
3000
,
0001
0000
0010
0100
,
2000
3000
0002
0003
,
0100
0000
0010
1000
,
0200
0300
0020
0030
,
0001
0000
1000
1000
,
0010
0100
0110
0000
,
0100
0000
0100
0000
,
0001
0100
0010
1000
,
0100
0100
0100
0100
,
1001
0000
0000
0000
,
1000
0001
0010
0000
,
0001
1000
0010
0000
,
0100
0100
0100
0100
,
0010
0010
0010
0000
,
1000
0100
0001
0000
,
0001
0100
1000
0000
,
0001
0001
1000
1000
,
0010
0100
0010
0010
,
1001
0000
0000
0000
,
0000
0000
0000
0000
;

//---------------dance-single - ----------------
#NOTES:
     dance-single:
     :
     Medium:
     7:
     0.359701,0.387450,0.154158,0.092495,0.000000,245.000000,230.000000,15.000000,9.000000,0.000000,0.000000,0.359701,0.387450,0.154158,0.092495,0.000000,245.000000,230.000000,15.000000,9.000000,0.000000,0.000000:
0000
0000
0000
0000
,
0000
0000
0000
0000
,
0000
0000
0000
0000
,
0000
0000
0000
0000
,
0000
0000
0000
0000
,
1000
0010
1000
0001
,
1000
0100
0001
0000
0100
0000
1000
0000
,
0001
0100
0001
1000
,
0001
0100
1000
0000
0100
0010
0000
0000
,
0001
0010
0100
1000
,
1000
0010
0001
0100
,
1000
0001
0001
1000
,
1000
0100
0001
0000
1000
0100
0001
0000
,
0001
0100
0010
1000
,
0001
0100
1000
0010
,
0002
1000
1000
0103
,
0010
0110
1001
0000
,
0001
0100
0001
0010
,
0001
1001
1000
0100
,
0010
0001
0100
1000
,
1000
0100
0001
0000
1000
0100
0001
0000
,
0010
0110
0100
1000
,
0001
1100
1000
0001
,
1000
1000
1000
0000
0010
0000
0100
0000
,
0001
0100
1000
0000
0010
0000
0000
0000
,
0002
0000
0000
0000
1003
0100
0010
0000
,
0002
0000
0000
0000
1003
0100
0001
0000
,
0100
0000
1100
0000
1100
0000
1000
0001
,
1000
0020
0000
0030
,
0100
0011
0100
1001
,
0001
1000
0001
0100
,
1000
0000
0010
0000
0001
0100
1000
0000
,
0001
0000
0010
0000
1000
0100
0001
2000
,
0000
0000
0000
3000
,
0010
0000
0100
0000
1000
0100
0001
0000
,
0010
0010
0100
0100
,
0001
0100
0010
0000
1000
0100
0001
0000
,
0010
0010
0011
1001
,
0010
0000
0100
0000
0001
0100
1000
0000
,
0100
0100
0001
1000
,
0020
0100
0000
0100
,
2030
0001
0000
3001
,
0010
0000
0001
0100
1000
0000
0100
0000
,
0010
0001
0100
1000
,
0010
0000
0101
0000
1000
0100
0001
0000
,
0010
0100
0010
0000
0001
0000
1001
0000
,
0100
0000
0010
0000
0001
0010
1000
0000
,
0010
0100
0001
1000
,
0001
0100
1000
0000
0001
0100
1000
1000
,
0000
0000
0000
0010
0000
1001
0000
0000
,
2000
0000
0100
3100
0000
0100
0000
0001
,
0000
0100
0010
0000
1000
0000
0001
0000
,
0100
0010
1000
0001
,
1000
0100
0001
0000
1000
0100
0010
0000
,
0002
0000
0100
0103
0000
0100
0000
0010
,
0000
1000
0001
0000
0010
0000
0001
0000
,
0100
0000
0010
0000
0100
0100
0100
0000
,
1000
0010
0001
0000
0010
0100
0000
0000
,
1001
0000
0000
0000
,
0000
0000
0000
0000
;

//---------------dance-single - ----------------
#NOTES:
     dance-single:
     :
     Hard:
     10:
     0.480091,0.506665,0.308315,0.184989,0.000000,327.000000,297.000000,30.000000,18.000000,0.000000,0.000000,0.480091,0.506665,0.308315,0.184989,0.000000,327.000000,297.000000,30.000000,18.000000,0.000000,0.000000:
0000
0000
0000
0000
,
0000
0000
0000
0000
,
0000
0000
0000
0000
,
0000
0000
0000
0000
,
0000
0000
0000
0000
,
0001
1000
0001
1000
0000
0100
0010
1000
,
0000
0010
0100
1000
0000
0100
0001
0010
,
0000
1000
0100
0010
0000
0010
0001
1000
,
0000
0001
0010
0100
0110
1001
0000
0000
,
1000
0000
1001
0000
0010
0100
0010
0100
,
0001
0100
1000
0010
,
0001
0100
1000
0000
0001
0100
1000
0000
,
0001
0100
1000
0001
0001
0100
1000
0000
,
0100
0000
0101
0000
0010
1000
0010
1000
,
0001
0000
0001
0000
0100
0010
0100
0000
,
0002
0010
0203
0010
,
2300
0000
0001
0000
3100
0010
0100
0000
,
0110
0000
1010
0000
0100
0001
0100
0001
,
1000
1100
0010
0011
,
1000
0001
0100
0000
1000
0001
0100
0000
,
1000
0001
0100
1000
1000
0001
0100
0000
,
0010
0000
0101
0000
1000
1000
1000
0000
,
0001
0000
0010
0000
1000
0001
1000
0100
,
0001
0000
1000
0000
0010
0100
0010
0000
,
0001
0000
0010
0100
0100
0000
0000
0000
,
0020
0000
0001
0000
0130
1000
0100
1000
,
0002
0000
0100
0000
1003
0100
1000
0100
,
0020
0000
0001
0000
1030
0000
0001
0001
,
1000
0100
0020
0000
0100
0000
0030
0000
,
1100
0000
0001
0000
0110
0100
0001
0000
,
1000
0100
0001
0100
1000
0001
0100
0000
,
0010
1010
0100
0011
,
0010
0010
0001
1000
0010
0100
0010
2002
,
0000
0000
0000
3003
,
1010
0000
0101
0000
1000
0010
0001
0000
,
1000
0100
1000
0000
1000
0010
0100
0000
,
0001
0100
0001
1000
0001
0010
0001
0001
,
1000
0001
0100
0010
0100
0000
1001
0000
,
0011
0000
1100
0000
0001
0010
1000
0000
,
0001
0010
0001
0000
0001
1000
0100
0000
,
0210
0000
1300
0001
0200
0000
0310
1000
,
0200
0000
0310
0001
0200
0010
0310
0000
,
1001
0000
1000
0100
0020
0000
0001
0000
,
0031
1000
0100
0000
0001
0000
0100
0000
,
1000
0010
1000
0001
1000
0100
1000
1000
,
0001
1000
0010
0100
0001
1000
0001
0000
,
0100
0000
1010
0000
1000
0100
0001
0000
,
1000
0000
0001
0000
1000
0010
0100
0000
,
1000
0100
0010
0010
0001
0100
0010
0110
,
0000
0000
0000
0110
0000
1001
0000
0000
,
2000
0000
0001
3001
1000
0010
0100
2000
,
0000
3100
0010
0001
0000
0010
1000
0100
,
0000
0001
0010
0100
0000
0100
1000
0001
,
0100
0000
1100
0000
0001
0100
1001
0000
,
0020
0000
0100
0130
0010
1000
0001
0020
,
0000
0031
0100
0010
0000
0001
0100
1000
,
0000
0001
0010
1000
0000
0001
1000
0001
,
0000
1000
0001
0100
0110
1001
0000
0000
,
1001
0000
0000
0000
,
0000
0000
0000
0000
;

//---------------dance-double - ----------------
#NOTES:
     dance-double:
     :
     Easy:
     4:
     0.223162,0.298038,0.051386,0.113049,0.000000,152.000000,147.000000,5.000000,11.000000,0.000000,0.000000,0.223162,0.298038,0.051386,0.113049,0.000000,152.000000,147.000000,5.000000,11.000000,0.000000,0.000000:
00000000
00000000
00000000
00000000
,
00000000
00000000
00000000
00000000
,
00000000
00000000
00000000
00000000
,
00000000
00000000
00000000
00000000
,
00000000
00000000
00000000
00000000
,
00010000
00000000
00001000
00000000
,
00000100
00000000
00000001
00000000
,
00001000
00000000
00000100
00000000
,
00000010
00000010
00000010
00000000
,
00000001
00000000
00000100
00000000
,
00001000
00010000
00001000
00000000
,
00100000
00000000
01000000
00000000
,
10000000
10000000
10000000
00000000
,
00100000
00000000
00001000
00000000
,
00000100
00000010
00000100
00000000
,
00000002
00000000
00000000
00000003
,
00000100
00000010
00000100
00000000
,
00010000
00000000
00001000
00000000
,
00100000
01000000
00100000
00000000
,
00001000
00000000
00010000
00000000
,
01000000
00100000
01000000
00000000
,
10000000
00000000
00100000
00000000
,
00001000
00010000
00001000
00000000
,
00000100
00000000
00000010
00000000
,
00001000
00000001
00001000
00000001
,
00000020
00000000
00000130
00000000
,
00020000
00000000
00031000
00000000
,
00100000
01000000
00100000
01000000
,
10000000
00010000
01000000
00000000
,
00100000
00100000
01000000
00000000
,
00010000
00000000
00001000
00000000
,
00000010
00000010
00000100
00000000
,
00001000
00001000
00000001
00000001
,
00001001
00000000
00000000
00000000
,
00001000
00010000
00001000
00010000
,
00002000
00003000
00020000
00030000
,
00100000
00100000
01000000
01000000
,
00100000
00000000
10010000
00000000
,
00100000
00010000
00100000
00001000
,
00020000
00030000
00002000
00003000
,
00010000
00001000
00000100
00000010
,
00000200
00000300
00000020
00000030
,
00001000
00000000
00000001
00001000
,
00000020
00000030
00000200
00000300
,
00000001
00000001
00000001
00000001
,
00000100
00000010
00000110
00000000
,
00001000
00000000
00010000
00000000
,
00001000
00010000
00001000
00010000
,
00100000
00100000
00100000
00100000
,
10010000
00000000
00000000
00000000
,
10000000
01000000
00010000
00000000
,
00001000
00010000
00001000
00000000
,
00000010
00000010
00000100
00000100
,
00000001
00000001
00001000
00000000
,
00000001
00000100
00001000
00000000
,
00001000
00010000
00001000
00000000
,
00100000
00100000
00010000
00010000
,
01000000
00100000
01000000
00000000
,
10010000
00000000
00000000
00000000
,
00000000
00000000
00000000
00000000
;

//---------------dance-double - ----------------
#NOTES:
     dance-double:
     :
     Medium:
     7:
     0.358233,0.417253,0.267207,0.174712,0.000000,244.000000,218.000000,26.000000,17.000000,0.000000,0.000000,0.358233,0.417253,0.267207,0.174712,0.000000,244.000000,218.000000,26.000000,17.000000,0.000000,0.000000:
00000000
00000000
00000000
00000000
,
00000000
00000000
00000000
00000000
,
00000000
00000000
00000000
00000000
,
00000000
00000000
00000000
00000000
,
00000000
00000000
00000000
00000000
,
00000001
00000000
00000010
00000002
00000000
00001000
00000000
00000013
,
00000000
00000100
00000000
00010000
00000000
00001000
00010000
00000000
,
00001000
00100000
00100000
00100000
,
00010000
00000000
01000000
00000000
00100000
01000000
00000000
00000000
,
00010000
00000000
10000000
01000000
,
00100000
00000000
01000000
00100000
,
10000000
00010000
00001000
00010000
,
10000000
00000000
00010000
00000000
00001000
00010000
01000000
00000000
,
00010000
00000000
00010000
00001000
,
00000100
00000000
00001000
00000100
,
00002000
00000000
00000002
00003003
,
00000110
00000110
00001001
00000000
,
00001000
00000010
00000001
00000100
,
00000010
00001000
00000100
00000010
,
00000001
00001000
00010000
00001000
,
00000001
00000000
00001000
00000000
00010000
00001000
00000100
00000000
,
00001000
00000010
00010000
00010000
,
01000000
00100000
00010000
01000000
,
00020000
00000000
20030000
00000000
,
31000000
00010000
00001000
00000000
00010000
00000000
00001000
00000000
,
00011000
00000000
00000010
00000010
,
00001001
00000000
00000001
00000100
,
00001010
00010010
00001010
00010010
,
00010000
00001000
00010000
00000000
00001000
00000000
00000000
00000000
,
00011000
00101000
00011000
01001000
,
00011000
00000000
00000000
00000000
00010000
00001000
00010000
00000000
,
00100000
00000000
00100000
00000000
10000000
01000000
00010000
00000000
,
00001000
00000000
00100000
00000000
01000000
00010000
00001000
00020000
,
00000000
00000000
00000000
00030000
,
00010010
00000000
00001000
00001001
,
00000100
00000000
00000100
00000000
00000001
00000100
00001000
00000000
,
00001000
00000100
00000001
00000000
00000100
00001000
00010000
00000000
,
00001000
00010000
00011000
00100000
,
01100000
00000000
10000000
10010000
,
00100000
00000000
00100000
00000000
10000000
01000000
00010000
00000000
,
00002000
00003020
00000032
00000203
,
00002300
00023000
00230000
20300000
,
30010000
00000000
00010000
00000000
10000000
01000000
00010000
00000000
,
00001000
00000100
00000001
00000010
,
00000001
00000100
00001000
00000000
00001000
00000100
00000001
00000000
,
00000100
00001000
00010000
00000000
00001000
00000000
00011000
00000000
,
00100000
00000000
00101000
00000000
00001000
00010000
01000000
00000000
,
10000000
10000000
00010000
01100000
,
00010000
01000000
10000000
00000000
10000000
01000000
00010000
00001000
,
00000000
00000000
00000000
00011000
00000000
00011000
00000000
00000000
,
00000010
00000000
00000010
00002000
00000000
00000001
00000000
00003010
,
00000000
00000100
00000000
00010000
00000000
00001000
00010000
00000000
,
00001000
00010000
00100000
01000000
,
00010000
00000000
01000000
00000000
00100000
01000000
00100000
00000000
,
01100000
00000000
00010000
20000000
00000000
31000000
00000000
00020000
,
00000000
00031000
00000000
00010000
00000000
00001000
00010000
00000000
,
00000010
00000000
00000100
00000000
00000001
00000100
00001000
00000000
,
00000100
00001000
00010000
00000000
00001000
00010000
00000000
00000000
,
01100000
00000000
00000000
00000000
,
00000000
00000000
00000000
00000000
;

//---------------dance-double - ----------------
#NOTES:
     dance-double:
     :
     Hard:
     11:
     0.502113,0.566272,0.380255,0.174712,0.035970,342.000000,305.000000,37.000000,17.000000,0.000000,0.000000,0.502113,0.566272,0.380255,0.174712,0.035970,342.000000,305.000000,37.000000,17.000000,0.000000,0.000000:
00000000
00000000
00000000
00000000
,
00000000
00000000
00000000
00000000
,
00000000
00000000
00000000
00000000
,
00000000
00000000
00000000
00000000
,
00000000
00000000
00000000
00000000
,
01000000
00010000
00001000
00010000
00000000
00001000
00010000
01000000
,
00000000
10000000
01000000
00010000
00000000
00001000
00010000
00100000
,
00000000
10000000
01000000
00010000
00000000
00001000
00010000
00001000
,
00000000
00010000
00001000
00000100
00000010
00001001
00000000
00000000
,
00000001
00000011
00001000
00000001
,
00000010
00000001
00000010
00000000
00000100
00001000
00000010
00000000
,
00000100
00001000
00010000
00000000
00000100
00001000
00010000
00000000
,
00000100
00001000
00010000
00100000
00010000
00001000
00000100
00000000
,
00001000
00011000
00100000
00010000
,
10000000
01000000
10000000
00000000
00100000
01000000
00100000
00000000
,
00020000
01000000
00230000
10000000
,
00302000
00000000
00010000
00000000
00103000
01000000
00100000
00000000
,
01000000
00000000
11000000
00000000
00100000
00010000
00100000
00000000
,
00001000
00011000
01000000
00010000
,
00100000
00010000
00001000
00000000
00100000
00010000
00001000
00000000
,
00100000
00010000
00001000
00000100
00001000
00010000
00100000
00000000
,
00001000
00011000
00000010
00000100
,
00000001
00001000
00000100
00000000
00001000
00000001
00000100
00000010
,
00001000
00000000
00000001
00000000
00000100
00001000
00010000
00000000
,
00011000
00000000
00000000
00001000
00100000
00000000
01000000
00000000
01000000
00000000
00000000
00000000
10010000
00000000
00000000
00000000
,
02000000
00000000
10000000
00000000
03100000
00010000
10000000
01000000
,
00020000
00000000
00001000
00000000
00130000
10000000
01000000
00010000
,
00002000
00000000
00010000
00000000
00003010
00000001
00000100
00000000
,
00000010
00001000
00000200
00000000
00000010
00000000
00000300
00000000
,
00010000
00001100
00010000
00001010
,
00000001
00000100
00001000
00000100
00000001
00000100
00001000
00000000
,
00010000
00000000
00010100
00000000
00001000
00010000
00100000
00000000
,
01000000
01000000
00010000
10000000
01000000
00100000
00010000
00022000
,
00000000
00000000
00000000
00033000
,
00101000
00000000
00010010
00000000
00101000
00010000
00001000
00000000
,
00010000
00000100
00001000
00000010
00000100
00000001
00000010
00000100
,
00001000
00000000
00000010
00000000
00000100
00000000
00000001
00000000
00000010
00000000
00000001
00001000
00000000
00000100
00001000
00000000
,
00000010
00000100
00001000
00010000
00010000
00000000
00011000
00000000
,
01001000
00000000
00010100
00000000
00001000
00010000
01000000
00000000
,
10000000
01000000
00010000
00000000
00010000
01000000
10000000
00000000
,
10020000
00000000
00130000
00001000
00020000
00000000
00030100
00000010
,
00002000
00000000
00003010
00000001
00002000
00000000
00003100
00000000
,
00010100
00000000
01001000
00000000
00010100
00001000
00010000
00000000
,
00001000
00100000
00010000
01000000
00100000
10000000
01000000
00100000
,
00010000
00000000
01000000
00000000
00100000
00000000
10000000
00000000
01000000
00000000
10000000
00010000
00000000
00100000
00001000
00000000
,
00010000
00000000
00001000
00000000
00010000
00000000
00000010
00000000
00001000
00000000
00000001
00000100
00000000
00000001
00001000
00000000
,
00000100
00000000
00001100
00000000
00000001
00000010
00001000
00000000
,
00010000
00001000
00010000
00001000
00100000
01000000
00100000
00000000
,
00001000
01000000
00010000
00100000
01000000
10000000
00010000
10010000
,
00000000
00000000
00000000
01100000
00000000
00011000
00000000
00000000
,
00020010
00000000
00001000
00031000
00000000
00010010
00001000
00000200
,
00000000
00000310
00000001
00000010
00000001
00000010
00000000
00001001
,
00000000
00000100
00001000
00010000
00000000
00001000
00010000
00100000
,
10000000
00000000
11000000
00000000
00110000
00001000
00010000
00000000
,
00102000
00000000
00010000
00013000
00000000
00101000
00010000
02000000
,
00000000
03100000
10000000
00100000
10000000
00100000
00000000
10010000
,
00000000
10000000
01000000
00010000
00000000
00001000
00010000
00001000
,
00000000
00010000
00000010
00001000
00001001
00000101
00000000
00000000
,
00011000
00000000
00000000
00000000
,
00000000
00000000
00000000
00000000
;

//---------------dance-single - ----------------
#NOTES:
     dance-single:
     :
     Challenge:
     16:
     1.057081,1.162349,0.215821,0.277484,1.541576,720.000000,699.000000,21.000000,27.000000,0.000000,0.000000,1.057081,1.162349,0.215821,0.277484,1.541576,720.000000,699.000000,21.000000,27.000000,0.000000,0.000000:
// measure 0
0000
0000
0000
0000
,  // measure 1
0000
0000
0000
0000
,  // measure 2
0000
0000
0000
0000
,  // measure 3
0000
0000
0000
0000
,  // measure 4
0000
0000
0000
0000
,  // measure 5
1100
0000
0100
0001
1000
0000
1010
0000
0010
0000
1000
0100
0010
0000
0001
0010
,  // measure 6
1000
0000
1000
0100
0010
0000
0010
0001
1000
0000
0001
0100
0010
1000
0100
0000
,  // measure 7
0010
0100
0010
0100
1000
0001
1000
0001
1000
0100
1000
0100
0010
0001
0010
0001
,  // measure 8
1000
0100
0001
0100
1000
0010
0100
0001
0010
0000
0022
0000
0000
0000
0033
0000
,  // measure 9
0101
0100
0010
1000
0100
0020
0000
2030
,  // measure 10
0000
3002
0000
0203
0000
0320
0000
1030
,  // measure 11
0001
0001
0200
0000
0310
0010
2000
0000
,  // measure 12
3100
0000
0100
0000
1000
0000
1000
0000
0020
0000
1000
0000
1030
0100
0001
0100
,  // measure 13
0010
0010
0001
1000
0010
0100
0000
0200
,  // measure 14
0000
0301
1000
0200
0000
0320
0000
0032
,  // measure 15
1000
1003
0200
1000
1300
0020
0100
0130
,  // measure 16
2000
0000
0001
0000
3001
0000
0002
0000
0013
0100
0001
1000
0100
0010
0001
1000
,  // measure 17
0010
0000
0001
0010
0100
0000
1000
0010
0100
0000
0101
0000
1000
0010
0100
0001
,  // measure 18
0010
0000
1000
0100
0001
0000
0001
0010
1000
0000
1000
0010
0001
0000
0001
0100
,  // measure 19
1000
0000
0000
0100
0000
0000
0010
0000
0000
0001
0000
0000
0100
0000
0000
0010
0000
0000
1000
0000
0100
0000
0000
0000
0010
0000
0001
0000
0000
0000
1000
0000
0100
0000
0000
0000
0010
0000
0000
1000
0000
0000
0100
0000
0000
0000
0000
0000
,  // measure 20
0001
0000
0010
0000
0000
0000
0100
0000
1000
0000
0000
0000
0010
0000
0100
0000
0000
0000
1000
0000
0000
0100
0000
0000
0010
0000
0001
0000
0000
0000
1000
0000
0100
0000
0000
0000
0010
0000
0000
0100
0000
0000
0001
0000
0000
1000
0000
0000
,  // measure 21
0100
0000
1000
0100
0010
0000
0010
0100
0001
0000
1000
0000
0101
0000
0001
0100
,  // measure 22
0010
0000
0100
0010
1000
0000
1000
0100
0010
0000
1000
0010
0001
0010
1000
0100
,  // measure 23
0010
0100
0001
1000
0100
0010
0001
0010
1000
0010
0100
0001
1000
0100
0010
0001
,  // measure 24
0020
0000
0000
0000
0100
0000
0031
0010
1000
0000
1000
0100
0000
1000
0010
0000
,  // measure 25
0011
0000
0000
0000
0000
0000
0001
0000
0010
0000
0100
0000
1000
0000
0000
0000
0000
0000
0100
0000
0000
0010
0000
0000
1000
0000
0000
0001
0000
0000
0020
0000
0000
0000
0000
0000
1000
0000
0000
0000
0000
0000
0031
0000
0000
0000
0000
0000
,  // measure 26
0101
0000
0000
0000
0000
0000
0100
0000
0010
0000
1000
0000
0001
0000
0000
0000
0000
0000
0010
0000
0000
0100
0000
0000
0001
0000
0000
0010
0000
0000
2000
0000
0000
0000
0000
0000
0100
0000
0000
0000
0000
0000
3010
0000
0000
0000
0000
0000
,  // measure 27
1010
0000
0000
0000
0000
0000
1000
0000
0100
0000
0010
0000
0001
0000
0000
0000
0000
0000
0010
0000
0000
0100
0000
0000
1000
0000
0000
0010
0000
0000
0002
0000
0000
0000
0000
0000
0100
0000
0000
0000
0000
0000
0013
0000
0000
0000
0000
0000
,  // measure 28
0011
0000
0000
0000
0000
0000
0001
0000
0010
0000
0100
0000
1000
0000
0000
0000
0000
0000
0100
0000
0000
0010
0000
0000
1000
0000
0000
0001
0000
0000
0200
0000
0000
0000
0000
0000
0001
0000
0000
0000
0000
0000
1300
0000
0000
0000
0000
0000
,  // measure 29
1000
0000
0100
0000
0010
0000
0001
0000
0000
0000
0000
0000
1000
0000
0100
0000
0010
0000
0001
0000
0000
0000
0000
0000
1000
0000
0000
0010
0000
0000
0001
0000
0000
0100
0000
0000
0010
0000
0000
0100
0000
0000
0001
0000
0000
1000
0000
0000
,  // measure 30
0010
0000
0001
0000
0100
0000
0010
0000
0000
0000
0000
0000
0010
0000
0001
0000
0100
0000
0010
0000
0000
0000
0000
0000
1000
0000
0000
0010
0000
0000
0100
0000
0000
0001
0000
0000
1000
0000
0000
0010
0000
0000
0100
0000
0000
0001
0000
0000
,  // measure 31
1000
0100
1000
0100
0010
0001
0010
0001
1000
0010
1000
0010
0100
0001
0100
0001
,  // measure 32
1000
0000
0100
0000
1000
0000
0100
0000
0000
0010
0000
0000
0001
0000
0010
0000
0001
0000
0010
0000
0000
0100
0000
0000
1000
0000
0001
0000
1000
0000
0001
0000
0000
0100
0000
0000
0010
0000
0100
0000
0020
0000
0200
0000
0000
0000
0000
0000
,  // measure 33
0000
0000
0300
0000
0031
0000
0001
0001
1000
0000
1000
1000
0100
0000
0010
0001
,  // measure 34
1000
0000
0000
0100
0000
0000
0010
0000
0000
0001
0000
0000
0100
0000
0000
0000
0000
0000
0001
0000
0010
0000
0100
0000
1000
0000
0000
0000
0000
0000
1010
0000
0000
0000
0000
0000
0100
0000
0000
0001
0000
0000
1000
0000
0000
0100
0000
0000
,  // measure 35
0010
0000
0000
0100
0000
0000
0001
0000
0010
0000
0100
0000
1000
0000
0000
0010
0000
0000
1000
0000
0100
0000
0010
0000
0001
0000
0000
0100
0000
0000
0010
0000
0100
0000
0001
0000
1000
0000
0000
0010
0000
0000
0100
0000
0010
0000
1000
0000
,  // measure 36
0001
0000
0000
0010
0000
0000
0001
0000
0000
0010
0000
0000
0100
0000
0000
1000
0000
0000
0100
0000
0000
1000
0000
0000
0001
0000
0010
0000
0100
0000
1000
0000
0100
0000
0010
0000
0001
0000
0000
0000
0000
0000
1001
0000
0000
0000
0000
0000
,  // measure 37
1000
0000
0000
0100
0000
0000
1000
0000
0000
0100
0000
0000
1000
0000
0100
0000
0010
0000
0001
0000
0010
0000
0100
0000
1000
0000
0000
0000
0000
0000
0000
0000
0001
0000
0010
0000
0100
0000
0000
0000
0000
0000
1100
0000
0000
0000
0000
0000
,  // measure 38
1000
0000
0000
0010
0000
0000
0100
0000
0000
0001
0000
0000
1000
0000
0000
0000
0000
0000
0010
0000
0100
0000
0001
0000
1000
0000
0000
0000
0000
0000
1100
0000
0000
0000
0000
0000
0100
0000
0000
0010
0000
0000
1000
0000
0000
0001
0000
0000
,  // measure 39
0010
0000
0001
0010
1000
0000
1000
0010
0001
0000
0001
0010
0100
1000
0100
0010
,  // measure 40
0001
0100
0001
0100
1000
0100
1000
0100
0001
0010
0001
0010
1000
0010
1000
0010
,  // measure 41
0100
0001
0100
0001
1000
0100
1000
0100
0010
1000
0010
1000
0001
0010
0001
0010
,  // measure 42
1000
0000
0000
0010
0000
0000
0100
0000
0000
0001
0000
0000
1000
0000
0000
0000
0000
0000
0010
0000
0100
0000
0001
0000
1000
0000
0100
0000
0010
0000
0001
0000
0100
0000
0010
0000
1000
0000
0000
0010
0000
0000
0100
0000
0000
0001
0000
0000
,  // measure 43
0010
0000
0001
0100
0010
0000
1000
0010
0100
0000
0001
1000
0100
0000
0010
0100
,  // measure 44
0001
0000
0000
0100
0000
0000
0010
0000
0000
0100
0000
0000
0001
0000
0000
0100
0000
0000
0010
0000
0000
0100
0000
0000
1000
0000
0100
0000
0010
0000
0001
0000
0010
0000
0100
0000
1000
0000
0000
0001
0000
0000
0100
0000
0000
0010
0000
0000
,  // measure 45
1000
0000
0010
0000
0100
0000
0001
0000
0100
0000
0010
0000
1000
0000
0100
0000
0010
0000
0001
0000
0010
0000
0100
0000
1000
0000
0000
0000
0000
0000
0001
0000
0000
0010
0000
0000
0100
0000
0000
0000
0000
0000
0101
0000
0000
0000
0000
0000
,  // measure 46
1000
0000
0000
0100
0000
0000
0010
0000
0000
0001
0000
0000
0100
0000
0000
0000
0000
0000
1000
0000
0100
0000
0010
0000
0001
0000
0000
0000
0000
0000
0011
0000
0000
0000
0000
0000
0100
0000
0000
0001
0000
0000
0010
0000
0000
0001
0000
0000
,  // measure 47
1000
0000
0001
0010
0100
0000
0010
0100
1000
0000
1000
0100
0010
0100
0010
0000
,  // measure 48
0001
0010
0001
0010
1000
0010
1000
0010
1000
0100
1000
0100
0001
0000
2002
0000
,  // measure 49
0000
0000
3003
1001
0000
1001
0000
0000
,  // measure 50
1000
0000
0000
0010
0000
0000
0100
0000
0000
0001
0000
0000
1000
0000
0100
0000
0010
0000
0001
0000
0010
0000
0100
0000
1000
0000
0000
0010
0000
0000
0100
0000
0000
0001
0000
0000
1000
0000
0000
0100
0000
0000
0010
0000
0000
0001
0000
0000
,  // measure 51
0010
0000
0001
0010
0100
0000
0010
0100
1000
0000
1000
0100
0010
0001
1000
0000
,  // measure 52
0010
0001
0010
0001
1000
0010
1000
0010
0100
0001
0100
0001
1000
0100
1000
0100
,  // measure 53
0010
0000
0000
0000
0000
0000
0000
0000
0001
0000
0000
0000
0000
0000
0000
0000
0010
0000
0000
0000
0000
0000
0000
0000
0001
0000
0000
0000
0000
0000
0000
0000
0000
0000
0000
0000
0010
0000
0000
0000
0000
0000
0000
0000
0000
0000
0000
0000
0001
0000
0000
0000
0000
0000
0000
0000
0100
0000
0000
0000
0000
0000
0000
0000
0001
0000
0000
0000
0000
0000
0000
0000
0100
0000
0000
0000
0000
0000
0000
0000
0000
0000
0000
0000
0010
0000
0000
0000
0000
0000
0000
0000
0000
0000
0000
0000
1000
0000
0000
0000
0000
0000
0000
0000
0100
0000
0000
0000
0000
0000
0000
0000
0010
0000
0000
0000
0000
0000
0000
0000
0001
0000
0000
0000
0000
0000
0000
0000
0010
0000
0000
0000
0000
0000
0000
0000
0100
0000
0000
0000
0000
0000
0000
0000
1000
0000
0000
0000
0000
0000
0100
0000
0000
0000
0000
0000
1000
0000
0000
0000
0000
0000
0000
0000
0000
0000
0000
0000
0100
0000
0000
0000
0000
0000
0000
0000
0000
0000
0000
0000
1000
0000
0000
0000
0000
0000
0000
0000
0000
0000
0000
0000
,  // measure 54
0010
0000
0000
0100
0000
0000
0001
0000
0000
0100
0000
0000
0010
0000
0000
0000
0000
0000
1000
0000
0100
0000
0010
0000
0001
0000
0010
0000
0100
0000
1000
0000
0000
0010
0000
0000
0100
0000
0000
0001
0000
0000
1000
0000
0000
0100
0000
0000
,  // measure 55
0001
0010
0001
0010
1000
0100
1000
0100
0001
1000
0001
1000
0100
0010
0100
0010
,  // measure 56
1000
0000
0000
0000
0000
0000
0000
0000
0010
0000
0000
0000
0000
0000
0000
0000
0100
0000
0000
0000
0000
0000
0000
0000
0001
0000
0000
0000
0000
0000
0000
0000
0000
0000
0000
0000
0010
0000
0000
0000
0000
0000
0000
0000
0000
0000
0000
0000
0100
0000
0000
0000
0000
0000
0000
0000
0001
0000
0000
0000
0000
0000
0000
0000
1000
0000
0000
0000
0000
0000
0000
0000
0100
0000
0000
0000
0000
0000
0000
0000
0000
0000
0000
0000
0010
0000
0000
0000
0000
0000
0000
0000
0000
0000
0000
0000
0001
0000
0000
0000
0000
0000
0000
0000
0010
0000
0000
0000
0000
0000
0000
0000
0100
0000
0000
0000
0000
0000
0000
0000
1000
0000
0000
0000
0000
0000
0000
0000
0000
0000
0000
0000
0100
0000
0000
0000
0000
0000
0000
0000
0000
0000
0000
0000
0010
0000
0000
0000
0000
0000
0000
0000
0001
0000
0000
0000
0000
0000
0000
0000
0010
0000
0000
0000
0000
0000
0000
0000
0001
0000
0000
0000
0000
0000
0010
0000
0000
0000
0000
0000
0001
0000
0000
0000
0000
0000
0000
0000
0000
0000
0000
0000
,  // measure 57
0100
0010
0100
0010
1000
0100
1000
0100
1000
0000
1100
0000
0000
0000
0000
0000
,  // measure 58
0101
0000
0000
0000
;
