#TITLE:Drivin';
#SUBTITLE:;
#ARTIST:NAOKI feat. PAULA TERRY;
#TITLETRANSLIT:;
#SUBTITLETRANSLIT:;
#ARTISTTRANSLIT:;
#GENRE:;
#CREDIT:;
#BANNER:Drivin'.png;
#BACKGROUND:Drivin'-bg.png;
#LYRICSPATH:;
#CDTITLE:;
#MUSIC:Drivin'.ogg;
#OFFSET:0.000000;
#SAMPLESTART:36.939999;
#SAMPLELENGTH:15.000000;
#SELECTABLE:YES;
#DISPLAYBPM:155.000000;
#BPMS:0.000000=154.699997
,4.000000=155.000000
;
#STOPS:
;
#BGCHANGES:;
#KEYSOUNDS:;
#ATTACKS:;

//---------------dance-single - ----------------
#NOTES:
     dance-single:
     :
     Beginner:
     2:
     0.105875,0.190575,0.021175,0.074113,0.000000,70.000000,68.000000,2.000000,7.000000,0.000000,0.000000,0.105875,0.190575,0.021175,0.074113,0.000000,70.000000,68.000000,2.000000,7.000000,0.000000,0.000000:
0000
0000
0000
0000
,
0000
0000
0000
0000
,
0000
0000
0000
0000
,
0000
0000
0000
0000
,
1000
0000
0000
0000
,
0001
0000
0000
0000
,
1000
0000
0000
0000
,
0001
0000
0000
0000
,
0100
0000
0000
0000
,
0100
0000
0000
0000
,
0010
0000
0000
0000
,
0010
0000
0000
0000
,
1000
0000
0001
0000
,
1000
0000
0000
0000
,
0001
0000
0000
0000
,
0200
0000
0300
0000
,
0001
0000
0001
0000
,
0002
0000
0003
0000
,
1000
0000
1000
0000
,
2000
0000
3000
0000
,
0010
0000
0000
0000
,
0100
0000
0000
0000
,
0010
0000
0010
0000
,
0020
0000
0030
0000
,
1000
0000
0000
0000
,
1000
0000
0000
0000
,
0001
0000
0000
0000
,
0001
0000
0000
0000
,
1000
0000
0000
0000
,
0100
0000
0000
0000
,
0001
0000
0000
0000
,
0100
0000
0100
0000
,
1001
0000
0000
0000
,
1001
0000
0000
0000
,
1000
0000
0000
0000
,
0010
0000
0000
0000
,
0001
0000
0000
0000
,
0100
0000
0000
0000
,
0001
0000
0000
0000
,
0010
0000
0000
0000
,
1000
0000
0000
0000
,
0100
0000
0000
0000
,
1000
0000
1000
0000
,
2000
0000
3000
0000
,
0001
0000
0001
0000
,
0002
0000
0003
0000
,
1000
0000
0000
0000
,
0100
0000
0000
0000
,
0010
0000
0000
0000
,
0001
0000
0000
0000
,
1000
0000
0100
0000
,
0001
0000
0000
0000
,
0001
0000
0100
0000
,
1000
0000
0000
0000
,
1000
0000
0010
0000
,
0001
0000
0000
0000
,
0001
0000
0010
0000
,
1000
0000
0000
0000
,
0100
0000
0100
0000
,
0200
0000
0000
0000
,
0300
0000
0000
0000
;

//---------------dance-single - ----------------
#NOTES:
     dance-single:
     :
     Easy:
     4:
     0.198138,0.285863,0.052938,0.116463,0.000000,131.000000,126.000000,5.000000,11.000000,0.000000,0.000000,0.198138,0.285863,0.052938,0.116463,0.000000,131.000000,126.000000,5.000000,11.000000,0.000000,0.000000:
0000
0000
0000
0000
,
0000
0000
0000
0000
,
0000
0000
0000
0000
,
0000
0000
0000
0000
,
1000
0000
0001
0000
,
1001
0000
0000
0000
,
0001
0000
1000
0000
,
1001
0000
0010
0000
,
0200
0000
0300
0000
,
0200
0000
0300
0000
,
2000
0000
3000
0000
,
0002
0000
0003
0000
,
0100
0000
1000
0000
,
0100
0000
0001
0000
,
0100
0000
1000
0000
,
0100
0000
1001
0000
,
0010
0000
0010
0000
,
1000
0000
0001
0000
,
0100
0000
0010
0000
,
0000
0000
1000
0001
,
1000
0000
0001
1000
,
0001
0000
0100
0100
,
0100
0000
0010
0000
,
1000
0000
0001
0000
,
1000
0001
1000
0001
,
0100
0100
0100
0000
,
0001
1000
0001
1000
,
0100
0100
0100
0000
,
1000
0000
0100
0000
,
0001
0000
0100
0000
,
1000
0000
0100
0000
,
0001
0000
1001
0000
,
0010
0020
0000
0000
,
0000
0030
0100
0100
,
1000
1000
0001
0001
,
1000
0001
1000
0001
,
0100
0100
0000
0000
,
0100
0100
0000
0000
,
0001
1000
0001
1000
,
0001
0001
1000
1000
,
0100
0100
0000
0000
,
0100
0100
0000
0000
,
0020
0000
0030
0000
,
2000
0000
3000
0000
,
0002
0000
0003
0000
,
0020
0000
0030
0000
,
0100
0000
1000
0000
,
0010
0000
0001
0000
,
0100
0000
1000
0000
,
0010
0000
0001
0000
,
1000
0100
1000
0100
,
0001
0100
0001
0100
,
0010
0010
0000
0000
,
0010
0010
0000
0000
,
0001
0100
0001
0100
,
1000
0100
1000
0100
,
0010
0010
0000
0000
,
0010
0010
0000
0000
,
0100
0000
0010
0000
,
2002
0000
0000
0000
,
3003
0000
0000
0000
;

//---------------dance-single - ----------------
#NOTES:
     dance-single:
     :
     Medium:
     7:
     0.359975,0.476438,0.158813,0.338800,0.005294,238.000000,223.000000,15.000000,32.000000,0.000000,0.000000,0.359975,0.476438,0.158813,0.338800,0.005294,238.000000,223.000000,15.000000,32.000000,0.000000,0.000000:
0000
0000
0000
0000
,
0000
0000
0000
0000
,
0000
0000
0000
0000
,
0000
0000
0000
0000
,
1000
1000
0100
0000
0001
0001
0100
0000
,
0010
0200
0000
0000
0010
0000
0310
0000
,
1000
0010
1000
0000
0001
0010
0001
0100
,
0200
0000
0000
0000
0001
0301
0000
0000
,
1000
0100
0010
0001
0000
1000
0100
2000
,
0000
0000
0000
3001
0000
0100
0001
0010
,
0200
0000
0000
1300
0000
0010
1000
0001
,
0000
1000
0000
1001
0000
0000
0000
0000
,
0001
0100
0000
0001
0000
0010
0100
2000
,
0000
0000
0000
3010
0000
1000
0100
1000
,
0020
0000
0000
0130
0000
0001
1000
0001
,
0010
0000
0000
0010
0000
0000
0100
0000
0000
0000
0000
0000
0000
0000
1000
0000
,
0100
0000
0000
1000
0000
0001
0010
0100
,
1000
0000
0000
0010
0000
0100
0001
1000
,
0001
0000
0000
1000
0200
0000
0000
0000
,
0000
0000
0300
0000
0010
0100
1000
0001
,
0200
0000
0300
0000
0001
1000
0100
0020
,
0000
0000
0030
0000
0001
0100
0010
2000
,
0000
3000
0000
0002
0000
0000
1003
0000
,
0100
0100
0000
0010
0000
1001
0000
1000
,
0100
0000
1000
0001
0000
0100
0000
0020
,
0000
0030
0100
0010
,
1000
0000
0001
0010
0000
0001
0000
0200
,
0000
0300
0010
1000
,
0001
0000
1000
0010
0000
0100
0000
0002
,
0000
0000
0003
1000
0001
0000
0100
0000
,
0010
0000
1000
0100
0000
1000
0000
0002
,
0000
0100
0103
0000
0010
0000
1001
0000
,
1100
0000
0101
0000
0000
0010
0010
0010
,
0000
0100
1001
0000
0100
1000
0001
0100
,
0020
0000
0000
0030
0000
1000
0000
0100
,
2000
0000
0000
3000
0000
0001
0000
0100
,
0000
0001
1000
0000
0000
0020
0000
0000
,
2030
0000
0000
3001
0000
0100
0001
1000
,
0200
0000
0000
0300
0000
1000
0000
0010
,
0200
0000
0000
0301
0000
1000
0000
0001
,
1000
0200
0000
0300
,
1000
0001
1100
0101
,
1001
0000
0100
1000
0000
0001
0000
0020
,
0000
0030
0001
1000
,
1001
0000
0100
0001
0000
1000
0000
0020
,
0000
0030
1000
0001
,
1001
0000
0001
0010
0000
0100
0000
2000
,
0000
3000
0001
1000
,
1001
0000
1000
0010
0000
0100
0000
0002
,
0000
0000
1000
0000
1000
0003
1000
0001
,
0100
0000
0001
0010
0000
0100
0000
2000
,
0000
3000
0010
0100
,
0010
0000
1000
0001
0000
1000
0000
0200
,
0000
0300
1000
0001
,
0010
0000
0001
0100
0000
0010
0000
0200
,
0000
0300
0001
0010
,
0100
0000
1000
0010
0000
0100
0000
0001
,
0000
1100
0101
1001
,
2000
0000
0000
3002
0000
0000
1003
0100
,
0020
0000
0000
0000
,
0030
0000
0000
0000
;

//---------------dance-single - ----------------
#NOTES:
     dance-single:
     :
     Hard:
     13:
     0.679113,0.698775,0.582313,0.169400,0.195869,449.000000,394.000000,55.000000,16.000000,0.000000,0.000000,0.679113,0.698775,0.582313,0.169400,0.195869,449.000000,394.000000,55.000000,16.000000,0.000000,0.000000:
0000
0000
0000
0000
,
0000
0000
0000
0000
,
0000
0000
0000
0000
,
0000
0000
0000
0000
,
0100
1000
0010
0100
0001
0010
0100
1000
,
0001
0200
0000
0000
0301
0010
0100
1000
,
0001
0000
0010
0000
0001
0000
1000
0010
0000
0100
0001
0000
0010
0000
0100
0000
,
1001
0000
0000
0000
1100
0101
0000
0000
,
1001
0000
0100
0100
1000
0001
0100
0100
,
0010
0000
1001
0000
0100
0001
0010
0100
,
1000
0000
0101
0000
1000
0100
1000
0001
,
0010
0100
1000
0001
0010
0000
1010
0000
,
0011
0000
0100
0010
1000
0100
0010
0010
,
0001
0000
1100
0000
0001
1000
0010
0010
,
0100
0000
1001
0000
0000
0110
0000
0000
,
1100
0000
0000
0101
0000
0000
1001
0000
0000
0000
1000
0001
1000
0000
0010
0000
,
0100
0000
0001
0000
0010
0000
0001
1000
0000
0100
1000
0000
0010
0000
0100
0000
,
0001
0000
1000
0000
0010
0000
1000
0001
0000
0100
0001
0000
0010
0000
0100
0000
,
1000
0000
0001
0000
1000
0000
0010
0100
0000
0001
1000
0000
0100
0000
0010
0000
,
0001
1000
0001
0010
0100
1000
0010
0100
,
0202
0000
0303
0000
0001
0010
0100
2200
,
0000
0000
3300
0000
1000
0100
0010
0022
,
0000
0033
0000
2020
3030
0000
1001
0000
,
1100
0101
0000
0110
0000
1001
0000
0100
,
1000
0000
0001
0000
0010
0000
1000
0000
0010
0000
0001
0100
0001
0000
0010
0000
,
0001
0000
1000
0000
0010
0000
0001
0000
0010
0000
1000
0100
1000
0000
0001
0100
,
0001
0000
1000
0000
0010
0000
0100
0000
0010
0000
1000
0001
1000
0000
0100
0000
,
0010
0001
0101
0000
1010
0000
1100
0000
,
0011
0000
0001
0000
0100
0000
1000
0000
0100
0000
0001
0010
0001
0000
1000
0010
,
1000
0000
0100
0000
0001
0000
0100
0000
1000
0000
0001
0010
0001
0000
0100
0000
,
0010
1000
0001
0010
0100
1000
0010
0100
,
0001
1000
0001
0000
0010
0000
0100
1000
0100
0000
0010
0000
0001
0100
0001
0000
,
1000
0000
0000
0000
1001
0000
0000
0000
0000
0000
1000
0100
1000
0001
0100
0000
,
0000
1001
1001
0000
0000
1000
0001
0000
,
0010
0100
1100
1000
0001
0101
0001
0010
,
0001
1000
1010
1000
0001
0011
0001
1000
,
0100
0010
0110
0100
1000
1001
0001
0100
,
0010
0000
1000
0000
0100
0000
0010
0000
0001
0100
0001
0000
1000
0100
1000
0000
,
0010
0100
0101
0001
0010
0100
1100
0000
,
0010
0100
0001
0010
0100
1000
1001
0000
,
0001
0100
0010
1000
0100
0001
0100
1000
,
0100
0010
0001
0100
1000
0100
0001
1000
,
1001
0000
0100
2000
0000
0001
0000
0002
,
0000
3003
0011
1100
,
1001
0000
0100
0002
0000
1000
0000
2000
,
0000
3003
1010
0101
,
1001
0100
0010
0001
0010
1000
0010
0100
,
1000
0010
0001
0010
1000
0010
0100
0001
,
1001
0000
0000
0000
0110
0000
0000
0000
0000
0000
1000
0010
1000
0000
0001
0000
,
0010
0000
1100
0000
0101
0000
1001
0010
,
1000
0000
0001
0000
0010
0000
0100
0000
1000
0000
0001
0100
0001
0000
0010
0000
,
0100
0000
1000
0000
0100
0000
0010
0000
0001
0000
1000
0010
1000
0000
0001
0100
,
0001
0000
1000
0000
0010
0000
0100
0000
0001
0000
0010
0100
0010
0000
0001
0000
,
1000
0001
0101
0000
1010
0000
1100
0000
,
0011
0000
0001
0000
1000
0000
0010
0000
0100
0000
0001
0010
0001
0000
1000
0100
,
1000
0000
0001
0000
0100
0000
0010
0000
0100
0000
0001
1000
0001
0000
0010
0000
,
0100
1000
0100
0010
0100
1000
0001
0100
,
0001
1000
0001
0000
0100
0000
0010
1000
0010
0000
0100
0000
0001
0010
0001
0000
,
2000
0000
0100
0000
3100
0000
0020
0000
0001
0000
0031
0000
1000
0100
1000
0100
,
2000
0000
0000
0000
,
3000
0000
0000
0000
;

//---------------dance-double - ----------------
#NOTES:
     dance-double:
     :
     Easy:
     4:
     0.183013,0.285863,0.042350,0.116463,0.000000,121.000000,117.000000,4.000000,11.000000,0.000000,0.000000,0.183013,0.285863,0.042350,0.116463,0.000000,121.000000,117.000000,4.000000,11.000000,0.000000,0.000000:
00000000
00000000
00000000
00000000
,
00000000
00000000
00000000
00000000
,
00000000
00000000
00000000
00000000
,
00000000
00000000
00000000
00000000
,
10000000
00000000
01000000
00000000
,
11000000
00000000
00000000
00000000
,
00010000
00000000
01000000
00000000
,
01010000
00000000
00000000
00000000
,
02000000
00000000
03000000
00000000
,
00020000
00000000
00030000
00000000
,
00002000
00000000
00003000
00000000
,
00000200
00000000
00000300
00000000
,
00000001
00000000
00000010
00000000
,
00000100
00000000
00001000
00000000
,
00000001
00000000
00000010
00000000
,
00000100
00000000
00001000
00000000
,
00000001
00000000
00000100
00000000
,
00001000
00000000
00010000
00000000
,
01000000
00000000
10000000
00000000
,
00000000
00000000
00100000
01000000
,
10000000
00000000
00100000
01000000
,
00010000
00000000
10000000
00010000
,
10000000
00000000
00010000
00000000
,
01000000
00000000
00001000
00000000
,
00010000
00001000
00010000
00001000
,
00010000
00010000
00010000
00000000
,
00001000
00010000
00001000
00010000
,
00001000
00001000
00001000
00000000
,
00000100
00000000
00000001
00000000
,
00000010
00000000
00001000
00000000
,
00010000
00000000
00100000
00000000
,
10000000
00000000
10010000
00000000
,
00100000
00200000
00000000
00000000
,
00000000
00300000
01000000
01000000
,
10000000
00000000
01000000
00000000
,
00010000
00000000
00001000
00000000
,
00000100
00000100
00000000
00000000
,
00000001
00000001
00000000
00000000
,
00001000
00000001
00001000
00000001
,
00000010
00000010
00000100
00000100
,
00010000
00010000
00000000
00000000
,
00001000
00001000
00000000
00000000
,
00020000
00000000
00030000
00000000
,
02000000
00000000
03000000
00000000
,
20000000
00000000
30000000
00000000
,
00200000
00000000
00300000
00000000
,
01000000
00000000
00010000
00000000
,
00100000
00000000
00001000
00000000
,
00010000
00000000
00000010
00000000
,
00001000
00000000
00000100
00000000
,
00001000
00000100
00001000
00000000
,
00000001
00000100
00000001
00000000
,
00000100
00001000
00000000
00000000
,
00010000
01000000
00000000
00000000
,
10000000
01000000
10000000
00000000
,
00010000
01000000
00010000
00000000
,
10000000
10000000
00000000
00000000
,
00010000
00010000
00000000
00000000
,
01000000
00000000
00001000
00000000
,
00022000
00000000
00000000
00000000
,
00033000
00000000
00000000
00000000
;

//---------------dance-double - ----------------
#NOTES:
     dance-double:
     :
     Medium:
     7:
     0.353925,0.412913,0.095288,0.349388,0.005294,234.000000,225.000000,9.000000,33.000000,0.000000,0.000000,0.353925,0.412913,0.095288,0.349388,0.005294,234.000000,225.000000,9.000000,33.000000,0.000000,0.000000:
00000000
00000000
00000000
00000000
,
00000000
00000000
00000000
00000000
,
00000000
00000000
00000000
00000000
,
00000000
00000000
00000000
00000000
,
00010000
01000000
00100000
00000000
01000000
00001000
00010000
00000000
,
00000100
00002000
00000000
00000000
00000001
00000000
00003001
00000000
,
00001000
00000100
00000010
00000000
00000100
00010000
00001000
00010000
,
00020000
00000000
00000000
00000000
00001000
00031000
00000000
00000000
,
00010000
00001000
00010000
00000100
00000000
00000010
00000001
00000200
,
00000000
00000000
00000000
00000310
00000000
00010000
00001000
00010000
,
02000000
00000000
00000000
13000000
00000000
00100000
10000000
00010000
,
00000000
01000000
00000000
01100000
00000000
00000000
00000000
00000000
,
00100000
10000000
00000000
00010000
00000000
00100000
01000000
00200000
,
00000000
00000000
00000000
00301000
00000000
00010000
00001000
00010000
,
00002000
00000000
00000000
00013000
00000000
00100000
01000000
00010000
,
10000000
00000000
00000000
00010000
00000000
00000000
10000000
00000000
00000000
00000000
00000000
00000000
00000000
00000000
01000000
00000000
,
00100000
00000000
00000000
00001000
00000000
00010000
01000000
10000000
,
00010000
00000000
00000000
00100000
00000000
00001000
00001000
00010000
,
00010000
00000000
00000000
00000100
00000200
00000000
00000000
00000000
,
00000000
00000000
00000300
00000000
00000010
00000100
00001000
00000001
,
00000200
00000000
00000300
00000000
00000001
00000100
00000010
00002000
,
00000000
00000000
00003000
00000000
00000100
00010000
00001000
00020000
,
00000000
00030000
00000000
00002000
00000000
00000000
01003000
00000000
,
00010000
00010000
00000000
10000000
00000000
10010000
00000000
00100000
,
01000000
00000000
10000000
00010000
00000000
01000000
00000000
00020000
,
00000000
00030000
00100000
00001000
,
00010000
00000000
00001000
00000100
00000000
00000001
00000000
00002000
,
00000000
00003000
00000010
00001000
,
00000001
00000000
00000010
00000100
00000000
00001000
00000000
00000020
,
00000000
00000000
00000030
00010000
00001000
00000000
00010000
00000000
,
00000100
00000000
00000010
00000001
00000000
00000100
00000000
00002000
,
00000000
00010000
00013000
00000000
01000000
00000000
10000000
00000000
,
00010000
00000000
10010000
00000000
00000000
10000000
00010000
10000000
,
00000000
00010000
01000000
00000000
00100000
10000000
00010000
01000000
,
00020000
00000000
00000000
00030000
00000000
00100000
00000000
00001000
,
00020000
00000000
00000000
00030000
00000000
00001000
00000000
00000010
,
00000000
00000001
00000100
00000000
00000000
00000020
00000000
00000000
,
00002030
00000000
00000000
00003100
00000000
00001000
00000001
00000010
,
00000002
00000000
00000000
00000003
00000000
00001000
00000000
00000100
,
00020000
00000000
00000000
00031000
00000000
00010000
00000000
01000000
,
00100000
00020000
00000000
00030000
,
10000000
10000000
10000000
00000000
00010000
00010000
00010000
00000000
,
10010000
00000000
10000000
01000000
00000000
00010000
00000000
00002000
,
00000000
00003000
00010000
00001000
,
00011000
00000000
00010000
00001000
00000000
00000100
00000000
00000002
,
00000000
00000003
00001000
00000001
,
00001001
00000000
00000001
00000010
00000000
00001000
00000000
00020000
,
00000000
00030000
00001000
00010000
,
00011000
00000000
00001000
00010000
00000000
00100000
00000000
20000000
,
00000000
00000000
00010000
00000000
00010000
30000000
00010000
10000000
,
01000000
00000000
00100000
01000000
00000000
10000000
00000000
00020000
,
00000000
00030000
01000000
00001000
,
00010000
00000000
00001000
00010000
00000000
00000100
00000000
00000020
,
00000000
00000030
00000001
00001000
,
00000010
00000000
00001000
00000001
00000000
00001000
00000000
00000200
,
00000000
00000300
00010000
00001000
,
00000100
00000000
00000001
00000010
00000000
00000100
00000000
00001000
,
00000000
00000001
00001000
00001001
,
00000002
00000000
00000000
00002003
00000000
00000000
00003100
00010000
,
00022000
00000000
00000000
00000000
,
00033000
00000000
00000000
00000000
;

//---------------dance-double - ----------------
#NOTES:
     dance-double:
     :
     Hard:
     13:
     0.624663,0.730538,0.444675,0.296450,0.275275,413.000000,371.000000,42.000000,28.000000,0.000000,0.000000,0.624663,0.730538,0.444675,0.296450,0.275275,413.000000,371.000000,42.000000,28.000000,0.000000,0.000000:
00000000
00000000
00000000
00000000
,
00000000
00000000
00000000
00000000
,
00000000
00000000
00000000
00000000
,
00000000
00000000
00000000
00000000
,
00010000
00000100
00001000
00000010
00000100
00000001
00000010
00000100
,
00001000
00000002
00000000
00000000
00000103
00000010
00010000
00001000
,
01000000
00000000
00001000
00000000
00010000
00000000
01000000
10000000
00000000
00010000
01000000
00000000
00100000
00000000
20000000
00000000
,
00020000
00000000
30030000
00000000
10010000
10010000
00000000
00000000
,
01000000
00010000
00001000
00000100
00000010
00010000
00001000
00000100
,
00000001
00000010
00000100
00001000
00000001
00000100
00001000
00010000
,
00000100
00001000
00000010
00010000
01000000
10000000
00010000
00100000
,
01000000
00010000
00001000
01000000
00010000
10000000
01000000
00000000
,
00100000
00001000
00010000
00100000
01000000
00010000
00100000
01000000
,
00010000
00001000
00000100
00000010
00001000
00000100
00000001
00000100
,
00000010
00000001
00000100
00000010
00010000
00001000
00000100
00000010
,
00001000
00000000
00000000
00000001
00000000
00000000
00002002
00000000
00000000
00000000
00000000
00000000
00003003
00000000
00000001
00000000
,
00000100
00000000
00000001
00000000
00000010
00000000
00000100
00010000
00000000
00010000
00001000
00000000
00000010
00000000
00000100
00000000
,
00001000
00000000
00000001
00000000
00000100
00000000
00000001
00001000
00000000
00001000
00000100
00000000
00010000
00000000
00001000
00000000
,
00100000
00000000
00010000
00000000
01000000
00000000
00100000
10000000
00000000
10000000
00010000
00000000
00100000
00000000
01000000
00000000
,
10000000
00010000
00100000
00001000
00100000
01000000
10000000
00010000
,
20020000
00000000
30030000
00000000
01000000
00010000
00001000
00022000
,
00000000
00000000
00033000
00000000
00001000
00000010
00000001
00002002
,
00000000
00003003
00000000
00000002
00000000
00000000
00001003
00000000
,
00000100
00010000
00000000
00010100
00000000
01001000
00000000
00000000
,
00011000
00000000
00000000
00000000
01100000
00000000
00000000
00000000
00000000
00000000
01000000
00010000
01000000
00010000
02000000
00000000
,
00000000
00000000
00100000
00000000
03100000
00000000
00000000
00000000
00000000
00000000
00010000
00001000
00010000
00001000
00010000
00001000
,
00020000
00000000
00000000
00000000
00030200
00000000
00000000
00000000
00000300
00000000
00000010
00000001
00000010
00000001
00000010
00000001
,
00000010
00000101
00001100
00000110
,
00011000
00000000
00000000
00000000
01100000
00000000
00000000
00000000
00000000
00000000
10000000
01000000
10000000
01000000
10000000
00000000
,
00000000
00000000
00010000
00000000
01010000
00000000
00000000
00000000
11000000
00000000
00000000
00000000
00100000
00001000
00100000
00001000
,
00100000
00000000
00000000
00000000
00011000
00000000
00000000
00000000
00000000
00000000
00010000
00000010
00010000
00000000
00000100
00000000
,
00001000
00000100
00001000
00000000
00000001
00000000
00001000
00000010
00001000
00000000
00000001
00000000
00000100
00000010
00000100
00000000
,
00000001
00000000
00000000
00000000
00001001
00000000
00000000
00000000
00000000
00000000
00000001
00001000
00000001
00001000
00000001
00000000
,
00000000
00000110
00000110
00000000
00000000
00001000
00010000
00000000
,
00001000
00000000
00000100
00000000
00000001
00000000
00001000
00000000
00000100
00000000
00000001
00000000
00000100
00001000
00000100
00000000
,
00010000
00000000
01000000
00000000
10000000
00000000
00010000
00000000
01000000
00000000
10000000
00000000
01000000
00010000
01000000
00000000
,
00001000
00000000
00010000
00000000
00100000
00000000
10000000
00000000
01000000
00000000
00010000
00000000
00001000
00010000
00001000
00000000
,
00000010
00000000
00000001
00000000
00000100
00000000
00001000
00000000
00010000
00000000
01000000
00000000
10000000
00010000
10000000
00000000
,
00100000
00000000
01000000
00000000
00010000
00000000
00100000
00000000
01000000
10000000
01000000
00000000
00020000
00000000
00000000
00000000
,
00031000
00000000
00000010
00000000
00000100
00000000
00001000
00000000
00000001
00000100
00000001
00000000
00002000
00000000
00000000
00000000
,
00003010
00000100
00000001
00000010
00000100
00010000
00000010
00001000
,
00000001
00000010
00001000
00010000
00000100
00001000
00000010
00000000
,
00001001
00000000
00000001
00000100
00000000
00002000
00000000
00020000
,
00000000
00033000
00010100
01001000
,
00011000
00000000
00010000
01000000
00000000
20000000
00000000
00020000
,
00000000
30030000
11000000
01010000
,
10010000
00000000
01000000
00010000
00000000
00002000
00000000
00020000
,
00000000
00033000
00101000
00010010
,
00011000
00000000
00001000
00000100
00000000
00000010
00000000
00001001
,
00000000
00000100
00000200
00000000
00001000
00000000
00010300
00000000
,
00011000
00000000
00000000
00000000
00000110
00000000
00000000
00000000
00000000
00000000
00000010
00001000
00000010
00001000
00000020
00000000
,
00000000
00000000
00000100
00000000
00000130
00000000
00000000
00000000
00000000
00000000
00000001
00001000
00000001
00001000
00000001
00001000
,
00000002
00000000
00000000
00000000
00000203
00000000
00000000
00000000
00000300
00000000
00001000
00010000
00001000
00010000
00001000
00010000
,
00001000
00010010
00101000
00011000
,
01100000
00000000
00000000
00000000
10010000
00000000
00000000
00000000
00000000
00000000
10000000
00100000
10000000
00100000
10000000
00000000
,
00000000
00000000
00010000
00000000
00110000
00000000
00000000
00000000
10100000
00000000
00000000
00000000
01000000
00001000
01000000
00001000
,
01000000
00000000
00000000
00000000
00011000
00000000
00000000
00000000
00000000
00000000
00010000
00000010
00010000
00000000
00000100
00000000
,
00001000
00000010
00000100
00001000
00010000
00100000
01000000
00010000
,
10000000
01000000
10000000
01000000
10000000
00000000
00010000
01000000
00010000
01000000
00010000
00000000
10000000
00010000
10000000
00010000
,
20000000
00000000
00000000
00000000
,
30000000
00000000
00000000
00000000
;

//---------------dance-single - ----------------
#NOTES:
     dance-single:
     :
     Challenge:
     16:
     0.922625,1.201946,0.254100,0.264688,1.090513,610.000000,586.000000,24.000000,25.000000,0.000000,0.000000,0.922625,1.201946,0.254100,0.264688,1.090513,610.000000,586.000000,24.000000,25.000000,0.000000,0.000000:
// measure 0
0000
0000
0000
0000
,  // measure 1
0000
0000
0000
0000
,  // measure 2
0000
0000
0000
0000
,  // measure 3
0000
0000
0000
0000
,  // measure 4
1000
0100
1000
0100
0010
0000
0001
0010
0001
0010
0100
0000
1000
0100
0010
0001
,  // measure 5
0100
0000
0010
0000
1000
0000
0001
0100
0010
0000
1000
0100
0000
0010
0001
0000
,  // measure 6
0100
0010
0100
0010
1000
0000
0001
0010
0001
0010
0100
1000
0100
1000
0001
0010
,  // measure 7
0200
0000
0300
0000
1001
0020
0030
0000
,  // measure 8
0100
0001
1000
0200
0300
0010
0100
0002
,  // measure 9
0003
0000
1000
0000
0001
0000
0100
0010
0100
0000
1000
0000
0001
0000
0100
0000
,  // measure 10
2000
0000
0000
0000
3001
0000
0100
0010
0100
0000
0001
0000
1000
0000
0100
0000
,  // measure 11
0000
1001
0000
0110
0000
0100
1001
0000
,  // measure 12
0001
0100
1000
0101
0000
1000
0100
1001
,  // measure 13
0001
0100
0010
1010
0000
1000
0001
0100
,  // measure 14
0110
0000
0000
0100
0000
0001
1000
0100
,  // measure 15
0001
0000
0100
0001
0000
1000
0100
0000
0010
0001
0100
0010
1000
0100
0010
0001
,  // measure 16
0100
0000
1000
0000
0001
0000
0100
0000
1000
0010
0100
0001
1000
0000
0100
0000
,  // measure 17
0010
0000
0001
0000
1000
0000
0010
0000
0001
0100
1000
0100
0001
0000
0010
0000
,  // measure 18
0200
0000
1300
0001
0200
0000
1000
0000
,  // measure 19
0301
0000
0000
0000
1000
0000
0000
0000
1001
0000
0000
0000
0000
0000
0000
0000
1000
0100
0000
0000
1000
0100
0000
0000
0010
0000
0001
0000
0100
0000
0010
0000
,  // measure 20
2000
0000
0000
0000
0001
0000
0000
0000
3001
0000
0000
0000
0000
0000
0000
0000
0001
0100
0000
0000
0001
0100
0000
0000
0010
0000
0001
0000
0100
0000
0010
0000
,  // measure 21
2000
0000
0000
0000
0010
0000
0000
0000
3010
0000
0000
0000
0000
0000
0000
0000
1000
0001
0000
0000
1000
0001
0000
0000
1000
0000
0100
0000
0010
0000
0001
0000
,  // measure 22
0200
0000
0310
0000
0001
0000
0100
0000
1100
0000
0001
0000
0100
0010
1000
0001
,  // measure 23
0010
0000
0110
0000
0000
0000
1001
0000
0000
0000
0110
0000
0000
0000
0100
0001
,  // measure 24
1000
0000
0100
0000
0001
0000
0100
1000
0001
0000
0100
0000
0010
0000
0001
0100
,  // measure 25
0010
0000
1000
0000
0001
0000
0100
0000
0101
0000
0001
0000
0001
0100
1000
0100
,  // measure 26
0001
0000
0010
0000
0100
0000
1000
0000
0001
0000
1000
0010
0100
0001
1000
0000
,  // measure 27
0100
0000
0010
0000
1000
0000
0000
0000
2001
0000
0100
0000
3100
0000
1000
0001
,  // measure 28
0100
0000
0010
0000
1000
0000
0001
0100
0010
0000
0100
0000
0010
0000
1000
0000
,  // measure 29
0100
0000
0001
0000
1001
0000
1000
0001
0100
0000
0001
0000
1001
0000
0000
0000
,  // measure 30
0001
0100
0001
0000
0100
0010
0100
0000
1000
0100
0010
0001
0100
0000
0010
0000
,  // measure 31
1000
0010
1000
0000
0001
0010
0001
0000
1000
0010
0100
0001
1000
0100
0010
0001
,  // measure 32
0100
0000
0000
0000
0000
0000
0000
0000
0110
0000
0000
0000
0000
0000
0000
0000
0000
0000
0000
0000
0100
0010
0100
0000
0010
0100
0010
0000
0100
0000
0000
0000
,  // measure 33
0000
0000
0000
0000
0100
0000
0000
0000
1001
0000
0000
0000
0000
0000
0000
0000
0000
0000
0000
0000
1000
0001
1000
0000
0001
0000
0000
0000
1000
0000
0000
0000
,  // measure 34
0100
0001
1000
0100
0010
0000
0001
0000
1000
0010
0100
0001
1000
0000
0001
0000
,  // measure 35
1000
0100
0001
0100
1000
0000
0010
0000
0001
0100
1000
0100
0001
0000
0010
0000
,  // measure 36
1000
0000
0010
0000
0100
0000
0001
0000
1000
0000
0000
0000
0100
0000
0000
0000
0001
0010
0001
0000
0010
0000
0100
0000
1000
0000
0010
0000
0100
0000
0001
0000
,  // measure 37
0100
0001
1000
0100
0010
0001
0100
0010
1000
0000
0001
0000
0100
0000
0010
0000
,  // measure 38
1000
0100
0010
0001
1000
0000
0001
0000
0010
0100
1000
0100
0001
0000
1000
0000
,  // measure 39
0001
0100
0010
1000
0100
0000
0001
0000
1000
0010
0001
0100
1000
0000
0100
0000
,  // measure 40
0010
0001
0100
0000
0010
1000
0100
0000
0001
0100
1000
0100
0010
0001
0100
0010
,  // measure 41
1000
0100
0000
0000
0010
0001
0000
0000
0100
0010
0000
0000
0100
0010
0000
0000
0100
0000
0001
0000
1000
0000
0100
0000
0010
0000
0001
0000
0100
0000
0020
0000
,  // measure 42
2000
0000
0000
0000
,  // measure 43
3030
0000
1100
0011
,  // measure 44
0202
0000
0000
0000
0303
0000
0000
0100
,  // measure 45
0220
0000
0000
0000
0330
0000
0000
0000
1001
0000
0001
0000
0100
1000
0001
0100
,  // measure 46
0010
1000
0001
0010
1000
0010
0001
1000
,  // measure 47
0010
0000
0001
0010
0100
0010
1000
0100
0010
0001
0100
0010
1000
0001
0100
0010
,  // measure 48
1000
0100
0010
0001
1000
0010
0001
0010
,  // measure 49
2000
0200
3300
0000
0000
0000
0000
0000
0200
0020
0330
0000
0000
0000
0000
0000
0020
0002
0033
0000
0000
0000
0000
0000
0001
0000
0100
0000
0010
0000
1000
0000
,  // measure 50
0100
0010
0001
0010
0100
1000
0010
0100
0001
0010
0100
1000
0010
0100
0001
0010
,  // measure 51
0100
0000
1000
0000
0100
0000
0001
0000
0010
0000
0100
0000
1000
0000
0100
0000
0010
0001
0010
0000
0001
0000
0010
0000
0100
1000
0100
0000
1000
0000
0100
0000
,  // measure 52
0010
0001
0100
0010
1000
0100
0010
0001
1000
0010
0100
0001
0010
0100
1000
0001
,  // measure 53
0010
0000
0100
0000
1000
0000
0010
0000
0100
0000
0001
0000
1000
0000
0100
0000
0010
0001
0010
0000
0001
0000
0010
0000
0100
1000
0100
0000
1000
0000
0100
0000
,  // measure 54
0010
0001
0100
0010
1000
0100
0010
0001
1000
0010
0100
0001
1000
0100
0010
0001
,  // measure 55
0100
0000
0010
0000
1000
0000
0010
0000
0100
0000
0001
0000
1000
0000
0100
0000
0010
0001
0010
0000
0001
0000
0010
0000
0100
1000
0100
0000
1000
0000
0100
0000
,  // measure 56
0010
0100
0010
0000
0100
0000
0010
0000
0001
0000
1000
0000
0001
0000
0100
0000
0010
0000
1000
0000
0100
0000
0010
0000
0001
0000
0100
0000
0010
0000
1000
0000
,  // measure 57
0001
0010
0001
0000
0010
0000
0100
0000
1000
0100
1000
0000
0100
0000
1000
0000
0010
0100
0010
0000
0100
0000
0010
0000
0100
0010
0100
0000
0010
0000
0100
0000
,  // measure 58
0001
0010
0001
0000
0010
0000
0100
0000
1000
0000
0000
0000
1000
0010
1000
0000
0010
0000
0100
0000
0001
0000
0000
0000
0001
0000
0010
0000
0100
0000
2000
0000
,  // measure 59
0002
0000
0000
3003
;
