#TITLE:Dream On Dreamer;
#SUBTITLE:;
#ARTIST:The Brand New Heavies;
#TITLETRANSLIT:;
#SUBTITLETRANSLIT:;
#ARTISTTRANSLIT:;
#GENRE:;
#CREDIT:;
#BANNER:Dream On Dreamer.png;
#BACKGROUND:Dream On Dreamer-bg.png;
#LYRICSPATH:;
#CDTITLE:;
#MUSIC:Dream On Dreamer.ogg;
#OFFSET:0.000000;
#SAMPLESTART:65.047997;
#SAMPLELENGTH:15.000000;
#SELECTABLE:YES;
#DISPLAYBPM:96.000000;
#BPMS:0.000000=96.000000
,4.000000=95.800003
,36.000000=96.279999
,40.000000=95.900002
;
#STOPS:
;
#BGCHANGES:0.000=Dream On Dreamer.avi=1.000=0=0=0=StretchNoLoop====,
99999=-nosongbg-=1.000=0=0=0 // don't automatically add -songbackground-
;
#KEYSOUNDS:;
#ATTACKS:;

//---------------dance-single - ----------------
#NOTES:
     dance-single:
     :
     Beginner:
     1:
     0.055531,0.108516,0.000000,0.000000,0.000000,36.000000,36.000000,0.000000,0.000000,0.000000,0.000000,0.055531,0.108516,0.000000,0.000000,0.000000,36.000000,36.000000,0.000000,0.000000,0.000000,0.000000:
0000
0000
0000
0000
,
0000
0000
0000
0000
,
0000
0000
0000
0000
,
0000
0000
0000
0000
,
0000
0000
0000
0000
,
0000
0000
0000
0000
,
1000
0000
0000
0000
,
0001
0000
0001
0000
,
1000
0000
0000
0000
,
0001
0000
0001
0000
,
1000
0000
0000
0000
,
0000
0000
0000
0000
,
0010
0000
0010
0000
,
0000
0000
0000
0000
,
0001
0000
0000
0000
,
0000
0000
0000
0000
,
0010
0000
0010
0000
,
0000
0000
0000
0000
,
1000
1000
0000
0000
,
0000
0000
0000
0000
,
0010
0010
0010
0000
,
0000
0000
0000
0000
,
0001
0001
0000
0000
,
0000
0000
0000
0000
,
0010
0010
0010
0000
,
1000
0000
0001
0000
,
1000
0000
1000
0000
,
1000
0000
0000
0000
,
0010
0000
0010
0000
,
0000
0000
0000
0000
,
0001
0000
0001
0000
,
0001
0000
0000
0000
,
0010
0000
0010
0000
,
0010
0000
0100
0000
;

//---------------dance-single - ----------------
#NOTES:
     dance-single:
     :
     Easy:
     3:
     0.112604,0.145768,0.000000,0.107976,0.000000,73.000000,73.000000,0.000000,10.000000,0.000000,0.000000,0.112604,0.145768,0.000000,0.107976,0.000000,73.000000,73.000000,0.000000,10.000000,0.000000,0.000000:
0000
0000
0000
0000
,
0000
0000
0000
0000
,
0000
0000
0000
0000
,
0000
0000
0000
0000
,
0000
0000
0000
0000
,
0000
0000
0000
0000
,
1000
0000
0001
0000
,
1000
0001
1000
0000
,
0010
0000
0010
0000
,
1000
0000
0001
0000
,
1000
0000
0000
0000
,
1000
0100
1000
0000
,
0010
0000
0010
0000
,
0100
0100
1000
0001
,
0001
0000
0000
0000
,
0001
0100
0001
0000
,
0010
0000
0010
0000
,
0100
0100
0001
1000
,
1000
0000
1000
0000
,
0001
0010
1000
0100
,
0010
0000
0010
0000
,
0001
0001
0010
0100
,
0001
0000
0001
0000
,
1000
0010
0001
0100
,
0010
0000
0010
0000
,
1000
1000
0010
0100
,
2000
3000
0002
0003
,
0200
0300
0000
0000
,
1000
2000
3001
0002
,
0003
0100
0001
1000
,
0002
0003
2000
3000
,
0200
0300
0000
0000
,
0001
0002
1003
2000
,
3000
0100
1000
0001
;

//---------------dance-single - ----------------
#NOTES:
     dance-single:
     :
     Medium:
     5:
     0.185102,0.236873,0.000000,0.107976,0.000000,120.000000,120.000000,0.000000,10.000000,0.000000,0.000000,0.185102,0.236873,0.000000,0.107976,0.000000,120.000000,120.000000,0.000000,10.000000,0.000000,0.000000:
0000
0000
0000
0000
,
0000
0000
0000
0000
,
0000
0000
0000
0000
,
0000
0000
0000
0000
,
0000
0000
0000
0000
,
0000
0000
0000
0000
,
0100
0100
0000
0000
0001
0001
0000
0000
,
1000
0001
1000
0000
,
0010
0000
0010
0000
,
1000
0100
0010
0000
0001
0100
0010
0000
,
1000
0000
0001
0000
,
1000
0001
0100
0000
0001
0000
1000
0000
,
0100
0100
0010
0010
,
1000
0100
1000
0000
0001
0000
0100
0000
,
1000
0000
0001
0000
,
1000
0001
0100
0000
0001
0000
1000
0000
,
0100
0100
0010
0010
,
1000
0100
1000
0000
0001
0000
0100
0000
,
1000
0010
1000
0000
,
0001
0000
0010
0000
0000
1000
0100
0000
,
0010
0000
0010
0000
0001
1000
1000
0000
,
0100
0000
1000
0000
0001
0010
0100
0000
,
0001
0010
0001
0000
,
1000
0000
0010
0000
0000
0001
0100
0000
,
0010
0010
0010
0000
0100
0000
0100
0000
,
1000
0000
0001
0000
1000
1000
0001
0001
,
2000
3100
0002
0013
,
0200
0000
0300
0000
0010
0100
0010
0000
,
1000
1000
2000
0000
3001
0001
0002
0000
,
0013
0100
1000
0000
0001
0000
1000
0000
,
0002
0103
2000
3010
,
0200
0000
0300
0000
0010
0100
0010
0000
,
0001
0001
0002
0000
1003
1000
2000
0000
,
3010
0100
0001
0000
1000
0000
0001
0000
;

//---------------dance-single - ----------------
#NOTES:
     dance-single:
     :
     Hard:
     6:
     0.240633,0.291536,0.000000,0.118774,0.005399,156.000000,156.000000,0.000000,11.000000,0.000000,0.000000,0.240633,0.291536,0.000000,0.118774,0.005399,156.000000,156.000000,0.000000,11.000000,0.000000,0.000000:
// measure 0
0000
0000
0000
0000
,  // measure 1
0000
0000
0000
0000
,  // measure 2
0000
0000
0000
0000
,  // measure 3
0000
0000
0000
0000
,  // measure 4
0000
0000
0000
0000
,  // measure 5
0000
0000
0000
0000
,  // measure 6
1000
0100
1000
0000
0001
0100
0001
0000
,  // measure 7
0010
0000
0100
0000
1000
0000
0001
0100
,  // measure 8
0010
0010
0010
0010
,  // measure 9
1000
0000
0000
0001
0000
0000
0100
0000
0000
0000
0100
0000
0000
0000
0000
0000
,  // measure 10
1000
0000
0001
0000
1000
0100
0001
0000
,  // measure 11
0000
1000
0000
0001
0000
0100
0001
0000
,  // measure 12
1000
0100
1000
0000
0001
0100
0001
0000
,  // measure 13
0000
1000
0100
1000
0001
0000
0100
0000
,  // measure 14
0001
0000
1000
0000
0001
0100
1000
0000
,  // measure 15
0000
0001
0000
1000
0000
0100
1000
0000
,  // measure 16
0001
0100
0001
0000
1000
0100
1000
0000
,  // measure 17
0000
0001
0100
0001
1000
0000
0100
0000
,  // measure 18
1000
0000
0010
1000
0001
0000
0100
0000
,  // measure 19
0000
0001
0010
0001
0000
1000
0100
0000
,  // measure 20
0010
0000
0010
0001
0000
0001
1000
0000
,  // measure 21
0000
0100
0000
1000
0001
0010
0100
0000
,  // measure 22
0001
0000
0010
0001
1000
0000
0100
0000
,  // measure 23
0000
1000
0010
1000
0000
0001
0100
0000
,  // measure 24
0010
0100
0010
0100
0000
0100
0010
0000
,  // measure 25
1000
1000
0010
0010
0100
0100
0001
0001
,  // measure 26
2000
0100
3000
0100
0002
0010
0003
0010
,  // measure 27
0100
1000
0100
0010
0200
0000
0310
0010
,  // measure 28
0002
0000
0013
0010
0200
0000
1300
1000
,  // measure 29
0000
0010
0001
1000
0010
0100
0001
1000
,  // measure 30
0002
0100
0003
0100
2000
0010
3000
0010
,  // measure 31
0100
0001
0100
0010
0200
0000
0310
0010
,  // measure 32
2000
0000
3010
0010
0200
0000
0301
0001
,  // measure 33
0000
0010
1000
0001
0010
0100
1000
0001
,  // measure 34
2000
0000
0000
0000
,  // measure 35
0000
0000
0000
0000
,  // measure 36
3000
0000
0000
0000
;

//---------------dance-single - ----------------
#NOTES:
     dance-single:
     :
     Challenge:
     3:
     0.103349,0.145768,0.000000,0.107976,0.000000,67.000000,67.000000,0.000000,10.000000,44.000000,0.000000,0.103349,0.145768,0.000000,0.107976,0.000000,67.000000,67.000000,0.000000,10.000000,44.000000,0.000000:
0000
0000
0000
0000
,
0000
0000
0000
0000
,
0000
0000
0000
0000
,
0000
0000
0000
0000
,
0000
0000
0000
0000
,
0000
0000
0000
0000
,
1000
0000
0001
0000
,
1000
0001
1000
MMMM
,
0010
0000
0010
0000
,
1000
0000
0001
0000
,
1000
0000
MMMM
0000
,
1000
0100
1000
0000
,
0010
0000
0010
0000
,
0100
0100
1000
MMMM
,
0001
0000
MMMM
0000
,
0001
0100
0001
0000
,
0010
0000
0010
0000
,
0100
0100
0001
MMMM
,
1000
0000
1000
0000
,
0001
0010
1000
MMMM
,
0010
0000
0010
0000
,
0001
0001
0010
MMMM
,
0001
0000
0001
0000
,
1000
0010
0001
MMMM
,
0010
0000
0010
0000
,
1000
1000
0010
MMMM
,
2000
3000
0002
0003
,
0200
0300
MMMM
0000
,
1000
2000
3001
0002
,
0003
0100
0001
1000
,
0002
0003
2000
3000
,
0200
0300
MMMM
0000
,
0001
0002
1003
2000
,
3000
0100
1000
0001
;

//---------------dance-double - ----------------
#NOTES:
     dance-double:
     :
     Easy:
     3:
     0.111061,0.145768,0.000000,0.107976,0.000000,72.000000,72.000000,0.000000,10.000000,0.000000,0.000000,0.111061,0.145768,0.000000,0.107976,0.000000,72.000000,72.000000,0.000000,10.000000,0.000000,0.000000:
00000000
00000000
00000000
00000000
,
00000000
00000000
00000000
00000000
,
00000000
00000000
00000000
00000000
,
00000000
00000000
00000000
00000000
,
00000000
00000000
00000000
00000000
,
00000000
00000000
00000000
00000000
,
10000000
00000000
01000000
00000000
,
00010000
00001000
00000010
00000000
,
00000100
00000000
00000000
00000000
,
00001000
00000000
00010000
00000000
,
10000000
00000000
00000000
00000000
,
00010000
00001000
00000100
00000000
,
00000010
00000000
00000010
00000000
,
00001000
01000000
01000000
00010000
,
10000000
00000000
00000000
00000000
,
00010000
00001000
00000100
00000000
,
00000010
00000000
00000010
00000000
,
00001000
01000000
00010000
10000000
,
00010000
00000000
01000000
00000000
,
00001000
00010000
00000100
00000010
,
00000001
00000000
00000001
00000000
,
00001000
00001000
00010000
00100000
,
00010000
00000000
01000000
00000000
,
00001000
00010000
00000100
00000010
,
00000001
00000000
00001000
00000000
,
00000100
00010000
00100000
01000000
,
00020000
00030000
20000000
30000000
,
02000000
03000000
00000000
00000000
,
00010000
00020000
00030100
00000200
,
00000300
00000010
00000001
00001000
,
00020000
00030000
20000000
30000000
,
02000000
03000000
00000000
00000000
,
00010000
00020000
00030100
00000200
,
00000300
00000010
00000001
00001000
;

//---------------dance-double - ----------------
#NOTES:
     dance-double:
     :
     Medium:
     5:
     0.174304,0.236873,0.000000,0.107976,0.000000,113.000000,113.000000,0.000000,10.000000,0.000000,0.000000,0.174304,0.236873,0.000000,0.107976,0.000000,113.000000,113.000000,0.000000,10.000000,0.000000,0.000000:
00000000
00000000
00000000
00000000
,
00000000
00000000
00000000
00000000
,
00000000
00000000
00000000
00000000
,
00000000
00000000
00000000
00000000
,
00000000
00000000
00000000
00000000
,
00000000
00000000
00000000
00000000
,
01000000
00001000
00000000
00000000
00010000
00000100
00000000
00000000
,
00001000
00000001
00000100
00000000
,
00001000
00000000
01000000
00000000
,
10000000
01000000
00100000
00000000
00010000
00001000
00000100
00000000
,
00001000
00000000
00000001
00000000
,
00001000
00010000
01000000
00000000
00010000
00000000
10000000
00000000
,
01000000
00010000
00001000
00000100
,
00000001
00000100
00000001
00000000
00001000
00000000
00000001
00000000
,
00001000
00000000
00000001
00000000
,
00001000
00010000
01000000
00000000
00010000
00000000
10000000
00000000
,
01000000
00010000
00001000
00000100
,
00000001
00000100
00000001
00000000
00001000
00000000
00000001
00000000
,
00000000
00000000
00000000
00000000
,
00000000
00000000
00000000
00000000
,
10000000
00000000
00010000
00000000
00100000
00001000
00001000
00000000
,
00010000
00000000
00001000
00000000
00000010
00000001
00000100
00000000
,
00000100
00001000
00010000
00000000
,
00010000
00000000
00001000
00000000
00000000
00010000
01000000
00000000
,
00100000
00100000
00100000
00000000
01000000
00000000
01000000
00000000
,
10000000
00000000
00010000
00000000
00100000
00100000
00001000
00001000
,
00010000
00000200
00000310
00000002
,
00000203
00000000
00000300
00000000
00001000
00010000
00100000
00000000
,
20000000
01000000
31000000
00000000
00200000
00010000
00310000
00000000
,
01000000
00010000
00001000
00000000
00000001
00000000
00001000
00000000
,
00010000
00000200
00000310
00000002
,
00000203
00000000
00000300
00000000
00001000
00010000
00100000
00000000
,
20000000
01000000
31000000
00000000
00200000
00010000
00310000
00000000
,
01000000
00010000
00001000
00000000
00000001
00000000
00001000
00000000
;

//---------------dance-double - ----------------
#NOTES:
     dance-double:
     :
     Hard:
     6:
     0.234463,0.274327,0.000000,0.107976,0.000000,152.000000,152.000000,0.000000,10.000000,0.000000,0.000000,0.234463,0.274327,0.000000,0.107976,0.000000,152.000000,152.000000,0.000000,10.000000,0.000000,0.000000:
00000000
00000000
00000000
00000000
,
00000000
00000000
00000000
00000000
,
00000000
00000000
00000000
00000000
,
00000000
00000000
00000000
00000000
,
00000000
00000000
00000000
00000000
,
00000000
00000000
00000000
00000000
,
01000000
00001000
00100000
00000000
00010000
00000010
00000100
00000000
,
00001000
00000000
00000001
00000000
00000100
00000000
00000010
00001000
,
00010000
00100000
00100000
00100000
,
10000000
00010000
00001000
00000000
,
00000001
00000000
00001000
00000000
00001000
00000100
00000001
00000000
,
00000000
00000001
00000000
00000010
00000000
00001000
00010000
00000000
,
10000000
00100000
10000000
00000000
00010000
00100000
00010000
00000000
,
00000000
00000000
01000000
00010000
00001000
00000000
00000010
00000000
,
00000001
00000000
00001000
00000000
00001000
00000100
00000001
00000000
,
00000000
00000001
00000000
00000010
00000000
00001000
00010000
00000000
,
10000000
00100000
10000000
00000000
00010000
00100000
00010000
00000000
,
00000000
00000000
01000000
00010000
00001000
00000000
00000010
00000000
,
00000001
00000000
00000010
00000001
00001000
00000000
00010000
00000000
,
00000000
01000000
00010000
01000000
00010000
00000000
00001000
00000000
,
00000010
00000000
00000100
00000001
00000000
00001000
00000001
00000000
,
00000000
00000001
00000000
00000100
00001000
00010000
01000000
00000000
,
10000000
00000000
00100000
10000000
00010000
00000000
00001000
00000000
,
00000000
00000100
00001000
00000100
00001000
00000000
00010000
00000000
,
00100000
01000000
00100000
00010000
00000000
00001000
00000100
00000000
,
00001000
00001000
00000100
00000100
00010000
00010000
01000000
01000000
,
10000000
02000000
00000000
03100000
00001000
00000020
00000000
00000130
,
00000001
00000100
00001000
00010000
02000000
00000000
03100000
00100000
,
00020000
00000000
00130000
00100000
00002000
00000000
00013000
00010000
,
00000000
00001000
00000010
00000100
00001000
00010000
01000000
00100000
,
10000000
02000000
00000000
03100000
00001000
00000020
00000000
00000130
,
00000001
00000100
00001000
00010000
02000000
00000000
03100000
00100000
,
00020000
00000000
00130000
00100000
00002000
00000000
00013000
00010000
,
00000000
00001000
00000010
00000100
00001000
00010000
01000000
00100000
;

//---------------dance-double - ----------------
#NOTES:
     dance-double:
     :
     Challenge:
     3:
     0.104891,0.145768,0.000000,0.107976,0.000000,68.000000,68.000000,0.000000,10.000000,80.000000,0.000000,0.104891,0.145768,0.000000,0.107976,0.000000,68.000000,68.000000,0.000000,10.000000,80.000000,0.000000:
00000000
00000000
00000000
00000000
,
00000000
00000000
00000000
00000000
,
00000000
00000000
00000000
00000000
,
00000000
00000000
00000000
00000000
,
00000000
00000000
00000000
00000000
,
00000000
00000000
00000000
00000000
,
10000000
00000000
01000000
00000000
,
00010000
00001000
00000010
MMMMMMMM
,
00000100
00000000
00000000
00000000
,
00001000
00000000
00010000
MMMMMMMM
,
10000000
00000000
00000000
00000000
,
00010000
00001000
00000100
MMMMMMMM
,
00000010
00000000
00000010
00000000
,
00001000
01000000
01000000
00010000
,
10000000
00000000
00000000
00000000
,
00010000
00001000
00000100
MMMMMMMM
,
00000010
00000000
00000010
00000000
,
00001000
01000000
00010000
10000000
,
00010000
00000000
MMMMMMMM
00000000
,
00001000
00010000
00000100
00000010
,
00000001
00000000
MMMMMMMM
00000000
,
00001000
00001000
00010000
00100000
,
00010000
00000000
MMMMMMMM
00000000
,
00001000
00010000
00000100
00000010
,
00000001
00000000
MMMMMMMM
00000000
,
00000100
00010000
00100000
01000000
,
00020000
00030000
20000000
30000000
,
02000000
03000000
MMMMMMMM
00000000
,
00010000
00020000
00030100
00000200
,
00000300
00000010
00000001
00001000
,
00020000
00030000
20000000
30000000
,
02000000
03000000
MMMMMMMM
00000000
,
00010000
00020000
00030100
00000200
,
00000300
00000010
00000001
00001000
;

//---------------dance-single - Edit----------------
#NOTES:
     dance-single:
     :
     Edit:
     15:
     0.692590,0.757993,0.345524,0.064786,1.333506,449.000000,417.000000,32.000000,6.000000,0.000000,0.000000,0.692590,0.757993,0.345524,0.064786,1.333506,449.000000,417.000000,32.000000,6.000000,0.000000,0.000000:
0000
0000
0000
0000
,
0000
0000
0000
0000
,
0000
0000
0000
0000
,
0000
0000
0000
0000
,
0000
0000
0000
0000
,
0000
0000
0000
0000
,
1100
0000
1000
0100
0010
0000
0011
0000
0101
0000
0100
0001
1000
0000
1001
0000
,
0011
0000
0010
0100
0000
0100
1000
0000
1000
0100
1000
0100
0010
0000
0011
0000
,
0001
0010
0100
1000
0010
0000
1010
0000
0001
0010
0100
1000
0001
0000
0101
0000
,
0100
0010
1000
0001
0000
0001
0100
0000
0010
0001
0100
0010
0100
0000
0110
0000
,
2000
0000
0000
3001
1000
0000
0100
1000
0000
0010
0000
0100
0000
0010
0000
0001
,
1000
0001
1000
0000
0100
0000
0010
0000
0001
0010
0001
0010
0001
0000
0100
0000
1000
0100
1000
0000
0100
0000
0010
0000
0001
0000
1000
0000
0100
0000
0020
0000
,
0000
1000
0000
0001
0000
0130
0001
1000
0000
0100
0000
0010
0000
1000
0000
0001
,
0010
0001
0010
0000
0001
0000
0100
0000
0001
1000
0001
1000
0001
0000
0010
0000
0100
0000
1000
0000
0010
0000
0100
0000
0001
0000
0010
0000
0100
0000
1000
0000
,
0200
0000
0000
0301
0100
0000
0010
1000
0000
0100
0000
0010
0000
1000
0000
0001
,
0100
0001
0100
0000
0001
0000
0100
0000
0010
1000
0010
1000
0010
0000
1000
0000
0100
0010
0100
0000
0010
0000
0001
0000
0000
0000
0101
0000
0000
0000
0002
0000
,
0000
0010
0000
1000
0000
0103
0010
1000
0000
0100
0000
0010
0000
1000
0000
0001
,
1000
0100
0001
0000
0100
0000
1000
0000
0001
0100
1000
0100
0001
0000
0100
0000
1000
0010
1000
0000
0010
0000
0100
0000
0001
0000
0010
0000
0001
0000
1000
0000
,
0100
0000
0010
0001
0100
0000
0010
1000
0100
0000
0010
0100
0000
0101
0000
1000
,
0001
0010
0001
0000
0010
0000
0100
0000
1000
0100
1000
0100
1000
0000
0010
0000
0100
0001
0100
0000
0001
0000
1000
0000
0001
0000
0010
0000
0100
0000
1000
0000
,
0000
1100
0000
1010
0000
0010
0001
1000
0000
1001
0000
0101
0000
0011
0000
1000
,
0001
0010
0001
0000
0010
0000
0100
0000
1000
0100
1000
0100
1000
0000
0100
0000
0010
0100
0010
0000
0100
0000
0001
0000
1000
0000
0100
0000
0010
0000
0001
0000
,
0200
0000
0000
0310
0100
0001
0000
1001
0000
1100
0000
1010
0000
0101
0000
0100
,
0001
1000
0001
0000
1000
0000
0100
0000
0010
0001
0010
0001
0010
0000
0001
0000
1000
0100
1000
0000
0100
0000
0010
0000
0000
0000
1001
0000
0000
0000
0200
0000
,
0000
1000
0000
0001
0000
1300
0000
0000
0000
0000
1000
0100
0001
0000
0101
0000
,
0001
0000
0001
0000
0010
0001
0100
0000
1000
0100
0010
0000
0001
0000
1000
0000
0010
0100
1000
0100
0010
0000
0001
0000
1000
0100
0001
0100
1000
0000
0100
0000
,
0010
0000
0001
1000
0010
0000
1010
0000
1001
0000
0001
0100
1000
0000
1100
0000
,
0110
0000
0010
1000
0000
0001
0100
0000
1000
0100
0010
0001
0100
0001
1000
0100
,
0000
0000
0010
0100
0000
0000
0010
0001
0000
0000
1000
0100
0000
0000
0010
0000
0001
0000
1000
0001
0000
0000
0100
0001
0000
0000
1000
0100
0000
0000
0010
0000
,
1000
0001
0100
0010
1000
0100
0010
0001
0010
0100
1000
0010
0100
0001
0010
0001
,
1000
0000
0001
0010
1000
0000
1100
0000
1010
0000
0010
0100
0001
0000
0011
0000
,
1001
0000
1000
0100
0000
0001
0100
0000
0010
0001
1000
0100
0010
0001
1000
0010
,
0000
0000
0001
0100
0000
0000
0010
1000
0000
0000
0100
1000
0000
0000
0010
0000
0100
0000
0001
0010
0000
0000
0100
1000
0000
0000
1000
0100
0000
0000
0010
0000
,
0001
0000
1000
0001
1000
0000
0100
0000
0010
0000
0001
0000
1000
0000
0010
0100
0001
0100
0010
0100
1000
0100
0010
0001
1000
0000
0100
0000
0010
0000
0001
0000
,
1001
0000
0000
0000
0000
0000
1000
0000
0110
0000
0000
0000
0010
0000
1000
0000
0000
0000
1000
0100
0000
0000
0010
0001
0000
0000
1000
0001
0000
0000
0010
0000
,
0001
0010
0100
1000
0010
0100
0001
1000
0100
0010
0001
1000
0010
0100
0001
1000
,
0100
0000
0000
0000
;
