#VERSION:0.83;
#TITLE:Dream Machine;
#SUBTITLE:;
#ARTIST:Darwin;
#TITLETRANSLIT:;
#SUBTITLETRANSLIT:;
#ARTISTTRANSLIT:;
#GENRE:;
#ORIGIN:;
#CREDIT:;
#BANNER:Dream Machine.png;
#BACKGROUND:Dream Machine-bg.png;
#PREVIEWVID:;
#JACKET:Dream Machine-jacket.png;
#CDIMAGE:;
#DISCIMAGE:;
#LYRICSPATH:;
#CDTITLE:;
#MUSIC:Dream Machine.ogg;
#OFFSET:0.000000;
#SAMPLESTART:30.860001;
#SAMPLELENGTH:15.000000;
#SELECTABLE:YES;
#DISPLAYBPM:140.000000;
#BPMS:0.000=140.078,
4.000=139.996;
#STOPS:;
#DELAYS:;
#WARPS:;
#TIMESIGNATURES:0.000=4=4;
#TICKCOUNTS:0.000=4;
#COMBOS:0.000=1;
#SPEEDS:0.000=1.000=0.000=0;
#SCROLLS:0.000=1.000;
#FAKES:;
#LABELS:0.000=Song Start;
#BGCHANGES:;
#KEYSOUNDS:;
#ATTACKS:
;

//---------------dance-single - ----------------
#NOTEDATA:;
#CHARTNAME:;
#STEPSTYPE:dance-single;
#DESCRIPTION:;
#CHARTSTYLE:;
#DIFFICULTY:Beginner;
#METER:3;
#RADARVALUES:0.136444,0.162803,0.021707,0.000000,0.000000,88.000000,86.000000,2.000000,0.000000,0.000000,0.000000,0.000000,0.000000,0.000000,0.136444,0.162803,0.021707,0.000000,0.000000,88.000000,86.000000,2.000000,0.000000,0.000000,0.000000,0.000000,0.000000,0.000000;
#CREDIT:;
#DISPLAYBPM:140.000000;
#NOTES:
0000
0000
0000
0000
,
0000
0000
0000
0000
,
0000
0000
0000
1000
,
0000
0000
0000
0001
,
0000
0000
0000
1000
,
0000
0000
0000
0001
,
0000
0000
0000
0100
,
0000
0000
0000
0010
,
0000
0000
0000
0100
,
0000
0000
0000
0010
,
0000
1000
0000
1000
,
0000
1000
0000
1000
,
0000
0001
0000
0001
,
0000
0001
0000
0001
,
0000
1000
0000
0001
,
0000
1000
0000
0001
,
0000
1000
0000
0001
,
0001
0000
0000
0000
,
0000
1000
0000
1000
,
0000
0010
0000
0010
,
0000
0100
0000
0100
,
0000
0001
0000
0001
,
0000
1000
0000
1000
,
0000
0010
0000
0010
,
0000
0001
0000
0001
,
0000
1000
0000
1000
,
0000
0010
0010
0000
,
0000
0100
0100
0000
,
0000
1000
1000
0000
,
0000
0001
0001
0000
,
0000
0010
0010
0000
,
0000
0010
0010
0000
,
1000
0000
0001
0000
,
1001
0000
0000
0000
,
0000
0000
0001
0001
,
0000
0000
0100
0100
,
0000
0000
1000
1000
,
0000
0000
0100
0100
,
0000
0000
0010
0010
,
0000
0000
0001
0001
,
0000
0000
1000
1000
,
1000
0000
0000
0000
,
0000
1000
0000
0001
,
0000
0001
0000
0010
,
0000
0100
0000
0100
,
0000
1000
0000
0100
,
0000
0100
0000
0001
,
0000
1000
0000
0010
,
0000
0010
0000
0001
,
0000
1000
1000
0000
,
1001
0000
0000
0000
,
0000
0000
0000
0000
;

//---------------dance-single - ----------------
#NOTEDATA:;
#CHARTNAME:;
#STEPSTYPE:dance-single;
#DESCRIPTION:;
#CHARTSTYLE:;
#DIFFICULTY:Easy;
#METER:6;
#RADARVALUES:0.324055,0.393169,0.293045,0.162803,0.000000,209.000000,182.000000,27.000000,15.000000,0.000000,0.000000,0.000000,0.000000,0.000000,0.324055,0.393169,0.293045,0.162803,0.000000,209.000000,182.000000,27.000000,15.000000,0.000000,0.000000,0.000000,0.000000,0.000000;
#CREDIT:;
#DISPLAYBPM:140.000000;
#NOTES:
0000
0000
0000
0000
,
0000
0000
0000
0000
,
1000
0100
0001
0100
,
1000
0100
0001
0010
,
1000
0100
0001
0100
,
1000
0010
0001
0100
,
0001
0100
1000
0100
,
0001
0100
1000
0010
,
0001
0100
1000
0100
,
0001
0010
1000
0100
,
0010
0001
0100
0001
,
0010
0001
0100
0001
,
0010
1000
0100
1000
,
0010
1000
0100
1000
,
0010
1000
0101
0000
,
0010
0001
1100
0000
,
0010
1000
0100
0010
,
0001
0100
2002
3003
,
0010
0001
0110
1001
,
0100
0010
1001
0110
,
0001
0100
1000
0100
,
0001
0010
0001
1010
,
0100
0001
0110
1001
,
0100
0010
1001
0110
,
1000
0010
0001
0010
,
0100
0001
0010
1100
,
0100
0020
0100
1030
,
0100
0020
0100
0031
,
2000
3100
0002
0103
,
0010
0010
0100
0100
,
1001
0100
0010
0000
,
1001
0100
0010
0000
,
0100
1000
0010
0100
,
2002
0000
0000
3003
,
0010
0001
1000
1010
,
0100
0001
0100
0100
,
0001
1000
0010
0011
,
0001
0100
1000
0110
,
1000
0010
0001
0110
,
0100
0001
0100
0100
,
1000
0100
0010
1001
,
0110
0000
0000
0001
0000
0000
0010
0000
,
0100
0002
0100
1003
,
0010
2000
0010
3001
,
1000
0200
0001
0310
,
1000
0010
0001
0100
,
1001
0100
1000
0010
,
1001
0100
0001
0010
,
1001
0010
1001
0100
,
0020
0000
0200
0330
,
2002
0000
0000
0000
,
0000
0000
0000
3003
,
0000
0000
0000
0000
;

//---------------dance-single - ----------------
#NOTEDATA:;
#CHARTNAME:;
#STEPSTYPE:dance-single;
#DESCRIPTION:;
#CHARTSTYLE:;
#DIFFICULTY:Medium;
#METER:8;
#RADARVALUES:0.404681,0.449336,0.227924,0.162803,0.000000,261.000000,240.000000,21.000000,15.000000,0.000000,0.000000,0.000000,0.000000,0.000000,0.404681,0.449336,0.227924,0.162803,0.000000,261.000000,240.000000,21.000000,15.000000,0.000000,0.000000,0.000000,0.000000,0.000000;
#CREDIT:;
#DISPLAYBPM:140.000000;
#NOTES:
0000
0000
0000
0000
,
0000
0000
0000
0000
,
1000
1000
0001
0010
0000
0001
0100
0000
,
0010
0010
0100
0001
0000
0010
0100
0000
,
1000
1000
0100
0001
0000
0100
1000
0000
,
0010
0010
0100
1000
,
0001
0001
1000
0010
0000
1000
0001
0000
,
0100
0100
1000
0100
0000
0001
0100
0000
,
1000
1000
0001
0010
0000
0100
1000
0000
,
0100
0000
0001
0000
0100
0000
0010
0001
,
0100
0100
0010
0100
0000
0010
1000
0000
,
0001
0001
1000
0010
0000
0100
1000
0000
,
0010
0010
1000
0100
0000
0010
0100
0000
,
1000
0001
0100
1000
,
1010
0000
0100
0010
0001
0000
0000
0000
,
0110
0000
1000
0100
0001
0000
0000
0000
,
0100
0000
1000
0000
0010
0000
0100
1000
,
0001
0100
2020
3030
,
0110
0000
1001
0000
0010
1000
0100
0000
,
0011
0000
1100
0000
0001
1000
0100
0000
,
0001
0100
1000
0000
0001
0100
1000
0000
,
0001
0010
0100
0010
0001
0000
1100
0000
,
1010
0000
0101
0000
0010
0001
0100
0000
,
1100
0000
0101
0000
0010
0100
0001
0000
,
1000
0010
0001
0000
1000
0010
0001
0000
,
0010
0100
0001
0010
0100
0000
1001
0000
,
0010
1000
0200
0000
0010
0000
1300
0000
,
0010
0001
0200
0000
0010
0000
0301
0000
,
0020
1030
0002
0013
,
0100
1000
0100
0000
0010
0000
0001
0000
,
1001
0001
0010
0000
0100
0000
0000
0000
,
1001
1000
0010
0000
0100
0000
0000
0000
,
0010
1000
0100
0010
,
2002
0000
0000
3003
,
0100
0000
0001
0000
1000
0010
0100
0000
,
0010
0000
0001
0000
0010
0100
0010
0000
,
0001
0000
0100
0000
1000
0001
0100
0000
,
0001
0000
0010
0000
1000
0010
0100
0001
,
1000
0000
0100
0000
0001
1000
0100
0000
,
0010
0000
0001
0000
1000
0100
0010
0000
,
1000
0000
0100
0000
0010
1000
0001
0000
,
0110
0000
0000
1001
0000
0010
0100
0000
,
0010
0000
0001
0000
2000
0100
3100
0000
,
0010
0000
1000
0000
0002
0100
0103
0000
,
1000
0000
0010
0000
0002
0010
0013
0000
,
1000
0000
0100
0000
0001
0100
0010
1000
,
0001
0000
0010
0000
0002
1000
1003
0000
,
0100
0000
0001
0000
0020
0100
0130
0000
,
1001
0100
0010
1100
,
0001
0000
0010
0000
1000
0001
0010
0000
,
2002
0000
0000
0000
,
0000
0000
0000
3003
,
0000
0000
0000
0000
;

//---------------dance-single - ----------------
#NOTEDATA:;
#CHARTNAME:;
#STEPSTYPE:dance-single;
#DESCRIPTION:;
#CHARTSTYLE:;
#DIFFICULTY:Hard;
#METER:11;
#RADARVALUES:0.496161,0.477419,0.162803,0.141096,0.553530,320.000000,305.000000,15.000000,13.000000,0.000000,0.000000,0.000000,0.000000,0.000000,0.496161,0.477419,0.162803,0.141096,0.553530,320.000000,305.000000,15.000000,13.000000,0.000000,0.000000,0.000000,0.000000,0.000000;
#CREDIT:;
#DISPLAYBPM:140.000000;
#NOTES:
0000
0000
0000
0000
,
0000
0000
0000
0000
,
0001
0100
1000
0100
0001
1000
0100
0000
,
0010
0001
0100
0010
1000
0100
0010
0000
,
0001
1000
0010
1000
0001
0010
0100
1000
,
0010
0100
0010
1000
0100
0010
0001
0000
,
1000
0010
0001
1000
0100
0001
1000
0000
,
0010
0100
0001
0010
0100
1000
0010
0000
,
0100
0001
1000
0100
1000
0001
0100
0001
,
0010
0001
1000
0010
0000
1000
0100
0000
,
0010
0100
1000
0010
0000
0100
0001
1000
,
0100
0001
0100
1000
0000
0010
0001
1000
,
0010
0100
0001
0010
0000
0100
0010
0001
,
0100
0010
0100
1000
0000
0100
0001
0010
,
0001
1000
0010
0100
0000
0001
1001
0000
,
0100
0010
0001
0100
0000
0010
0110
0000
,
0010
0000
1000
0000
0100
0000
0010
0100
,
1000
0010
0202
0303
,
0010
0000
0000
0001
0000
0001
0000
0100
0010
0000
0000
1000
0000
1000
0000
0100
,
0001
0000
0000
0100
0000
0100
0000
1000
0001
0000
0000
0100
0000
0100
0000
0010
,
0100
0000
0000
0010
0000
0010
0000
1000
0100
0000
0000
0010
0000
0010
0000
0100
,
1000
0000
0001
0000
0101
0000
1000
0001
,
0010
0000
0000
0001
0000
0001
0000
1000
0010
0000
0000
0100
0000
0100
0000
0001
,
1000
0000
0000
0100
0000
0100
0000
0010
0100
0000
0000
0001
0000
0001
0000
0100
,
1000
0000
0000
0001
0000
0001
0000
0010
1000
0000
0000
0010
0000
0010
0000
0001
,
1000
0001
1001
0000
,
0010
0000
0000
0100
0000
1000
0000
0001
0010
0000
0000
0100
0000
1000
0000
0001
,
0100
0000
0000
1000
0000
0100
0000
0001
0010
0000
0000
0100
0000
1000
0000
0001
,
0100
0000
0000
0010
0000
1000
0000
0010
0100
0000
0000
0010
0000
1000
0000
0010
,
0100
0000
0001
0000
1000
0000
0100
1000
,
0010
0000
0000
1000
0000
1000
0000
0001
0020
0000
0000
0000
0030
0000
0000
0000
,
0010
0000
0000
0001
0000
0001
0000
1000
0020
0000
0000
0000
0030
0000
0000
0000
,
0100
0001
1000
0000
0010
1000
0100
0000
,
2002
0000
0000
3003
,
0010
0000
0000
1000
0000
0001
0000
1000
0000
0000
0100
0000
0110
0000
0000
0000
,
0100
0000
0000
1000
0000
0001
0000
0100
0000
0000
0010
0000
0110
0000
0000
0000
,
1000
0000
0000
0010
0000
0001
0000
0010
0000
0000
1000
0000
1010
0000
0000
0000
,
1000
0000
0000
0100
0000
1000
0000
0001
0000
0000
0100
0000
0010
0000
1000
0000
,
0001
0000
0000
1000
0000
0010
0000
1000
0000
0000
0001
0000
0011
0000
0000
0000
,
0100
0000
0000
1000
0000
0001
0000
0100
0000
0000
0010
0000
0110
0000
0000
0000
,
0001
0000
0000
0010
0000
1000
0000
0010
0000
0000
0001
0000
1001
0000
0000
0000
,
0101
0000
0000
1100
0000
0001
1000
0000
,
0100
0000
0000
0001
0000
1000
0000
0002
0000
0000
0010
0000
0013
0000
0000
0000
,
1000
0000
0000
0001
0000
1000
0000
0020
0000
0000
0100
0000
0130
0000
0000
0000
,
0001
0000
0000
0100
0000
1000
0000
0200
0000
0000
0001
0000
0301
0000
0000
0000
,
1000
0000
0000
0010
0000
1000
0000
0001
0000
0000
0010
0000
0100
0000
1000
0000
,
0001
0000
0000
1000
0000
0100
0000
2000
0000
0000
0001
0000
3001
0000
0000
0000
,
0010
0000
0000
0001
0000
1000
0000
0020
0000
0000
0100
0000
0130
0000
0000
0000
,
1000
0100
0001
0000
0100
1000
0001
0000
,
1000
0000
0000
0001
0000
0100
0000
0001
0000
0000
1000
0000
0100
0000
0010
0000
,
2002
0000
0000
0000
,
0000
0000
0000
3003
,
0000
0000
0000
0000
;

//---------------dance-double - ----------------
#NOTEDATA:;
#CHARTNAME:;
#STEPSTYPE:dance-double;
#DESCRIPTION:;
#CHARTSTYLE:;
#DIFFICULTY:Easy;
#METER:5;
#RADARVALUES:0.229474,0.252751,0.065121,0.086828,0.000000,148.000000,142.000000,6.000000,8.000000,0.000000,0.000000,0.000000,0.000000,0.000000,0.229474,0.252751,0.065121,0.086828,0.000000,148.000000,142.000000,6.000000,8.000000,0.000000,0.000000,0.000000,0.000000,0.000000;
#CREDIT:;
#DISPLAYBPM:140.000000;
#NOTES:
00000000
00000000
00000000
00000000
,
00000000
00000000
00000000
00000000
,
00100000
00000000
00100000
00000000
,
10000000
01000000
00010000
01000000
,
00001000
00000000
00001000
00000000
,
00000010
00000100
00001000
00000001
,
00000100
00000000
00000100
00000000
,
00001000
00010000
00001000
00010000
,
01000000
00000000
01000000
00000000
,
00010000
10000000
10010000
00000000
,
00100000
00010000
01000000
00000000
,
00001000
00010000
00000100
00000000
,
00000010
00000001
00000010
00000000
,
00000100
00001000
00000100
00000000
,
00000010
00000000
00001000
00000000
,
00010000
00000000
00100000
00000000
,
01000000
00010000
00100000
00010000
,
20000000
00000000
00020000
30030000
,
00100000
00010000
01000000
00000000
,
00001000
00010000
00001000
00000000
,
00000010
00000001
00000100
00000001
,
00000010
00000000
00000010
00000000
,
00000100
00001000
00010000
00000000
,
00001000
00010000
01000000
00000000
,
00100000
10000000
01000000
10000000
,
00100000
10000000
00010000
00000000
,
00001000
00000100
00000010
00000000
,
00000010
00000001
00001000
00000000
,
00000100
00000100
00000010
00000010
,
00001000
00010000
00001000
00000000
,
00200000
00000000
01300000
00000000
,
20000000
00000000
30010000
00000000
,
00010000
00000000
00001000
00000000
,
00022000
00000000
00000000
00033000
,
00000010
00001000
00000100
00000000
,
00000001
00000001
00001000
00001000
,
00000100
00010000
00001000
00000000
,
00100000
01000000
00100000
01100000
,
00100000
10000000
01000000
00000000
,
10000000
10000000
00010000
00010000
,
00100000
00001000
00010000
00000000
,
00001000
00001000
00001000
00001000
,
00000010
00001000
00000100
00000000
,
00001000
00010000
00100000
00000000
,
00010000
01000000
10000000
00000000
,
00100000
01000000
00100000
00000000
,
10010000
01000000
00100000
00000000
,
00011000
00010000
00001000
00000000
,
00000100
00000000
00000001
00000000
,
00001000
00000100
00000010
00000000
,
00002002
00000000
00000000
00000000
,
00000000
00000000
00000000
00003003
,
00000000
00000000
00000000
00000000
;

//---------------dance-double - ----------------
#NOTEDATA:;
#CHARTNAME:;
#STEPSTYPE:dance-double;
#DESCRIPTION:;
#CHARTSTYLE:;
#DIFFICULTY:Medium;
#METER:8;
#RADARVALUES:0.390727,0.421252,0.217070,0.108535,0.000000,252.000000,232.000000,20.000000,10.000000,0.000000,0.000000,0.000000,0.000000,0.000000,0.390727,0.421252,0.217070,0.108535,0.000000,252.000000,232.000000,20.000000,10.000000,0.000000,0.000000,0.000000,0.000000,0.000000;
#CREDIT:;
#DISPLAYBPM:140.000000;
#NOTES:
00000000
00000000
00000000
00000000
,
00000000
00000000
00000000
00000000
,
01000000
10000000
00100000
00000000
01000000
00010000
00001000
00000000
,
00000001
00000010
00000100
00000000
00001000
00000000
00000100
00000000
,
00010000
00001000
00100000
00000000
01000000
10000000
00010000
00000000
,
01000000
00100000
00010000
00001000
,
00000010
00000100
00001000
00000000
00000010
00010000
00000100
00000000
,
00001000
00000100
00000010
00000000
00001000
00000000
00010000
00000000
,
00100000
10000000
01000000
00000000
00100000
00010000
01000000
00000000
,
00100000
00010000
00011000
00011000
,
00010000
00001000
00000100
00000000
00000001
00000000
00000010
00000000
,
00001000
00010000
00100000
00000000
10000000
00000000
00010000
00000000
,
01000000
10000000
00010000
00000000
01000000
00001000
00100000
00000000
,
01000000
00010000
00001000
00000010
,
00000100
00001000
00000010
00000000
00000101
00000000
00000000
00000000
,
00000100
00000001
00000010
00000000
00001100
00000000
00000000
00000000
,
00000001
00000100
00001000
00000000
00010000
00100000
10000000
00000000
,
00010000
00100000
22000000
33000000
,
01000000
00000000
00010000
00000000
00100000
00001000
00010000
00000000
,
00000100
00000000
00000001
00000000
00001000
00000100
00000010
00000000
,
00000001
00000100
00001000
00000000
00001000
00000100
00000001
00000000
,
00001000
00000000
00000010
00000000
00010000
00000000
00001000
01000000
,
00100000
00000000
01000000
00000000
00010000
10000000
01000000
00000000
,
00100000
00000000
01000000
00000000
10000000
00100000
01000000
00000000
,
00100000
00010000
00001000
00000000
00001000
00010000
01000000
00000000
,
00100000
00000000
00001000
00000000
00010000
00000000
00001000
00000100
,
00000001
00000000
00000010
00000001
00000100
00000000
00001000
00000000
,
00000100
00000000
00000001
00000010
00001000
00000000
00010000
00000000
,
00000010
00001000
00000100
00010000
,
00110000
00000000
11000000
00000000
10100000
00000000
01000000
00010000
,
10000000
00000000
00100000
10000000
02000000
00000000
03000000
00000000
,
00100000
00010000
00001000
00000000
00000200
00000000
00000300
00000000
,
00000010
00000000
00001000
00000100
00000010
00000000
00000100
00000000
,
00002002
00000000
00000000
00003003
,
00000100
00000000
00001000
00000000
00010000
00100000
10000000
00000000
,
00100000
01010000
00100000
11000000
,
00010000
00000000
00001000
00000000
00000100
00001000
00000001
00000000
,
00000010
00001000
00010000
00000000
00000100
00000000
00000010
00000001
,
00000100
00000000
00000010
00000000
00001000
00010000
00100000
00000000
,
10010000
01100000
10010000
01100000
,
00010000
00000000
00001000
00000000
00000010
00000001
00000100
00000000
,
00000002
00000000
00000000
00002000
00003003
00000010
00000100
00000000
,
00000001
00000010
00001000
00000100
,
00010000
00001000
01000000
00000000
00001000
00010000
00000100
00000000
,
00001000
00010000
00100000
10000000
,
01000000
10000000
00100000
00000000
01000000
00001000
00010000
00000000
,
00000101
00000000
00000010
00000000
00000100
00000001
00000010
00000000
,
00001100
00000000
00000010
00000000
00001000
00010000
00100000
00000000
,
11000000
00010000
01010000
10000000
,
01000000
00000000
00010000
00000000
00001000
00000100
00000010
00000000
,
00002002
00000000
00000000
00000000
,
00000000
00000000
00000000
00003003
,
00000000
00000000
00000000
00000000
;

//---------------dance-double - ----------------
#NOTEDATA:;
#CHARTNAME:;
#STEPSTYPE:dance-double;
#DESCRIPTION:;
#CHARTSTYLE:;
#DIFFICULTY:Hard;
#METER:11;
#RADARVALUES:0.519418,0.505503,0.151949,0.086828,0.407007,335.000000,321.000000,14.000000,8.000000,0.000000,0.000000,0.000000,0.000000,0.000000,0.519418,0.505503,0.151949,0.086828,0.407007,335.000000,321.000000,14.000000,8.000000,0.000000,0.000000,0.000000,0.000000,0.000000;
#CREDIT:;
#DISPLAYBPM:140.000000;
#NOTES:
00000000
00000000
00000000
00000000
,
00000000
00000000
00000000
00000000
,
00000010
00000001
00000010
00000001
00000100
00001000
00010000
01000000
,
10000000
00100000
10000000
00100000
00010000
00001000
00000010
00000001
,
00001000
00000100
00001000
00000100
00000010
00001000
00010000
00100000
,
10000000
01000000
10000000
01000000
00010000
00001000
00000010
00000001
,
00000100
00000010
00010000
00001000
00100000
00010000
10000000
01000000
,
00100000
01000000
10000000
00010000
00100000
00001000
00010000
00000010
,
00001000
00000001
00000010
00000100
00010000
00001000
00100000
00010000
,
10000000
00100000
01000000
00001000
00010000
00000100
00000010
00000000
,
00000001
00000100
00001000
00010000
01000000
10000000
00010000
00000000
,
10000000
01000000
00010000
00001000
00000100
00000001
00001000
00000000
,
00000010
00000001
00000100
00000010
00000100
00001000
00010000
00001000
,
00000100
00000010
00010000
00001000
00100000
01000000
10000000
00000000
,
00100000
10000000
01000000
00000000
11000000
00000000
00000000
00000000
,
00100000
00010000
00001000
00000000
00011000
00000000
00000000
00000000
,
00000010
00000001
00001000
00000010
00010000
00000100
00000010
00000100
,
00000001
00000100
00002200
00003300
,
00000010
00000000
00000000
00001000
00000000
00001000
00000000
00000100
00000010
00000000
00000000
00000001
00000000
00000001
00000000
00000100
,
00001000
00000000
00000000
00010000
00000000
00010000
00000000
01000000
00100000
00000000
00000000
00010000
00000000
00010000
00000000
10000000
,
00100000
00000000
00000000
01000000
00000000
01000000
00000000
00100000
10000000
00000000
00000000
01000000
00000000
01000000
00000000
00010000
,
00001000
00000000
00000100
00000000
00000001
00000000
00000010
00000010
,
00000100
00000000
00000000
00001000
00000000
00001000
00000000
00000001
00000100
00000000
00000000
00000010
00000000
00000010
00000000
00010000
,
00001000
00000000
00000000
00100000
00000000
00100000
00000000
01000000
00100000
00000000
00000000
00010000
00000000
00010000
00000000
01000000
,
00010000
00000000
00000000
10000000
00000000
10000000
00000000
01000000
00010000
00000000
00000000
01000000
00000000
01000000
00000000
10000000
,
00010000
00100000
00011000
00000000
,
00000010
00000000
00000000
00001000
00000000
00010000
00000000
00001000
00000100
00000000
00000000
00000010
00000000
00001000
00000000
00000001
,
00000010
00000000
00000000
00000100
00000000
00010000
00000000
00001000
00100000
00000000
00000000
00010000
00000000
01000000
00000000
00100000
,
01000000
00000000
00000000
10000000
00000000
01000000
00000000
00010000
00100000
00000000
00000000
00001000
00000000
00010000
00000000
00001000
,
00000010
00000000
00000001
00000000
00001000
00000000
00000100
00001000
,
00000010
00000000
00000000
00001000
00000000
00000001
00000000
00001000
00000020
00000000
00000000
00000000
00000030
00000000
00000000
00000000
,
00000100
00000000
00000000
00001000
00000000
00010000
00000000
01000000
20000000
00000000
00000000
00000000
30000000
00000000
00000000
00000000
,
00100000
10000000
01000000
00000000
10000000
00100000
00010000
00000000
,
00022000
00000000
00000000
00033000
,
00000010
00000000
00000000
00000001
00000000
00001000
00000000
00000001
00000000
00000000
00000100
00000000
00000010
00000000
00000000
00000000
,
00000100
00001000
00010000
01000000
00100000
01000000
10000000
00000000
,
00010000
00000000
00000000
00100000
00000000
10000000
00000000
00100000
00000000
00000000
00010000
00000000
10000000
00000000
00000000
00000000
,
01000000
00010000
00001000
00010000
00100000
00010000
00001000
00000000
,
00000100
00000000
00000000
00000001
00000000
00000010
00000000
00000001
00000000
00000000
00001000
00000000
00000010
00000000
00000000
00000000
,
00000100
00001000
00010000
00100000
01000000
00010000
00100000
00000000
,
00001000
00000000
00000000
00100000
00000000
00010000
00000000
01000000
00000000
00000000
00010000
00000000
00001000
00000000
00000000
00000000
,
00001100
00000101
00001100
00000101
,
00000010
00001000
00010000
00100000
01000000
00100000
01000000
00010000
,
10000000
01000000
00100000
00010000
00001000
00000100
00000010
00000001
,
00001000
00000100
00000001
00000100
00001000
00000100
00000001
00000100
,
00000010
00001000
00010000
00100000
10000000
00010000
01000000
00000000
,
10100000
00100000
01000000
00010000
00100000
00010000
01000000
00000000
,
00011000
00010000
00000010
00001000
00000100
00000010
00000100
00000000
,
00000011
00000100
00001000
00000000
00001010
00000100
00000001
00000000
,
00000010
00000000
00000000
00010000
00000000
00001000
00000000
01000000
00000000
00000000
00010000
00000000
00100000
00000000
01000000
00000000
,
20020000
00000000
00000000
00000000
,
00000000
00000000
00000000
30030000
,
00000000
00000000
00000000
00000000
;

//---------------dance-single - ----------------
#NOTEDATA:;
#CHARTNAME:;
#STEPSTYPE:dance-single;
#DESCRIPTION:;
#CHARTSTYLE:;
#DIFFICULTY:Challenge;
#METER:15;
#RADARVALUES:0.798509,0.926755,0.607797,0.227924,0.987670,515.000000,459.000000,56.000000,21.000000,0.000000,0.000000,0.000000,0.000000,0.000000,0.798509,0.926755,0.607797,0.227924,0.987670,515.000000,459.000000,56.000000,21.000000,0.000000,0.000000,0.000000,0.000000,0.000000;
#CREDIT:;
#DISPLAYBPM:140.000000;
#NOTES:
// measure 0
0000
0000
0000
0000
,  // measure 1
0000
0000
0000
0000
0000
0000
0000
0000
0000
0000
0000
0100
0020
0000
0000
0000
,  // measure 2
1030
0100
0001
0100
1000
0100
0001
0100
,  // measure 3
1000
0100
0001
0100
1000
0100
0001
0100
,  // measure 4
1000
0100
0001
0100
1000
0100
0001
0100
,  // measure 5
1000
0100
0001
0100
1000
0100
0001
0100
,  // measure 6
1000
0010
0001
0010
1000
0010
0001
0010
,  // measure 7
1000
0010
0001
0010
1000
0010
0001
0010
,  // measure 8
1000
0010
0001
0010
1000
0010
0001
0010
,  // measure 9
1000
0010
0001
0010
1000
0010
0001
0010
,  // measure 10
1000
0000
0100
0000
0000
0000
0202
0000
0000
0000
0303
0000
1100
0000
1000
0010
,  // measure 11
0100
0000
0001
0000
0000
0000
0022
0000
0000
0000
0033
0000
1010
0000
1000
0010
,  // measure 12
0100
0000
0001
0000
0000
0000
2002
0000
0000
0000
3003
0000
0110
0000
0100
0001
,  // measure 13
1000
0000
0001
0000
0000
0000
0220
0000
0000
0000
0330
0000
1001
0000
0001
0010
,  // measure 14
0100
1000
0100
0001
0100
1000
0100
0001
,  // measure 15
0010
1000
0010
0001
0010
1000
0010
0001
,  // measure 16
0010
1000
0100
1000
0010
1000
0100
1000
,  // measure 17
0020
0000
0000
0000
0031
0000
0000
0000
0010
0001
0010
0001
0010
0001
0010
0001
,  // measure 18
0010
0000
0000
1010
0000
0000
1000
0100
0010
0000
0000
0011
0000
0000
0001
0100
,  // measure 19
0010
0000
0000
1010
0000
0000
1000
0100
0001
0000
0000
1001
0000
0000
0001
0010
,  // measure 20
0100
0000
0000
1100
0000
0000
1000
0010
0100
0000
0000
0101
0000
0000
0001
0010
,  // measure 21
0100
0000
0000
1100
0000
0000
1000
0010
0100
0000
0000
0101
0000
0000
0001
0010
,  // measure 22
0100
0000
0000
1100
0000
0000
1000
0010
0100
0000
0000
0101
0000
0000
0010
0001
,  // measure 23
1000
0000
0000
1001
0000
0000
0010
0100
0001
0000
0000
0101
0000
0000
1000
0100
,  // measure 24
0010
0000
0000
0011
0000
0000
0001
0100
0010
0000
0000
1010
0000
0000
1000
0001
,  // measure 25
0010
0000
0000
0110
0000
0000
0100
0001
1000
0000
0000
1001
0000
0000
0001
0010
,  // measure 26
0100
0000
0000
0110
0000
0101
0000
0001
0100
0000
0000
1100
0000
1010
0000
0010
,  // measure 27
1000
0000
0000
1100
0000
1010
0000
0010
1000
0000
0000
1100
0000
1001
0000
0001
,  // measure 28
0010
0000
0000
0011
0000
0101
0000
0100
0010
0000
0000
1010
0000
1001
0000
0001
,  // measure 29
0010
0000
0000
0101
0000
1010
0000
1000
0100
0000
0000
0110
0000
0011
0000
0001
,  // measure 30
0020
0100
2000
3030
,  // measure 31
1020
0100
0002
0033
,  // measure 32
0002
0000
0203
0000
2300
0000
3020
0001
,  // measure 33
0130
0000
0000
0000
0110
0000
0000
0000
0100
0001
0100
1000
0100
0001
0100
1000
,  // measure 34
0100
0000
0010
0001
0000
0011
0000
0101
0000
0001
0100
1000
0010
0100
0001
1000
,  // measure 35
0100
0000
0100
1000
0000
1100
0000
0110
0000
0010
0001
0100
0010
1000
0100
0010
,  // measure 36
0001
0000
0100
0010
0000
1010
0000
0110
0000
0010
0001
0100
0010
1000
0100
0001
,  // measure 37
0010
0000
0001
0010
0000
0011
0000
0110
0000
0100
0010
1000
0001
0010
0100
1000
,  // measure 38
0100
0000
0001
0100
0000
1100
0000
0110
0000
0100
0001
1000
0010
0100
0001
0010
,  // measure 39
0100
0000
0001
0100
0000
0101
0000
0110
0000
0100
0001
1000
0100
0010
0001
0100
,  // measure 40
0010
0000
0100
0001
0000
1001
0000
0110
0000
0010
1000
0100
0010
0001
0100
0010
,  // measure 41
2000
0000
0000
3002
0000
1000
1003
0001
,  // measure 42
1000
0100
0001
0100
1000
0100
0001
0100
1000
0100
0001
0100
1000
0100
0001
0100
,  // measure 43
1000
0100
0010
0100
1000
0100
0010
0100
1000
0100
0010
0100
1000
0100
0010
0100
,  // measure 44
0001
0100
1000
0100
0001
0100
1000
0100
0001
0100
1000
0100
0001
0100
1000
0100
,  // measure 45
0001
0100
0010
0100
0001
0100
0010
0100
0001
0100
0010
0100
0001
0100
0010
0100
,  // measure 46
0001
0010
1000
0010
0001
0010
1000
0010
0001
0010
1000
0010
0001
0010
1000
0010
,  // measure 47
0001
0010
0100
0010
0001
0010
0100
0010
0001
0010
0100
0010
0001
0010
0100
0010
,  // measure 48
1000
0010
0100
0010
1000
0010
0100
0010
1000
0010
0100
0010
1000
0010
0100
0010
,  // measure 49
1000
0010
0001
0010
1000
0010
0001
0010
1000
0010
0001
0010
1000
0010
0001
0010
,  // measure 50
2000
0000
0000
0000
,  // measure 51
0000
0000
0000
3000
;
