#TITLE:Do You Know (The Ping Pong Song);
#SUBTITLE:;
#ARTIST:Enrique Iglesias;
#TITLETRANSLIT:;
#SUBTITLETRANSLIT:;
#ARTISTTRANSLIT:;
#GENRE:;
#CREDIT:;
#BANNER:Do You Know (The Ping Pong Song).png;
#BACKGROUND:Do You Know (The Ping Pong Song)-bg.png;
#LYRICSPATH:;
#CDTITLE:;
#MUSIC:Do You Know (The Ping Pong Song).ogg;
#OFFSET:0.000000;
#SAMPLESTART:10.174000;
#SAMPLELENGTH:15.000000;
#SELECTABLE:YES;
#BPMS:0.000000=116.000000
,4.000000=115.000000
;
#STOPS:
;
#BGCHANGES:0.000=Do You Know (The Ping Pong Song).avi=1.000=0=0=0=StretchNoLoop====,
99999=-nosongbg-=1.000=0=0=0 // don't automatically add -songbackground-
;
#KEYSOUNDS:;
#ATTACKS:;

//---------------dance-single - ----------------
#NOTES:
     dance-single:
     :
     Beginner:
     1:
     0.068452,0.107811,0.021296,0.000000,0.000000,45.000000,43.000000,2.000000,0.000000,0.000000,0.000000,0.068452,0.107811,0.021296,0.000000,0.000000,45.000000,43.000000,2.000000,0.000000,0.000000,0.000000:
0000
0000
0000
0000
,
0000
0000
0000
0000
,
0000
0000
0000
0000
,
0000
0000
0000
0000
,
0000
0000
0000
0000
,
0001
0000
0000
0000
,
0001
0000
0000
0000
,
0001
0000
0000
0000
,
0000
0000
0000
0000
,
1000
0000
0000
0000
,
1000
0000
0000
0000
,
1000
0000
0000
0000
,
0000
0000
0000
0000
,
0001
0000
0000
0000
,
0010
0000
0000
0000
,
0001
0000
0001
0000
,
1000
0000
0000
0000
,
1000
0000
0000
0000
,
0010
0000
0000
0000
,
1000
0000
0001
0000
,
0010
0000
0000
0000
,
1001
0000
0000
0000
,
0010
0000
0000
0000
,
0010
0000
0000
0000
,
0000
0000
0000
0000
,
1001
0000
0000
0000
,
0001
0000
0000
0000
,
1000
0000
0000
0000
,
0001
0000
0000
0000
,
0001
0000
0001
0000
,
0001
0000
0000
0000
,
0001
0000
1000
0000
,
1000
0000
0000
0000
,
1000
0000
1000
0000
,
1000
0000
0000
0000
,
1000
0000
0001
0000
,
0001
0000
0000
0000
,
1000
1000
0000
0000
,
0001
0001
0000
0000
,
0010
0000
0010
0000
,
0100
0000
0100
0000
;

//---------------dance-single - ----------------
#NOTES:
     dance-single:
     :
     Easy:
     3:
     0.123213,0.195258,0.010648,0.266201,0.000000,81.000000,80.000000,1.000000,25.000000,0.000000,0.000000,0.123213,0.195258,0.010648,0.266201,0.000000,81.000000,80.000000,1.000000,25.000000,0.000000,0.000000:
0000
0000
0000
0000
,
0000
0000
0000
0000
,
0000
0000
0000
0000
,
0000
0000
0000
0000
,
0000
0000
0000
0000
,
0001
1000
2000
3000
,
0002
0003
0020
0030
,
0002
0003
0020
0030
,
0100
0000
0000
0000
,
0001
1000
2000
3000
,
0002
0003
0020
0030
,
0002
0003
0020
0030
,
0100
0000
0000
0000
,
1000
0000
0001
0000
,
1000
1000
0001
0000
,
0010
0000
0010
0000
,
1000
0001
1000
0000
,
0001
0000
1000
0000
,
0001
0001
1000
0000
,
0020
0030
0020
0030
,
1000
0100
0010
0000
,
0002
0000
0000
0003
,
1000
0000
0100
0000
,
0001
0000
0100
0000
,
0002
0000
0103
0000
,
2000
0000
0000
3000
,
0001
0000
0010
0000
,
1000
0000
0010
0000
,
1001
0000
0000
0000
,
0001
1000
2000
3000
,
0002
0003
0020
0030
,
0002
0003
0020
0030
,
0100
0000
0000
0000
,
0001
1000
2000
3000
,
0002
0003
0020
0030
,
0002
0003
0020
0030
,
0100
0000
0000
0000
,
1000
1000
1000
1000
,
0001
0001
0001
0001
,
1000
0001
1000
0000
,
0010
0010
0100
0100
;

//---------------dance-single - ----------------
#NOTES:
     dance-single:
     :
     Medium:
     6:
     0.237299,0.283770,0.063888,0.159721,0.000000,156.000000,150.000000,6.000000,15.000000,0.000000,0.000000,0.237299,0.283770,0.063888,0.159721,0.000000,156.000000,150.000000,6.000000,15.000000,0.000000,0.000000:
0000
0000
0000
0000
,
0000
0000
0000
0000
,
0000
0000
0000
0000
,
0000
0000
0000
0000
,
0000
0000
0000
0000
,
0010
0000
1000
0100
2000
0000
3010
0000
,
0200
0001
0310
1000
,
0200
1000
0310
1000
,
0010
0000
0100
0000
0001
1000
0001
0000
,
0010
0000
0001
0100
0002
0000
0013
0000
,
0200
1000
0310
0001
,
0200
0001
0310
0001
,
0010
0000
0100
0000
1000
0001
1000
0000
,
0000
0001
0010
0100
,
0010
0001
1000
0010
,
1000
1100
0000
0101
,
0010
1000
0001
0100
,
0000
1000
0010
0100
,
0010
1000
0001
0010
,
0100
1100
0100
0101
,
0001
0000
1000
0000
0010
0100
0100
0000
,
0002
0000
0100
0100
,
1000
1000
0103
0100
,
1000
0100
0001
0010
,
0020
0000
0130
0110
,
2000
0000
0001
0001
,
0010
0010
3001
0001
,
0010
1000
0001
0010
,
1001
0000
0000
0000
,
0010
0000
1000
0100
2000
0000
3010
0000
,
0200
0001
0310
1000
,
0200
1000
0310
1000
,
0010
0000
0100
0000
0001
1000
0001
0000
,
0010
0000
0001
0100
0002
0000
0013
0000
,
0200
1000
0310
0001
,
0200
0001
0310
0001
,
0010
0000
0100
0000
1000
0001
1000
0000
,
0001
0100
0001
0000
0001
0100
0001
0000
,
1000
0100
0010
0000
1000
0100
1000
0000
,
0001
1000
0001
1000
,
0010
0000
0100
0000
0001
0000
0010
0100
,
1000
0000
0000
0000
;

//---------------dance-single - ----------------
#NOTES:
     dance-single:
     :
     Hard:
     8:
     0.304230,0.371084,0.074536,0.170369,0.000000,200.000000,193.000000,7.000000,16.000000,0.000000,0.000000,0.304230,0.371084,0.074536,0.170369,0.000000,200.000000,193.000000,7.000000,16.000000,0.000000,0.000000:
0000
0000
0000
0000
,
0000
0000
0000
0000
,
0000
0000
0000
0000
,
0000
0000
0000
0000
,
0000
0000
0000
0000
,
0010
0100
1000
0001
0020
0000
0031
0100
,
0002
0000
0010
0000
0103
0000
1000
0100
,
2000
0000
0010
0000
3100
0000
0001
1000
,
0010
0000
0100
0001
0100
0001
1001
0000
,
0010
0100
0001
1000
0020
0000
1030
0100
,
2000
0000
0010
0000
3100
0000
0001
0100
,
0002
0000
0010
0000
0103
0000
1000
0001
,
0010
0000
0100
1000
0100
1000
1001
0000
,
0000
0001
0100
1000
,
0010
0000
0001
0000
1000
0100
0001
0000
,
0100
0000
1000
0010
0000
1000
0100
1000
,
0010
0000
0100
0001
0000
0010
0100
0000
,
0000
1000
0010
0001
,
0100
0000
1000
0000
0001
0100
1000
0000
,
0100
1010
0011
0100
,
0001
0000
1000
0010
0100
1000
0001
0000
,
2000
0000
0001
0100
,
0001
0000
0010
0000
3001
0100
0010
0000
,
1000
0100
0010
0000
0001
0010
1000
0000
,
0020
0031
0200
1300
,
0002
0000
0010
1000
,
0010
0000
1000
0000
0103
0010
0001
0000
,
0010
0100
1000
0000
0100
0001
0010
0000
,
1100
0000
0000
0000
0000
0001
1000
0001
,
0010
0100
1000
0001
0020
0000
0031
0100
,
0002
0000
0010
0000
0103
0000
1000
0100
,
2000
0000
0010
0000
3100
0000
0001
1000
,
0010
0000
0100
0001
0100
0001
1001
0000
,
0010
0100
0001
1000
0020
0000
1030
0100
,
2000
0000
0010
0000
3100
0000
0001
0100
,
0002
0000
0010
0000
0103
0000
1000
0001
,
0010
0000
0100
1000
0100
1000
1001
0000
,
1000
0100
1000
0100
0010
0001
0010
0100
,
0001
0100
1000
0100
0010
1000
0010
0100
,
1000
0010
0100
0001
,
0100
0010
1000
0000
0100
0010
0001
0010
,
0100
0000
0000
0000
;

//---------------dance-double - ----------------
#NOTES:
     dance-double:
     :
     Easy:
     4:
     0.129298,0.196456,0.010648,0.191665,0.000000,85.000000,84.000000,1.000000,18.000000,0.000000,0.000000,0.129298,0.196456,0.010648,0.191665,0.000000,85.000000,84.000000,1.000000,18.000000,0.000000,0.000000:
00000000
00000000
00000000
00000000
,
00000000
00000000
00000000
00000000
,
00000000
00000000
00000000
00000000
,
00000000
00000000
00000000
00000000
,
00000000
00000000
00000000
00000000
,
00000001
00000000
00001000
00000100
,
00020000
00030000
02000000
03000000
,
00020000
00030000
02000000
03000000
,
00100000
00000000
00000000
00000000
,
10000000
00000000
00010000
01000000
,
00002000
00003000
00000200
00000300
,
00002000
00003000
00000200
00000300
,
00000010
00000000
00000000
00000000
,
00001000
00000000
00000001
00000000
,
00000100
00000100
00001000
00000000
,
00010000
00000000
00010000
00000000
,
01000000
00100000
01000000
00000000
,
00010000
00000000
10000000
00000000
,
01000000
01000000
00010000
00000000
,
00001000
00001000
00001000
00001000
,
00010000
00001000
00010000
00000000
,
00000020
00000000
00000000
00000000
,
00001000
00000000
00000100
00000030
,
00000001
00000000
00000100
00000000
,
00001000
00010000
01000000
00000000
,
00200000
00000000
00000000
00000000
,
01000000
00000000
00010000
00300000
,
10000000
00000000
00100000
00000000
,
10010000
00000000
00000000
00000000
,
10000000
00000000
00010000
01000000
,
00002000
00003000
00000200
00000300
,
00002000
00003000
00000200
00000300
,
00000010
00000000
00000000
00000000
,
00000001
00000000
00001000
00000100
,
00020000
00030000
02000000
03000000
,
00020000
00030000
02000000
03000000
,
00100000
00000000
00000000
00000000
,
10000000
01000000
00010000
00010000
,
00001000
00000100
00000001
00000001
,
00000010
00001000
00010000
00000000
,
01000000
10000000
00100000
00010000
,
00001000
00000000
00000000
00000000
;

//---------------dance-double - ----------------
#NOTES:
     dance-double:
     :
     Medium:
     6:
     0.243384,0.283770,0.010648,0.159721,0.000000,160.000000,159.000000,1.000000,15.000000,0.000000,0.000000,0.243384,0.283770,0.010648,0.159721,0.000000,160.000000,159.000000,1.000000,15.000000,0.000000,0.000000:
00000000
00000000
00000000
00000000
,
00000000
00000000
00000000
00000000
,
00000000
00000000
00000000
00000000
,
00000000
00000000
00000000
00000000
,
00000000
00000000
00000000
00000000
,
10000000
00000000
01000000
00100000
00002000
00000000
00013000
00000000
,
00000020
00010000
00010030
00000100
,
00000020
00000000
00010000
00000000
00010030
00000000
00000100
00000010
,
00000100
00010000
00001000
00000100
,
00000001
00000000
00000100
00000010
00020000
00000000
00031000
00000000
,
00200000
00001000
00301000
01000000
,
00200000
00000000
00001000
00000000
00301000
00000000
01000000
00100000
,
01000000
00001000
00010000
01000000
,
00000000
10000000
00100000
00010000
,
00001000
00000010
00000001
00001000
,
00000010
00000000
00000100
00000010
00000100
00000000
00000001
00000000
,
00001000
00000100
00010000
01000000
,
00000000
10000000
01000000
00010000
,
00001000
00000100
00000001
00001000
,
00000001
00000010
00000001
00000000
00001000
00000100
00001000
00000000
,
00000100
00000000
00010000
00000000
00100000
00100000
01000000
00000000
,
00002000
00000000
00100000
00100000
,
00010000
00000000
00013000
00000000
00100000
01000000
01000000
00000000
,
10000000
00010000
00100000
00001000
,
00020000
00000000
00031000
00011000
,
00002000
00000000
00000010
00000010
,
00010000
00000000
00013000
00000000
00000010
00001000
00001000
00000000
,
00000001
00000100
00001000
00000000
00010000
00100000
10000000
00010000
,
10000000
00000000
00000000
00000000
,
10000000
00000000
01000000
00100000
00002000
00000000
00013000
00000000
,
00000020
00010000
00010030
00000100
,
00000020
00000000
00010000
00000000
00010030
00000000
00000100
00000010
,
00000100
00010000
00001000
00000100
,
00000001
00000000
00000100
00000010
00020000
00000000
00031000
00000000
,
00200000
00001000
00301000
01000000
,
00200000
00000000
00001000
00000000
00301000
00000000
01000000
00100000
,
01000000
00001000
00010000
01000000
,
10000000
01000000
00010000
00000000
00010000
00001000
00000100
00000000
,
00000001
00000010
00001000
00000000
00001000
00010000
01000000
00000000
,
10000000
10000000
00010000
00100000
,
00001000
00000000
00010000
00000000
00010000
00000000
00001000
00000010
,
00000100
00000000
00000000
00000000
;

//---------------dance-double - ----------------
#NOTES:
     dance-double:
     :
     Hard:
     8:
     0.296624,0.371084,0.000000,0.149073,0.000000,195.000000,195.000000,0.000000,14.000000,0.000000,0.000000,0.296624,0.371084,0.000000,0.149073,0.000000,195.000000,195.000000,0.000000,14.000000,0.000000,0.000000:
00000000
00000000
00000000
00000000
,
00000000
00000000
00000000
00000000
,
00000000
00000000
00000000
00000000
,
00000000
00000000
00000000
00000000
,
00000000
00000000
00000000
00000000
,
00010000
00001000
00010000
00000020
00000000
00000100
00000130
00000000
,
00000001
00001000
00000200
00000000
00010300
00000000
00001000
00100000
,
00010000
10000000
02000000
00000000
03100000
00000000
00010000
00000010
,
00000100
00010000
00000010
00010000
,
00001000
00010000
00001000
00200000
00000000
01000000
01300000
00000000
,
10000000
00010000
02000000
00000000
03001000
00000000
00010000
00000010
,
00001000
00000001
00000200
00000000
00000310
00000000
00001000
00100000
,
01000000
00001000
00100000
00001000
,
00000000
00000100
00000001
00000010
,
00001000
00010000
10000000
01000000
,
00010000
00000000
00001000
00000000
01000000
00001000
00001000
00000000
,
00000010
00000001
00001000
00000100
00010000
00001000
00100000
00000000
,
00000000
01000000
10000000
00100000
,
00010000
00001000
00000001
00000100
,
00010000
00000000
00000010
00001000
00000001
00000000
00000100
00000010
,
00010000
00000100
00001000
00000010
00010000
01000000
10000000
00000000
,
00020000
00000000
00100000
00001000
,
00100000
00100000
00130000
00000000
00001000
00000100
00000010
00000000
,
00000001
00000010
00001000
00000000
00000100
00001000
00010000
00000000
,
01000000
00000000
01000000
00000000
00100000
00001000
00100000
00000000
,
00002000
00000000
00000010
01000000
,
00010000
00010000
00013000
00000000
00000010
00010000
00001000
00000000
,
01000000
00001000
00010000
00000010
00001000
00000001
00000100
00001000
,
00010000
00000000
00000000
00000000
00000000
00001000
00001000
00001000
,
00010000
00001000
00010000
00000020
00000000
00000100
00000130
00000000
,
00000001
00001000
00000200
00000000
00010300
00000000
00001000
00100000
,
00010000
10000000
02000000
00000000
03100000
00000000
00010000
00000010
,
00000100
00010000
00000010
00010000
,
00001000
00010000
00001000
00200000
00000000
01000000
01300000
00000000
,
10000000
00010000
02000000
00000000
03001000
00000000
00010000
00000010
,
00001000
00000001
00000200
00000000
00000310
00000000
00001000
00100000
,
01000000
00001000
00100000
00001000
,
00010000
00000100
00001000
00000100
00010000
00001000
00100000
00001000
,
00010000
00000100
00000010
00000100
00010000
00001000
00100000
00001000
,
01000000
00000000
00100000
00000000
00010000
00000000
00000010
00010000
,
00000100
00000000
00001000
00000000
00000001
00000000
00000100
00001000
,
00010000
00000000
00000000
00000000
;

//---------------dance-single - ----------------
#NOTES:
     dance-single:
     :
     Challenge:
     13:
     0.702771,0.742301,0.489810,0.404626,0.660178,462.000000,416.000000,46.000000,38.000000,0.000000,0.000000,0.702771,0.742301,0.489810,0.404626,0.660178,462.000000,416.000000,46.000000,38.000000,0.000000,0.000000:
// measure 0
0000
0000
0000
0000
,  // measure 1
0000
0000
0000
0000
,  // measure 2
0000
0000
0000
0000
,  // measure 3
0000
0000
0000
0000
,  // measure 4
0000
0000
0000
0000
0000
0000
0000
0000
0000
0000
0000
0000
0000
0000
1000
0100
,  // measure 5
0020
0000
0031
0000
0001
0010
0100
1000
0020
0000
1030
0000
1010
0000
1000
0100
,  // measure 6
0020
0000
0031
0000
0001
0010
0100
1000
0020
0000
0130
0000
0110
0000
0100
0001
,  // measure 7
0020
0000
1030
0000
1000
0010
0100
0001
0020
0000
0031
0000
0011
0000
0001
0100
,  // measure 8
0020
0000
1030
0100
0001
0000
1000
0100
0010
0000
1000
0100
0001
0000
0100
0010
,  // measure 9
2000
0000
3001
0000
1000
0100
0010
0001
2000
0000
3010
0000
1010
0000
0010
0100
,  // measure 10
2000
0000
3010
0000
0010
0001
0100
0001
2000
0000
3001
0000
1001
0000
0001
0010
,  // measure 11
2000
0000
3010
0000
0100
0010
0001
0100
2000
0000
3100
0000
1100
0000
1000
0001
,  // measure 12
0020
0000
0130
0001
1000
0000
0010
0100
0001
0000
1000
0100
0010
0000
0001
1000
,  // measure 13
0020
0000
0001
0000
0100
0000
0031
0100
0001
0000
1001
0000
1100
0000
1000
0100
,  // measure 14
0020
0000
1000
0000
0100
0000
0031
0100
0001
0000
1001
0000
1100
0000
1000
0100
,  // measure 15
0020
0000
0001
0000
1000
0000
0031
0100
0020
0000
1000
0000
0001
0000
1030
0100
,  // measure 16
0020
0000
0031
0000
1000
0100
0010
0001
1000
0000
0011
0000
1001
0000
1000
0100
,  // measure 17
0020
0000
1000
0000
0100
0000
0031
1000
0100
0000
1100
0000
1010
0000
0010
1000
,  // measure 18
0001
0000
0010
0001
0100
0000
0001
0100
0010
0000
1000
0010
0000
0010
0100
0000
,  // measure 19
0020
0000
0100
0000
1000
0000
0130
0001
1000
0000
1001
0000
0101
0000
0001
1000
,  // measure 20
0020
0000
0100
0000
0001
0000
1030
0001
0100
0000
0110
0000
1001
0000
0001
0100
,  // measure 21
0020
0000
0100
0000
1000
0000
0031
0010
1000
0000
1010
0000
0110
0000
0100
0001
,  // measure 22
0010
0000
0001
0010
0000
0001
0010
0000
0100
0010
1000
0000
0010
0000
1000
0000
,  // measure 23
1010
0000
1100
0000
0110
0000
0010
1000
0001
0000
0110
0000
0110
0000
0010
1000
,  // measure 24
0100
0000
0010
0001
0000
1000
0010
0000
0100
0000
0101
0000
1100
0000
0010
1000
,  // measure 25
0001
0000
0100
0010
0001
1000
0100
0001
0010
0000
0011
0000
0101
0000
0010
0001
,  // measure 26
0100
0001
1000
0001
0100
0001
0010
0001
0100
0001
1000
0100
0010
1000
0010
1000
,  // measure 27
0100
1000
0100
1000
0010
0100
0010
0100
0001
0010
0001
0010
1000
0100
0010
0001
,  // measure 28
1000
0000
0000
0000
0000
0000
0000
0000
0101
0000
0000
0000
0000
0000
0000
0000
0001
0000
0000
0000
0010
0001
0000
0000
0010
0001
0000
0000
0010
0000
1000
0000
,  // measure 29
0200
0000
0301
0000
1000
0100
0010
0001
0200
0000
0301
0000
0101
0000
0001
0010
,  // measure 30
0200
0000
0310
0000
0100
0010
1000
0010
0200
0000
1300
0000
1100
0000
1000
0010
,  // measure 31
0200
0000
0301
0000
0100
1000
0010
0001
0200
0000
0310
0000
0110
0000
0010
0001
,  // measure 32
0200
0000
0310
1000
0100
0000
0010
1000
0001
0000
0100
0010
1000
0000
0100
0010
,  // measure 33
0002
0000
1003
0000
0010
0100
1000
0100
0002
0000
0013
0000
0011
0000
0010
0100
,  // measure 34
0002
0000
0103
0000
1000
0100
0010
0100
0002
0000
1003
0000
1001
0000
1000
0100
,  // measure 35
0002
0000
1003
0000
1000
0010
0100
0010
0002
0000
0103
0000
0101
0000
0100
1000
,  // measure 36
0002
0000
0013
0001
0100
0000
0010
1000
0001
0000
0100
0010
1000
0000
0010
0100
,  // measure 37
0001
0010
0001
0010
0100
0000
1100
0000
1000
0010
1000
0010
0100
0000
0101
0000
,  // measure 38
1000
0100
0001
0100
1000
0000
1001
0000
0001
0100
1000
0100
0001
0000
1001
0000
,  // measure 39
0010
0001
1000
0010
0100
0000
0101
0000
0100
0010
1000
0100
0010
0000
1010
1000
,  // measure 40
0100
0000
0010
0001
1000
0000
0010
0100
0001
0000
1001
0000
1100
0000
1010
0000
,  // measure 41
0110
0000
0000
0001
0100
0000
1000
0100
1000
0000
0010
0100
1000
0000
0100
0001
,  // measure 42
0020
0030
0000
0000
;
