#VERSION:0.83;
#TITLE:Dive!!;
#SUBTITLE:;
#ARTIST:A-one;
#TITLETRANSLIT:;
#SUBTITLETRANSLIT:;
#ARTISTTRANSLIT:;
#GENRE:;
#ORIGIN:;
#CREDIT:;
#BANNER:;
#BACKGROUND:Dive!!-bg.jpg;
#PREVIEWVID:;
#JACKET:Dive!!-jacket.png;
#CDIMAGE:;
#DISCIMAGE:;
#LYRICSPATH:;
#CDTITLE:;
#MUSIC:Dive!!.mp3;
#OFFSET:0.000000;
#SAMPLESTART:14.000000;
#SAMPLELENGTH:12.000000;
#SELECTABLE:YES;
#BPMS:0.000=149.000,
4.000=170.000,
31.500=85.000,
35.000=170.000,
95.500=340.000,
97.000=170.000,
172.500=85.000,
173.000=170.000,
184.000=85.000,
185.500=170.000,
308.000=340.000,
309.500=170.000,
385.000=85.000,
385.500=170.000,
396.500=85.000,
398.000=170.000,
520.000=340.000,
521.500=170.000,
586.000=85.000,
589.250=170.000,
704.000=340.000,
714.000=170.000;
#STOPS:35.000=0.350,
95.500=0.270,
96.000=0.250,
96.500=0.260,
97.000=0.180,
163.500=0.180,
166.000=0.180,
166.500=0.200,
167.000=0.160,
169.500=0.160,
172.000=0.180,
173.000=0.160,
175.500=0.160,
178.000=0.180,
178.500=0.200,
179.000=0.160,
181.500=0.200,
245.500=0.350,
246.500=0.190,
308.000=0.250,
308.500=0.280,
309.000=0.260,
309.500=0.180,
376.000=0.160,
378.500=0.180,
379.000=0.200,
379.500=0.160,
382.000=0.160,
384.500=0.180,
385.500=0.160,
388.000=0.180,
390.500=0.160,
391.000=0.200,
391.500=0.160,
394.000=0.220,
458.000=0.350,
459.000=0.350,
520.000=0.260,
520.500=0.280,
521.000=0.280,
521.500=0.140,
589.250=0.280,
642.000=0.350,
643.000=0.350,
704.000=0.250,
704.500=0.270,
705.000=0.280,
705.500=0.250;
#DELAYS:;
#WARPS:;
#TIMESIGNATURES:0.000=4=4;
#TICKCOUNTS:0.000=4;
#COMBOS:0.000=1;
#SPEEDS:0.000=1.000=0.000=0;
#SCROLLS:0.000=1.000;
#FAKES:;
#LABELS:0.000=Song Start;
#BGCHANGES:0.000=Dive!!.mp4=1.000=0=0=0=StretchNoLoop====,
99999=-nosongbg-=1.000=0=0=0 // don't automatically add -songbackground-
;
#KEYSOUNDS:;
#ATTACKS:
;

//---------------dance-single - ----------------
#NOTEDATA:;
#CHARTNAME:;
#STEPSTYPE:dance-single;
#DESCRIPTION:;
#CHARTSTYLE:;
#DIFFICULTY:Challenge;
#METER:18;
#RADARVALUES:0.826588,0.953992,0.718727,0.479151,0.515451,1594.000000,1396.000000,198.000000,132.000000,0.000000,0.000000,0.000000,0.000000,0.000000,0.826588,0.953992,0.718727,0.479151,0.515451,1594.000000,1396.000000,198.000000,132.000000,0.000000,0.000000,0.000000,0.000000,0.000000;
#CREDIT:;
#NOTES:
// measure 0
0000
0000
0000
0000
,  // measure 1
0000
0000
0000
0000
,  // measure 2
1000
0100
0010
0001
0010
0100
1000
0001
1000
0100
1000
0001
,  // measure 3
1000
0010
0100
0001
0100
0010
1000
0100
0010
0001
0010
0100
,  // measure 4
2000
0000
0000
0000
0000
0000
0000
0000
0000
0000
0000
0000
3001
0000
0000
0000
0010
0000
0000
0000
0100
0000
0000
0000
1000
0000
0000
0000
0000
0000
0100
0000
0000
1000
0000
0000
0000
0000
0000
0100
0000
0000
1000
0000
0000
0000
0000
0000
,  // measure 5
0020
0000
0000
0000
0000
0000
0000
0000
0000
0000
0000
0000
0031
0000
0000
0000
0100
0000
0000
0000
0010
0000
0000
0000
1000
0000
0000
0000
0000
0000
0010
0000
0000
1000
0000
0000
0000
0000
0000
1000
0000
0000
0100
0000
0000
0000
0000
0000
,  // measure 6
0200
0000
0000
0000
0000
0000
0000
0000
0000
0000
0000
0000
0310
0000
0000
0000
0001
0000
0000
0000
0010
0000
0000
0000
0001
0000
0000
0000
0000
0000
0100
0000
0000
0010
0000
0000
0000
0000
0000
0100
0000
0000
0010
0000
0000
0000
0000
0000
,  // measure 7
2000
0000
0000
0000
0000
0000
0000
0000
0000
0000
0000
0000
3010
0000
0000
0000
1000
0000
0000
0000
0100
0000
0000
0000
0010
0000
0000
0000
0000
0000
0100
0000
0000
0010
0000
0000
0000
0000
0000
0100
0000
0000
0010
0000
0000
0000
0000
0000
,  // measure 8
0000
0000
0000
0000
0000
0000
0000
1001
,  // measure 9
1000
0100
0010
0011
0001
0100
0010
1010
,  // measure 10
1000
1100
1000
1001
0001
0101
0002
0003
,  // measure 11
0000
0100
0010
1010
1000
0001
1000
1100
,  // measure 12
0100
0110
0010
0011
0001
1001
2000
3000
,  // measure 13
0000
0100
1000
1010
1000
1001
0001
0101
,  // measure 14
0100
0110
0010
1010
1000
1100
0200
0300
,  // measure 15
0000
0010
0100
0110
0100
0010
0100
1100
,  // measure 16
1000
0000
1010
0000
0010
0000
0110
0000
0100
0000
0001
0000
0020
0000
0031
0010
,  // measure 17
0001
0001
0010
0011
0001
0100
0010
1010
,  // measure 18
1000
1001
0001
0101
0100
0110
0200
0300
,  // measure 19
0000
1000
0010
1010
1000
0100
0010
0011
,  // measure 20
0001
1001
1000
1100
0100
0110
0020
0030
,  // measure 21
0000
0010
0001
0101
0100
0010
1000
1001
,  // measure 22
0001
0011
0001
1001
0001
0101
0002
0003
,  // measure 23
0000
0001
0010
0110
0100
1000
0100
1100
,  // measure 24
0110
0011
1001
0001
1000
0010
0100
0001
,  // measure 25
0010
0100
1000
0001
1000
0100
0010
0001
,  // measure 26
1000
0010
0100
0001
0100
0001
2000
0000
,  // measure 27
3001
0000
1000
0000
0010
0000
0100
0000
0000
0100
0001
0000
0000
0001
0010
0000
,  // measure 28
0000
0010
0001
0000
0000
0000
1000
0000
0010
0000
0001
0000
1000
0000
0100
0000
,  // measure 29
0001
2000
0000
3001
0100
1000
0001
0010
,  // measure 30
1000
0002
0000
1003
0010
0001
1000
0100
,  // measure 31
0001
0010
0000
0011
0000
1001
0000
1100
,  // measure 32
0000
1010
0000
0010
0100
0001
1000
0010
,  // measure 33
0100
0001
1000
0100
0010
0001
0010
0100
,  // measure 34
1000
0100
0010
0100
1000
0100
0010
0001
,  // measure 35
0100
0010
1000
2000
0000
3001
0200
0000
,  // measure 36
0310
0000
0100
0000
0000
0000
0001
0000
0000
0001
0100
0000
0000
0100
0010
0000
,  // measure 37
0000
0010
1000
0000
0100
0000
2000
0000
0000
0000
0010
0000
0000
0000
0001
0000
,  // measure 38
0000
0000
3100
0000
0000
0000
1000
0000
0000
1000
0010
0000
0000
0010
0100
0000
,  // measure 39
0000
0100
0001
0000
0010
0000
0002
0000
0000
0000
1003
0000
0000
0000
0010
0001
,  // measure 40
0010
0001
0100
0001
0100
0000
0001
0000
0001
0000
1000
0000
0100
0000
2200
3300
,  // measure 41
1000
0000
0010
0000
1000
0000
0001
0000
2002
3003
0022
0033
0220
0330
0100
0000
,  // measure 42
1000
0000
0010
0000
0100
0000
0202
0303
0001
0000
1000
0000
0010
0000
1000
0000
,  // measure 43
2200
3300
1000
0010
2020
3030
1000
0000
0100
0000
0010
0000
0001
0000
0022
0033
,  // measure 44
0010
0000
0100
0000
1000
0000
0100
0000
0220
0330
0022
0033
2020
3030
1000
0000
,  // measure 45
0010
0000
1000
0000
0001
0000
2002
3003
0001
0000
0100
0000
0001
0000
1000
0000
,  // measure 46
2002
3003
0000
0001
0100
0001
1000
0001
,  // measure 47
0100
0000
0010
0000
1000
0000
0010
0000
0000
0010
0100
0000
0000
0100
0010
0000
,  // measure 48
0000
0010
0100
0000
0000
0000
0001
0000
0010
0000
0100
0000
1000
0000
0001
0000
,  // measure 49
0100
0000
0010
0000
1000
0000
0100
0000
0000
0100
0010
0000
0000
0010
0001
0000
,  // measure 50
0000
0001
0010
0000
0001
0000
0100
0000
0010
0000
1000
0000
0100
0000
0010
0000
,  // measure 51
0001
0100
0000
0001
0100
0001
1000
0010
,  // measure 52
0100
0000
0001
0000
0000
0000
0011
0000
0000
0101
0000
0000
1001
0000
1010
0000
,  // measure 53
0000
1001
0000
0000
1100
0000
2000
0000
0000
0000
0010
0000
0000
0000
0100
0000
,  // measure 54
0000
0000
3001
0000
0000
0000
1000
0100
1000
0000
0001
0000
1000
0100
1000
0000
,  // measure 55
0010
0000
0100
0000
0001
0000
0010
0000
0000
0010
0001
0000
0000
0001
0100
0000
,  // measure 56
0100
0000
0001
0000
0010
0000
0100
1000
0100
0000
1000
0000
0010
1000
0010
0000
,  // measure 57
1000
0000
1000
0000
0010
0000
0100
0000
0000
0100
0010
0000
0000
0010
0100
0000
,  // measure 58
0001
0010
0100
1000
0010
0100
0010
1000
,  // measure 59
0010
0100
0000
0010
0100
0010
0001
0010
,  // measure 60
0100
0000
0010
0000
0000
0000
1010
0000
0000
1001
0000
0000
1100
0000
0110
0000
,  // measure 61
0000
0011
0000
0000
0101
0000
2002
0000
3003
0000
0220
0000
0330
0000
0000
0000
,  // measure 62
0010
1000
0001
1000
0100
0010
0001
1000
,  // measure 63
1100
0100
0110
0010
0011
0001
1001
2000
,  // measure 64
3000
0000
0001
0010
0100
1000
0010
0100
,  // measure 65
0110
0100
0101
0001
1001
1000
1010
0020
,  // measure 66
0030
0000
1000
0010
0100
0001
0010
0001
,  // measure 67
0011
0010
0110
0100
1100
1000
1001
0002
,  // measure 68
0003
0000
0001
1000
0010
0100
0001
0010
,  // measure 69
0110
0010
0110
0100
1100
0100
1100
0200
,  // measure 70
0310
0100
0010
0000
1000
0000
0001
0000
0100
0010
0100
0000
1000
0000
0001
0000
,  // measure 71
1000
0100
1000
0000
0010
1000
0010
0000
0001
1000
0001
0000
1000
0001
2000
0000
,  // measure 72
3000
0000
0000
0000
0001
0010
0001
0000
0100
0000
0010
0000
1000
0100
1000
0000
,  // measure 73
0010
0100
0010
0000
0001
0100
0001
0000
0010
0100
0010
0000
0001
0100
0002
0000
,  // measure 74
0003
0000
0000
0000
0001
0010
0001
0000
0010
0000
0100
0000
1000
0100
1000
0000
,  // measure 75
0010
1000
0010
0000
0001
1000
0001
0000
0100
1000
0100
0000
0001
0010
0200
0000
,  // measure 76
0300
0000
0000
0000
1000
0100
1000
0000
0010
0000
0100
0000
0001
0010
0001
0000
,  // measure 77
0101
1001
1010
0110
0100
0010
1000
0001
,  // measure 78
0010
0001
1000
0010
0100
0001
1000
0100
,  // measure 79
0010
0001
0200
0300
0001
0010
0100
1000
,  // measure 80
0010
1000
0100
1000
0020
0000
0100
0000
,  // measure 81
0001
0000
0130
0000
0100
0001
0010
0100
,  // measure 82
2000
3000
1100
0000
1000
0010
0100
0001
,  // measure 83
0200
0300
0101
0000
0010
0100
1000
0100
,  // measure 84
0020
0030
0011
0000
0101
0000
0011
0000
,  // measure 85
1010
0000
0000
0000
1100
0000
0000
0000
1000
0100
0010
0000
0100
0000
0010
0100
,  // measure 86
0010
0000
0001
0000
0100
0000
0000
0000
0001
0010
0100
0000
1000
0000
0010
0100
,  // measure 87
0010
0000
1000
0000
0100
0000
0000
0000
1000
0010
0100
0000
0010
0000
0100
0010
,  // measure 88
0100
0000
0001
0000
0010
0000
0000
0000
0001
0010
0001
0010
0100
0000
2000
0000
,  // measure 89
0000
0000
0000
0000
3100
0000
0000
0000
1000
0100
0010
0001
0010
0100
1000
0000
,  // measure 90
0100
0000
1000
0000
1100
0000
0000
0000
0001
0100
0010
1000
0010
0100
0001
0000
,  // measure 91
0010
0000
0001
0000
0011
0000
0000
0000
0001
0010
0100
1000
0010
0100
0001
0000
,  // measure 92
0010
0000
0001
0000
0101
0000
0000
0000
0100
0000
0000
1000
0010
0000
0000
1000
,  // measure 93
0010
1000
0100
1000
0010
1000
0100
0010
0001
0000
1000
0000
0100
0000
0010
0000
,  // measure 94
0022
0033
0001
0000
0100
0000
0010
0000
1000
0000
2002
3003
2200
3300
0220
0330
,  // measure 95
0010
0000
0001
0000
1000
0000
0001
0000
0202
0303
0001
0000
0010
0000
0100
0000
,  // measure 96
1000
0000
2020
3030
1000
0100
2200
3300
1000
0000
0010
0000
0100
0000
0001
0000
,  // measure 97
0022
0033
0001
0000
1000
0000
0100
0000
1000
0000
2020
3030
2002
3003
0220
0330
,  // measure 98
0010
0000
0100
0000
0001
0000
0010
0000
0220
0330
0100
0000
0010
0000
1000
0000
,  // measure 99
0100
0000
0220
0000
0330
0000
0000
0000
1000
0100
0010
0000
0100
0000
1000
0100
,  // measure 100
0010
0001
0010
0010
0001
0010
0100
1000
,  // measure 101
0001
0100
0010
1000
0100
0000
0000
0000
1000
0010
0100
0000
0010
0000
1000
0010
,  // measure 102
0100
0010
1000
0100
0010
0001
1000
0010
,  // measure 103
0100
0001
0010
0001
1000
0000
0001
0000
0010
0100
0000
0000
0100
1000
0000
0000
,  // measure 104
0001
0010
0000
0000
0100
1000
0000
0000
0010
1000
0000
0000
0001
0010
0000
0000
,  // measure 105
1000
0100
0000
0000
0020
0000
0030
0000
0011
0000
0000
1001
0000
0000
0101
0000
,  // measure 106
1010
0000
0000
1001
0000
0000
1100
0000
0100
0000
1000
0000
0100
0000
0001
0000
,  // measure 107
0100
0000
0100
0000
1000
0000
0100
0000
1000
0001
0100
0000
0001
0000
1000
0001
,  // measure 108
0100
1000
0001
0010
0100
1000
0001
1000
,  // measure 109
0010
1000
0001
1000
0100
0000
0000
0000
0001
0010
0100
0000
0010
0000
0001
0010
,  // measure 110
0100
0010
0001
1000
0100
0010
0001
1000
,  // measure 111
0010
0100
0001
0100
0001
0000
0010
0000
0001
0010
0000
0000
0010
0100
0000
0000
,  // measure 112
0100
1000
0000
0000
1000
0010
0000
0000
0010
0100
0000
0000
0100
0001
0000
0000
,  // measure 113
0001
0010
0000
0000
0110
0000
0000
0000
1100
0000
0000
0110
0000
0000
1100
0000
,  // measure 114
0011
0000
0000
0110
0000
0000
0101
0000
2020
0000
3030
0000
0202
0000
0303
0000
,  // measure 115
0001
0010
0100
1000
0010
0100
0001
1000
,  // measure 116
1100
1000
1010
1000
1001
0001
0101
0200
,  // measure 117
0300
0000
0001
0010
0100
1000
0010
0100
,  // measure 118
0101
0100
0110
0010
1010
1000
1100
2000
,  // measure 119
3000
0000
1000
0100
0010
0001
0010
0100
,  // measure 120
1100
0100
0101
0001
1001
1000
1010
0020
,  // measure 121
0030
0000
0010
0100
0001
1000
0001
0100
,  // measure 122
0110
0100
0101
0001
1001
1000
1010
2000
,  // measure 123
3001
0010
0100
0000
1000
0000
0100
0000
0010
0100
0010
0000
0100
0000
0010
0000
,  // measure 124
0110
0010
0011
0001
0101
0100
0110
0200
,  // measure 125
0300
0000
0000
0000
1000
0001
0100
0000
0010
0000
0001
0000
1000
0001
0100
0000
,  // measure 126
0101
0001
0011
0010
0110
0100
1100
2000
,  // measure 127
3000
0000
0000
0000
1000
0010
0100
0000
0010
0000
0100
0000
0001
0100
0010
0000
,  // measure 128
1010
0010
0110
0100
0101
0001
1001
2000
,  // measure 129
3000
0000
0000
0000
0001
0010
0100
0000
1000
0000
0001
0000
1000
0010
1000
0000
,  // measure 130
1010
0000
0000
1001
0000
0000
1100
0000
0000
0110
0000
0000
0010
0000
0000
0000
0011
0000
0000
0000
1001
0000
0000
0000
,  // measure 131
2200
0000
0000
3300
0000
0000
1010
0000
1001
0000
0101
0000
,  // measure 132
0022
0000
0000
0033
0000
0000
0101
0000
1001
0000
0101
0000
,  // measure 133
2020
0000
0000
0000
0000
0000
3030
0000
0000
0000
0000
0000
1000
0100
1000
0000
0100
0000
1000
0000
0010
0000
0100
0000
,  // measure 134
0001
0010
0001
0000
0010
0000
0001
0000
1000
0000
0001
0000
1000
0000
0000
0000
1010
0000
0000
0000
1001
0000
0000
0000
,  // measure 135
0202
0000
0000
0303
0000
0000
0011
0000
1001
0000
1100
0000
,  // measure 136
0220
0000
0000
0330
0000
0000
0110
0000
0011
0000
0101
0000
,  // measure 137
2002
0000
0000
0000
0000
0000
3003
0000
0000
0000
0000
0000
0001
0010
0001
0000
0010
0000
0001
0000
0010
0000
0100
0000
,  // measure 138
1000
0000
0100
0000
1000
0000
0000
0000
0100
0000
0000
0000
1000
0000
0000
0000
0010
0000
0000
0000
0100
0000
0000
0000
0010
0000
0000
0100
0000
0000
0010
0000
0000
0100
0000
0000
0010
0000
0000
0100
0000
0000
0010
0000
0000
0100
0000
0000
,  // measure 139
0002
0000
0003
0000
0001
0010
0001
1000
0100
1000
0100
1000
0010
1000
0001
1000
,  // measure 140
0100
0010
1000
0001
0200
0000
0001
0000
,  // measure 141
0010
0301
2000
0100
,  // measure 142
0010
0000
0000
0000
0000
0000
0000
0000
0000
0000
0000
0000
3100
0000
0000
0000
0010
0000
0000
0000
0001
0000
0000
0000
1000
0000
0000
0000
0000
0000
0001
0000
0000
0010
0000
0000
0001
0000
0000
0000
0000
0000
0001
0000
0000
1000
0000
0000
,  // measure 143
0001
0000
0001
0010
0001
0000
0001
1000
0001
0000
0001
0010
0001
0000
0001
1000
,  // measure 144
0001
0000
0000
0000
0000
0000
0001
0000
0000
0010
0000
0000
0001
0000
0000
0000
0000
0000
0010
0000
0000
0000
0000
0000
0001
0000
0000
0000
0010
0000
0000
0000
0100
0000
0000
0000
1000
0000
0000
0000
0001
0000
0000
0000
1000
0000
0000
0000
,  // measure 145
0010
0100
0001
1000
0100
0010
0002
0000
0000
0000
0000
0000
,  // measure 146
0023
0000
0030
0000
,  // measure 147
0000
0000
0000
0000
0010
1000
0001
1000
,  // measure 148
0100
0010
0001
1000
0010
0100
0001
1000
,  // measure 149
0010
0000
1000
0000
0001
0000
0100
0000
0010
0000
0000
0010
1000
0000
0000
1000
,  // measure 150
0001
0000
0000
0001
0010
0000
0000
0010
0001
0000
0000
0001
1000
0000
0000
1000
,  // measure 151
0010
0000
0000
0000
0110
0000
0000
0000
0101
0000
0000
0011
0000
0000
0110
0000
,  // measure 152
1100
0000
0000
1010
0000
0000
1001
0000
0001
0000
0010
0000
0100
0000
1000
0000
,  // measure 153
0010
1000
0010
1000
0001
0000
1000
0000
0100
0010
0100
0000
0010
0000
0100
0010
,  // measure 154
0100
0000
0010
0000
0010
0000
0001
0000
0010
0001
0010
0001
0100
0010
0100
0010
,  // measure 155
1000
0100
0010
0001
0100
0000
0000
0000
0001
0010
0100
0000
1000
0000
0001
0010
,  // measure 156
0100
0000
1000
0000
0010
0000
1000
0000
0001
1000
0001
1000
0100
1000
0100
1000
,  // measure 157
0010
1000
0001
1000
0100
0000
1000
0000
0020
0000
0000
0000
0100
0000
0000
0000
,  // measure 158
0001
0000
1030
0001
0200
0000
0010
0000
,  // measure 159
0001
0000
0000
0000
1300
0000
0000
0000
1000
0000
0010
1000
0000
0010
1000
0000
,  // measure 160
0001
0000
1000
0001
0000
1000
0001
0000
2200
0000
3300
0000
0022
0000
0033
0000
,  // measure 161
0001
0010
0001
0000
0010
0000
0100
0000
0010
0100
0010
0000
0100
0000
1000
0000
,  // measure 162
0010
1000
0001
0000
0010
1000
0001
0000
0100
0001
1000
0000
0100
0001
2000
0000
,  // measure 163
3000
0000
0000
0000
0010
0001
0010
0000
0100
0000
0010
0000
1000
0100
1000
0000
,  // measure 164
0010
0001
0100
0000
0010
0001
0100
0000
1000
0100
0010
0000
1000
0100
0020
0000
,  // measure 165
0030
0000
0000
0000
0001
0100
0010
0000
1000
0000
0001
0100
0010
0000
1000
0000
,  // measure 166
0100
0010
0100
0000
0010
0100
0010
0000
1000
0001
1000
0000
0001
0010
0200
0000
,  // measure 167
0300
0000
0000
0000
1000
0010
1000
0000
0100
0000
0010
0000
0100
0010
0100
0000
,  // measure 168
0010
0001
0010
0000
0001
1000
0001
0000
0100
1000
0100
0000
0010
0100
0020
0000
,  // measure 169
1030
0001
1000
0000
0010
0000
0100
0000
0001
1000
0001
0000
0100
0000
0010
0000
,  // measure 170
1000
0100
1000
0000
0100
0010
0100
0000
0010
0001
0010
0000
0001
1000
0200
0000
,  // measure 171
0300
0000
0000
0000
0010
1000
0010
0000
0100
0000
0001
0000
1000
0100
1000
0000
,  // measure 172
0100
0010
0001
0000
0100
0010
0001
0000
1000
0100
0010
0000
1000
0100
0020
0000
,  // measure 173
0030
0000
0000
0000
0001
0010
0100
0000
1000
0000
0010
0100
0001
0000
1000
0000
,  // measure 174
0100
1000
0100
0000
0010
1000
0100
0000
0010
0001
0010
0000
0100
0001
0020
0000
,  // measure 175
0030
0000
0000
0000
1000
0100
0010
0000
0001
0010
0100
0000
1000
0100
0010
0000
,  // measure 176
0011
1001
1100
0110
0000
0000
0000
0000
,  // measure 177
0000
0000
0000
0000
,  // measure 178
0000
0000
2002
0000
,  // measure 179
0000
0000
0000
0000
,  // measure 180
0000
0000
0000
0000
,  // measure 181
0000
3003
0000
0000
;
