#TITLE:Disturbia;
#SUBTITLE:;
#ARTIST:Rihanna;
#TITLETRANSLIT:;
#SUBTITLETRANSLIT:;
#ARTISTTRANSLIT:;
#GENRE:;
#CREDIT:;
#BANNER:Disturbia.png;
#BACKGROUND:Disturbia-bg.png;
#LYRICSPATH:;
#CDTITLE:;
#MUSIC:Disturbia.ogg;
#OFFSET:0.000000;
#SAMPLESTART:49.200001;
#SAMPLELENGTH:15.000000;
#SELECTABLE:YES;
#BPMS:0.000000=124.000000
,4.000000=124.999992
;
#STOPS:
;
#BGCHANGES:;
#KEYSOUNDS:;
#ATTACKS:;

//---------------dance-single - ----------------
#NOTES:
     dance-single:
     :
     Beginner:
     1:
     0.098270,0.170254,0.009827,0.000000,0.000000,70.000000,69.000000,1.000000,0.000000,0.000000,0.000000,0.098270,0.170254,0.009827,0.000000,0.000000,70.000000,69.000000,1.000000,0.000000,0.000000,0.000000:
0000
0000
0000
0000
,
0000
0000
0000
0000
,
0000
0000
0000
0000
,
0000
0000
0000
0000
,
0000
0000
0000
0000
,
0000
0000
0000
0000
,
0000
0000
0000
0000
,
0000
0000
0000
0000
,
0001
0000
0000
0000
,
1000
0000
0000
0000
,
0001
0000
0001
0000
,
0001
0000
0000
0000
,
1000
0000
1000
0000
,
1000
0000
0000
0000
,
0001
0000
0001
0000
,
0001
0000
0000
0000
,
1000
0000
0000
0000
,
0001
0000
0000
0000
,
1000
0000
0000
0000
,
0010
0000
0010
0000
,
0001
0000
0000
0000
,
0010
0000
0010
0000
,
1000
0000
0000
0000
,
0100
0000
0100
0000
,
0010
0010
0010
0010
,
0010
0000
0000
1001
,
0000
1000
0000
0010
,
0010
0010
0000
0001
,
0000
1000
0000
0010
,
0010
0010
0000
0001
,
0000
1000
0000
0010
,
0010
0010
0000
0000
,
1000
0000
1000
0000
,
0001
0000
0001
0000
,
1000
0000
0000
0000
,
0010
0000
0010
0000
,
0001
0000
0000
0000
,
0010
0000
0010
0000
,
1000
0000
0000
0000
,
0100
0000
0100
0000
,
0001
0000
0000
0000
,
1000
0000
0000
0000
,
0100
0000
0000
0000
,
0010
0000
0010
0000
,
0100
0000
0000
0000
,
0010
0000
0010
0000
,
0100
0000
0000
0000
,
0010
0000
0010
0000
,
0100
0000
0000
0000
,
0010
0000
0010
0000
;

//---------------dance-single - ----------------
#NOTES:
     dance-single:
     :
     Easy:
     3:
     0.140386,0.222767,0.039308,0.078616,0.000000,100.000000,96.000000,4.000000,8.000000,0.000000,0.000000,0.140386,0.222767,0.039308,0.078616,0.000000,100.000000,96.000000,4.000000,8.000000,0.000000,0.000000:
// measure 0
0000
0000
0000
0000
,  // measure 1
0000
0000
0000
0000
,  // measure 2
0000
0000
0000
0000
,  // measure 3
0000
0000
0000
0000
,  // measure 4
0000
0000
0000
0000
,  // measure 5
0000
0000
0000
0000
,  // measure 6
0000
0000
0000
0000
,  // measure 7
0000
0000
0000
0000
,  // measure 8
1000
0000
0001
0000
,  // measure 9
1000
0000
0001
0000
,  // measure 10
1000
0000
1000
0010
,  // measure 11
1000
0000
0010
0000
,  // measure 12
0001
0000
0001
0100
,  // measure 13
0001
0000
0100
0000
,  // measure 14
1000
0000
1000
0100
,  // measure 15
1000
0000
0100
0000
,  // measure 16
0002
0000
0003
0000
,  // measure 17
2000
0000
3000
0000
,  // measure 18
0001
0100
0001
0000
,  // measure 19
0001
1000
1001
0000
,  // measure 20
1000
0100
1000
0000
,  // measure 21
1000
0001
1001
0000
,  // measure 22
1000
0010
1000
0000
,  // measure 23
1000
0001
1001
0000
,  // measure 24
0100
0100
0010
0010
,  // measure 25
0001
0000
1000
1001
,  // measure 26
0002
0000
0003
0000
,  // measure 27
0100
0100
0100
0000
,  // measure 28
2000
0000
3000
0000
,  // measure 29
0100
0100
0100
0000
,  // measure 30
0002
0000
0003
0000
,  // measure 31
0100
0100
0100
0000
,  // measure 32
0001
0000
1000
0000
,  // measure 33
0001
0000
1000
0000
,  // measure 34
0001
0000
1000
0000
,  // measure 35
0010
0000
0010
0000
,  // measure 36
1000
0000
0001
0000
,  // measure 37
0010
0000
0010
0000
,  // measure 38
0001
0000
1000
0000
,  // measure 39
0100
0000
0100
0000
,  // measure 40
2000
0000
0000
3000
,  // measure 41
0002
0000
0000
0003
,  // measure 42
0100
0000
0100
0000
,  // measure 43
0010
1000
0010
0000
,  // measure 44
0100
0000
0100
0000
,  // measure 45
0010
0001
0010
0000
,  // measure 46
0100
0000
0100
0000
,  // measure 47
0010
1000
0010
0000
,  // measure 48
0100
0000
0100
0000
,  // measure 49
0010
0001
0020
0000
,  // measure 50
0000
0000
0000
0030
0000
0000
0000
0000
;

//---------------dance-single - ----------------
#NOTES:
     dance-single:
     :
     Medium:
     5:
     0.197945,0.247519,0.039308,0.068789,0.000000,141.000000,137.000000,4.000000,7.000000,0.000000,0.000000,0.197945,0.247519,0.039308,0.068789,0.000000,141.000000,137.000000,4.000000,7.000000,0.000000,0.000000:
0000
0000
0000
0000
,
0000
0000
0000
0000
,
0000
0000
0000
0000
,
0000
0000
0000
0000
,
0000
0000
0000
0000
,
0000
0000
0000
0000
,
0000
0000
0000
0000
,
0000
0000
0000
0000
,
0001
0000
1000
0000
,
0001
0001
1000
1000
,
0001
1000
0001
0010
,
0001
0000
0010
0000
,
1000
0001
1000
0100
,
1000
0000
0010
0000
,
0001
1000
0001
0010
,
0001
0000
0010
0000
,
2000
0000
3002
0000
,
2003
0000
3002
0000
,
1003
0100
1000
0000
,
1000
0100
0010
0000
0011
0000
0000
0000
,
0001
0100
0001
0000
,
0001
0100
0010
0000
1010
0000
0000
0000
,
0001
0010
0001
0000
,
0001
0010
0100
0000
1010
0000
0000
0000
,
1000
0100
0010
0010
,
1000
0001
1000
1001
,
1000
0000
0000
0100
0010
0000
0000
0001
,
0100
0000
0100
0000
0100
0000
1000
0001
,
1000
0000
0000
0010
0100
0000
0000
0001
,
0010
0000
0000
0100
0010
0000
1000
0001
,
1000
0000
0000
0100
0010
0000
0000
0001
,
0100
0000
0000
0010
0100
0000
1000
0001
,
1000
0000
0001
0000
,
1000
0100
0010
0001
1000
0000
0000
0000
,
1000
1000
0001
0001
,
0010
0000
0000
0000
0010
1000
0001
0000
,
0001
0001
1000
1000
,
0010
0000
0000
0000
0010
0001
1000
0000
,
1000
1000
0001
0001
,
0100
0000
0000
0000
0100
1000
0001
0000
,
0002
0000
0000
0003
,
2000
0000
0000
3000
,
0100
0000
0100
0000
,
0010
0001
0010
0000
,
0100
0000
0100
0000
,
0010
1000
0010
0000
,
0100
0000
0100
0000
,
0010
0001
0010
0000
,
0100
0000
0100
0000
,
0010
1000
0020
0000
,
0000
0000
0000
0030
0000
0000
0000
0000
;

//---------------dance-single - ----------------
#NOTES:
     dance-single:
     :
     Hard:
     7:
     0.273753,0.346526,0.068789,0.068789,0.000000,195.000000,188.000000,7.000000,7.000000,0.000000,0.000000,0.273753,0.346526,0.068789,0.068789,0.000000,195.000000,188.000000,7.000000,7.000000,0.000000,0.000000:
0000
0000
0000
0000
,
0000
0000
0000
0000
,
0000
0000
0000
0000
,
0000
0000
0000
0000
,
0000
0000
0000
0000
,
0000
0000
0000
0000
,
0000
0000
0000
0000
,
0000
0000
0000
0000
,
0001
0000
1000
0000
,
0001
0000
1000
0000
0001
0010
0100
0000
,
1000
0100
0001
0010
,
1000
1000
0100
0100
,
0001
0100
1000
0010
,
0001
0001
0100
0100
,
1000
0100
0001
0010
,
1000
1000
0100
0100
,
0002
0000
0203
0000
,
0302
0000
2003
0000
,
3001
0010
0001
1000
,
0001
0000
0001
0010
0100
0000
1100
0000
,
1000
0100
0001
0100
,
0010
0000
0010
0000
0010
0100
0110
0000
,
1000
0010
1000
0001
,
1000
0000
1000
0010
0100
0000
0101
0000
,
0001
0011
1100
0110
,
0001
1000
0100
1001
,
0001
0000
0001
0010
0100
0000
0100
1000
,
0010
0000
0010
0100
0010
1000
0001
1000
,
0001
0000
0001
0100
0010
0000
0010
1000
,
0100
0000
0100
0010
0100
1000
0001
1000
,
0001
0000
0001
0010
0100
0000
0100
1000
,
0010
0000
0010
0100
0010
1000
0001
1000
,
0001
0001
1000
1000
,
0001
0010
0001
0100
0010
1000
0100
1000
,
0001
0001
1000
1000
,
0100
0000
0100
0010
0100
0001
1000
0001
,
1000
1000
0001
0001
,
0100
0000
0100
0010
0100
1000
0001
1000
,
0001
0001
1000
1000
,
0010
0000
0010
0100
0010
0001
1000
0001
,
2000
0000
0100
3100
,
0200
0000
0010
0310
,
0010
0001
0010
0000
,
0100
1000
0100
0001
,
0010
1000
0010
0000
,
0100
0001
0100
1000
,
0010
0001
0010
0000
,
0100
1000
0100
0001
,
0010
1000
0010
0000
,
0100
0001
0100
2000
,
0000
0000
0000
3000
0000
0000
0000
0000
;

//---------------dance-single - ----------------
#NOTES:
     dance-single:
     :
     Challenge:
     3:
     0.136175,0.220003,0.039308,0.068789,0.000000,97.000000,93.000000,4.000000,7.000000,72.000000,0.000000,0.136175,0.220003,0.039308,0.068789,0.000000,97.000000,93.000000,4.000000,7.000000,72.000000,0.000000:
0000
0000
0000
0000
,
0000
0000
0000
0000
,
0000
0000
0000
0000
,
0000
0000
0000
0000
,
0000
0000
0000
0000
,
0000
0000
0000
0000
,
0000
0000
0000
0000
,
0000
0000
0000
0000
,
1000
0000
0001
0000
,
1000
0000
0001
0000
,
1000
0000
1000
MMMM
,
1000
0000
0010
0000
,
0001
0000
0001
MMMM
,
0001
0000
0100
0000
,
1000
0000
1000
MMMM
,
1000
0000
0100
0000
,
0002
0000
0003
MMMM
,
2000
0000
3000
MMMM
,
0001
0100
0001
0000
,
0001
1000
1001
MMMM
,
1000
0100
1000
0000
,
1000
0001
1001
MMMM
,
1000
0010
1000
0000
,
1000
0001
1001
MMMM
,
0100
0100
0010
0010
,
0001
0000
1000
1001
,
0002
0000
0003
0000
,
0100
0100
0100
MMMM
,
2000
0000
3000
0000
,
0100
0100
0100
MMMM
,
0002
0000
0003
0000
,
0100
0100
0100
MMMM
,
0001
0000
1000
0000
,
0001
0000
1000
0000
,
0001
0000
1000
0000
,
0010
0000
0010
MMMM
,
1000
0000
0001
0000
,
0010
0000
0010
MMMM
,
0001
0000
1000
0000
,
0100
0000
0100
MMMM
,
2000
0000
0000
3000
,
0002
0000
0000
0003
,
0100
0000
0100
0000
,
0010
1000
0010
MMMM
,
0100
0000
0100
0000
,
0010
0001
0010
MMMM
,
0100
0000
0100
0000
,
0010
1000
0010
MMMM
,
0100
0000
0100
0000
,
0010
0001
0010
MMMM
;

//---------------dance-double - ----------------
#NOTES:
     dance-double:
     :
     Easy:
     4:
     0.158637,0.218897,0.009827,0.058962,0.000000,113.000000,112.000000,1.000000,6.000000,0.000000,0.000000,0.158637,0.218897,0.009827,0.058962,0.000000,113.000000,112.000000,1.000000,6.000000,0.000000,0.000000:
00000000
00000000
00000000
00000000
,
00000000
00000000
00000000
00000000
,
00000000
00000000
00000000
00000000
,
00000000
00000000
00000000
00000000
,
00000000
00000000
00000000
00000000
,
00000000
00000000
00000000
00000000
,
00000000
00000000
00000000
00000000
,
00000000
00000000
00000000
00000000
,
00010000
00000000
00000000
00000000
,
00010000
00000000
01000000
00000000
,
10000000
10000000
01000000
00000000
,
00010000
00000000
00001000
00000000
,
00000001
00000001
00000100
00000000
,
00001000
00000000
00010000
00000000
,
10000000
10000000
01000000
00000000
,
00010000
00000000
00001000
00000000
,
00020000
00000000
00032000
00000000
,
00023000
00000000
00032000
00000000
,
01003000
01000000
00010000
00000000
,
00100000
00010000
00001000
00000000
,
00000010
00000010
00001000
00000000
,
00000010
00001000
00010000
00000000
,
01000000
01000000
00010000
00000000
,
00100000
00010000
00001000
00000000
,
00000001
00000001
00001000
00001000
,
01000000
00000000
10010000
00000000
,
00010000
01000000
00010000
00000000
,
00100000
00100000
00001000
00000010
,
00000001
00000010
00000001
00000000
,
00000100
00000100
00010000
01000000
,
00010000
01000000
00010000
00000000
,
00100000
00100000
00001000
00000010
,
00000001
00000000
00001000
00000000
,
00010000
01000000
00100000
10000000
,
01000000
01000000
00100000
00100000
,
00010000
00000000
00001000
00001000
,
00000010
00000010
00000100
00000100
,
00001000
00000000
00010000
00010000
,
01000000
01000000
00100000
00100000
,
00010000
00000000
00001000
00010000
,
20000000
00000000
00000000
30000000
,
00020000
00000000
00000000
00030000
,
01000000
00000000
00010000
00000000
,
00001000
00000000
00000001
00000000
,
00000010
00000000
00001000
00000000
,
00010000
00000000
10000000
00000000
,
01000000
00000000
00010000
00000000
,
00001000
00000000
00000001
00000000
,
00000010
00000000
00001000
00000000
,
00010000
00000000
10000000
00000000
;

//---------------dance-double - ----------------
#NOTES:
     dance-double:
     :
     Medium:
     5:
     0.197945,0.243219,0.039308,0.058962,0.000000,141.000000,137.000000,4.000000,6.000000,0.000000,0.000000,0.197945,0.243219,0.039308,0.058962,0.000000,141.000000,137.000000,4.000000,6.000000,0.000000,0.000000:
00000000
00000000
00000000
00000000
,
00000000
00000000
00000000
00000000
,
00000000
00000000
00000000
00000000
,
00000000
00000000
00000000
00000000
,
00000000
00000000
00000000
00000000
,
00000000
00000000
00000000
00000000
,
00000000
00000000
00000000
00000000
,
00000000
00000000
00000000
00000000
,
00010000
00000000
00001000
00000000
,
00010000
00010000
01000000
01000000
,
10000000
01000000
00100000
00100000
,
00010000
00000000
00001000
00000000
,
00000001
00000100
00000010
00000010
,
00001000
00000000
00010000
00000000
,
10000000
00100000
01000000
01000000
,
00010000
00000000
00001000
00000000
,
00020000
00000000
00032000
00000000
,
02003000
00000000
03200000
00000000
,
10300000
01000000
00010000
00000000
,
00001000
00010000
00001000
00000000
00001100
00000000
00000000
00000000
,
00000010
00000100
00001000
00000000
,
00000010
00010000
00001000
00000000
00110000
00000000
00000000
00000000
,
10000000
01000000
00010000
00000000
,
00001000
00010000
00001000
00000000
00001100
00000000
00000000
00000000
,
00000001
00000100
00001000
00001000
,
00010000
01000000
10000000
10010000
,
00010000
01000000
00001000
00010000
,
00001000
00000000
00001000
00000000
00000010
00000000
00000100
00000010
,
00001000
00000100
00010000
00001000
,
00010000
00000000
00010000
00000000
00100000
00000000
01000000
00100000
,
00010000
01000000
00001000
00010000
,
00001000
00000000
00001000
00000000
00000010
00000000
00000100
00000010
,
00000100
00000000
00010000
00000000
,
00001000
00010000
00001000
00010000
00001000
00000000
00000000
00000000
,
00010000
00010000
01000000
01000000
,
00010000
00000000
00000000
00000000
00001000
00010000
00001000
00000000
,
00001000
00001000
00000100
00000100
,
00001000
00000000
00000000
00000000
00010000
00001000
00010000
00000000
,
00010000
00010000
01000000
01000000
,
00010000
00000000
00000000
00000000
00001000
00010000
01000000
00000000
,
20000000
00000000
00000000
30000000
,
00020000
00000000
00000000
00030000
,
01000000
00000000
00010000
00000000
,
00001000
00000010
00000001
00000000
,
00000010
00000000
00001000
00000000
,
00010000
01000000
10000000
00000000
,
01000000
00000000
00010000
00000000
,
00001000
00000010
00000001
00000000
,
00000010
00000000
00001000
00000000
,
00010000
01000000
10000000
00000000
;

//---------------dance-double - ----------------
#NOTES:
     dance-double:
     :
     Hard:
     7:
     0.259715,0.342227,0.058962,0.058962,0.000000,185.000000,179.000000,6.000000,6.000000,0.000000,0.000000,0.259715,0.342227,0.058962,0.058962,0.000000,185.000000,179.000000,6.000000,6.000000,0.000000,0.000000:
00000000
00000000
00000000
00000000
,
00000000
00000000
00000000
00000000
,
00000000
00000000
00000000
00000000
,
00000000
00000000
00000000
00000000
,
00000000
00000000
00000000
00000000
,
00000000
00000000
00000000
00000000
,
00000000
00000000
00000000
00000000
,
00000000
00000000
00000000
00000000
,
00010000
00000000
00001000
00000000
,
00010000
00000000
00001000
00000000
00010000
01000000
10000000
00000000
,
00010000
01000000
00001000
00010000
,
00000100
00001000
00000001
00000100
,
00001000
00000100
00010000
00001000
,
01000000
00010000
10000000
01000000
,
00010000
01000000
00001000
00010000
,
00000100
00000100
00010000
00010000
,
00002000
00000000
00203000
00000000
,
00320000
00000000
02030000
00000000
,
13000000
01000000
00010000
00001000
,
00000100
00000000
00000010
00000001
00000100
00000000
00011000
00000000
,
00010000
01000000
00100000
00010000
,
00001000
00000000
00000100
00000000
00001000
00000010
00000100
00000000
,
00000001
00000100
00001000
00010000
,
01000000
00000000
00100000
10000000
01000000
00000000
00011000
00000000
,
00100000
01100000
00110000
00011000
,
00001000
00000100
00000001
00001001
,
00000001
00000100
00001000
01000000
,
00100000
00000000
01000000
00010000
00100000
00000000
00010000
00001000
,
00000001
00000100
00001000
01000000
,
00100000
00000000
01000000
00010000
00100000
00000000
00010000
00001000
,
00000001
00000100
00001000
01000000
,
00100000
00000000
01000000
00010000
00100000
00000000
00010000
00001000
,
00000001
00000001
00000100
00000100
,
00001000
00010000
01000000
10000000
00100000
01000000
00010000
00000010
,
00000001
00000001
00001000
00001000
,
00000100
00000000
00000100
00010000
00001000
00010000
00001000
01000000
,
00010000
00010000
10000000
10000000
,
01000000
00000000
01000000
00001000
00010000
00001000
00010000
00000100
,
00001000
00001000
00000001
00000001
,
00000100
00000000
00000100
00010000
00001000
00010000
00001000
01000000
,
00020000
00000000
01000000
01030000
,
00002000
00000000
00010000
00013000
,
00000100
00001000
00000100
00000000
,
00010000
01000000
10000000
00010000
,
01000000
00010000
01000000
00000000
,
00001000
00000100
00000001
00001000
,
00000100
00001000
00000100
00000000
,
00010000
01000000
10000000
00010000
,
01000000
00010000
01000000
00000000
,
01000000
00010000
01000000
01000000
;

//---------------dance-double - ----------------
#NOTES:
     dance-double:
     :
     Challenge:
     4:
     0.150213,0.195558,0.009827,0.058962,0.000000,107.000000,106.000000,1.000000,6.000000,136.000000,0.000000,0.150213,0.195558,0.009827,0.058962,0.000000,107.000000,106.000000,1.000000,6.000000,136.000000,0.000000:
00000000
00000000
00000000
00000000
,
00000000
00000000
00000000
00000000
,
00000000
00000000
00000000
00000000
,
00000000
00000000
00000000
00000000
,
00000000
00000000
00000000
00000000
,
00000000
00000000
00000000
00000000
,
00000000
00000000
00000000
00000000
,
00000000
00000000
00000000
00000000
,
00010000
00000000
00000000
00000000
,
00010000
00000000
01000000
00000000
,
10000000
10000000
01000000
00000000
,
00010000
00000000
00001000
MMMMMMMM
,
00000001
00000001
00000100
00000000
,
00001000
00000000
00010000
MMMMMMMM
,
10000000
10000000
01000000
00000000
,
00010000
00000000
00001000
MMMMMMMM
,
00020000
00000000
00032000
00000000
,
00023000
00000000
00032000
00000000
,
01003000
01000000
00010000
MMMMMMMM
,
00100000
00010000
00001000
00000000
,
00000010
00000010
00001000
MMMMMMMM
,
00000010
00001000
00010000
00000000
,
01000000
01000000
00010000
MMMMMMMM
,
00100000
00010000
00001000
00000000
,
00000001
00000001
00001000
00001000
,
01000000
00000000
10010000
MMMMMMMM
,
00010000
01000000
00010000
00000000
,
00100000
00100000
00001000
MMMMMMMM
,
00000001
00000010
00000001
00000000
,
00000100
00000100
00010000
MMMMMMMM
,
00010000
01000000
00010000
00000000
,
00100000
00100000
00001000
MMMMMMMM
,
00000001
00000000
00001000
00000000
,
00010000
01000000
00100000
10000000
,
01000000
01000000
00100000
MMMMMMMM
,
00010000
00000000
00001000
00001000
,
00000010
00000010
00000100
MMMMMMMM
,
00001000
00000000
00010000
00010000
,
01000000
01000000
00100000
MMMMMMMM
,
00010000
00000000
00001000
00010000
,
20000000
00000000
00000000
30000000
,
00020000
00000000
00000000
00030000
,
01000000
00000000
00010000
00000000
,
00001000
00000000
00000001
MMMMMMMM
,
00000010
00000000
00001000
00000000
,
00010000
00000000
10000000
MMMMMMMM
,
01000000
00000000
00010000
00000000
,
00001000
00000000
00000001
MMMMMMMM
,
00000010
00000000
00001000
00000000
,
00010000
00000000
10000000
MMMMMMMM
;

//---------------dance-single - Edit----------------
#NOTES:
     dance-single:
     :
     Edit:
     14:
     0.654200,0.820865,0.275157,0.678066,0.643671,466.000000,438.000000,28.000000,69.000000,0.000000,0.000000,0.654200,0.820865,0.275157,0.678066,0.643671,466.000000,438.000000,28.000000,69.000000,0.000000,0.000000:
0000
0000
0000
0000
,
0000
0000
0000
0000
,
0000
0000
0000
0000
,
0000
0000
0000
0000
,
0000
0000
0000
0000
,
0000
0000
0000
0000
,
0000
0000
0000
0000
,
0000
0000
0000
0000
,
1000
0001
0100
0001
1000
0100
0010
0100
,
1000
0001
0010
0100
1000
0000
1100
0000
,
1020
0000
0100
0000
0130
0000
0021
0000
0100
0000
0130
0000
1000
0010
0100
0000
,
0102
0000
0010
0000
0013
0000
0012
0000
0100
0000
0103
0000
0001
0010
0100
0000
,
1200
0000
0010
0000
0310
0000
0210
0000
0001
0000
0301
0000
1000
0100
0010
0000
,
2010
0000
0100
0000
3100
0000
2100
0000
0010
0000
3010
0000
1000
0010
0100
0000
,
0110
0000
0001
1000
0100
0000
0110
0000
1010
0000
0010
0100
0001
0000
1001
0000
,
0101
0000
0100
0010
1000
0000
0010
0100
0001
1000
0100
0000
0100
0010
0001
0010
,
1000
0100
0010
0001
1000
0010
0100
0001
,
2000
0000
0001
0000
0001
0000
0001
0000
0010
0000
0010
0000
3010
0001
0100
0001
,
1000
0000
0000
0100
2000
0000
0001
0000
0000
0000
3000
0100
0020
0000
1000
0000
,
0000
0000
0030
0001
0200
0000
0010
0000
1300
0010
0100
0000
0010
0100
0001
1000
,
0100
0000
0000
0100
0020
0000
0001
0000
0000
0000
0030
0100
0002
0000
1000
0000
,
0000
0000
0003
0010
2000
0000
0010
0000
3100
0010
1000
0000
0010
0100
0001
1000
,
0100
0000
0000
0100
2000
0000
0010
0000
0000
0000
3000
0100
0020
0000
0001
0000
,
0000
0000
0030
0001
0200
0000
0010
0000
0301
0010
0100
0000
0010
0100
1000
0100
,
0002
0000
0103
0000
0020
0000
1030
0000
0200
0000
1300
0000
0010
0100
0001
1000
,
0200
0000
0301
0000
2000
0000
3001
0000
0020
0000
0031
0010
1000
0100
0010
0001
,
0010
0000
0011
0000
0001
0000
0101
0000
0100
0000
0010
1000
0001
0100
0010
1000
,
0200
0000
2300
0000
3020
0000
0230
0000
0302
0000
1003
0001
0010
0100
1000
0010
,
0100
0000
0101
0000
0001
0000
0011
0000
0010
0000
1000
0010
0100
0001
0010
1000
,
0200
0000
0302
0000
0023
0000
0230
0000
0320
0000
1030
0100
0010
0001
0010
0100
,
1000
0000
1100
0000
1000
0000
1010
0000
0010
0000
1000
0010
0001
0100
0010
0001
,
2000
0000
3020
0000
0230
0000
0320
0000
2030
0000
3100
0010
1000
0100
0010
0001
,
2000
0000
3001
0000
0001
0010
0100
1000
0020
0000
0130
0000
1000
0100
0010
0001
,
0200
0000
0310
0000
1000
0100
0010
0100
0002
0000
0013
0000
0100
0010
1000
0001
,
0010
0000
0011
0000
0101
0000
0110
0000
1010
0000
0010
1000
0100
0010
0001
1000
,
0010
0000
0100
0000
0000
0000
0010
0000
0100
0000
0000
0000
0010
0000
0100
0000
0000
0000
0010
0000
0100
0000
0000
0000
0010
0000
0100
0000
0000
0000
0010
0000
0000
0100
0000
0000
0001
0000
0000
1000
0000
0000
0100
0000
0000
0010
0000
0000
,
0002
0000
0023
0000
0230
0000
2300
0000
3200
0000
0310
1000
0100
0010
0001
1000
,
0001
0000
1000
0000
0000
0000
0001
0000
1000
0000
0000
0000
0001
0000
1000
0000
0000
0000
0001
0000
1000
0000
0000
0000
0001
0000
1000
0000
0000
0000
0001
0000
0000
0010
0000
0000
0100
0000
0000
1000
0000
0000
0100
0000
0000
0010
0000
0000
,
1000
0000
1010
0000
0011
0000
0101
0000
0110
0000
1000
0010
0100
0001
1000
0100
,
0001
0010
0001
0100
0010
1000
0100
0010
0001
0000
1000
0100
0010
0001
1000
0010
,
0200
0010
0320
0001
0032
0100
0203
0010
,
0320
2030
3200
0302
,
1003
0001
0000
0000
0100
0001
0000
0000
0010
0001
1000
0100
0010
0001
1000
0010
,
0200
0000
0302
0000
0023
1000
2030
0010
,
3010
0001
0000
0000
1000
0100
0000
0000
0010
1000
0001
0100
0010
1000
0100
0010
,
0002
0000
0023
0000
0230
1000
2300
0100
,
3100
1000
0000
0000
0010
0100
0000
0000
0001
0010
0100
1000
0100
0010
0001
1000
,
0020
0000
0230
0000
0302
1000
2003
0001
,
3001
0010
0100
1000
0010
0100
0001
1000
0100
0010
0001
0100
0010
1000
0001
0010
,
0100
1000
0010
0100
0001
0010
0001
0100
0010
1000
0100
0010
0001
1000
0100
0010
,
0100
0010
0100
0010
0001
1000
0200
0000
0000
0000
0300
0000
0000
0000
0000
0000
;
