#TITLE:Daughter of the Dark God;
#SUBTITLE:;
#ARTIST:西木 康智;
#TITLETRANSLIT:;
#SUBTITLETRANSLIT:;
#ARTISTTRANSLIT:;
#GENRE:;
#CREDIT:;
#BANNER:Daughter of the Dark God.png;
#BACKGROUND:Daughter of the Dark God-bg.png;
#LYRICSPATH:;
#CDTITLE:;
#MUSIC:Daughter of the Dark God.ogg;
#OFFSET:-0.026009;
#SAMPLESTART:6.900000;
#SAMPLELENGTH:12.000000;
#SELECTABLE:YES;
#BPMS:0.000000=174.000000
,20.000000=348.000000
,84.000000=87.000000
,88.000000=174.000000
,152.000000=348.000000
,264.000000=174.000000
,280.000000=348.000000
,288.000000=174.000000
,292.000000=348.000000
,300.000000=174.000000
,304.000000=87.000000
,312.000000=174.000000
,314.000000=348.000000
,318.000000=174.000000
,320.000000=348.000000
,324.000000=174.000000
,326.000000=348.000000
,330.000000=174.000000
,334.000000=348.000000
,338.000000=174.000000
,340.000000=348.000000
,344.000000=174.000000
,346.000000=348.000000
,410.000000=174.000000
,426.000000=87.000000
,430.000000=174.000000
,434.000000=348.000000
,634.000000=174.000000
;
#STOPS:
;
#BGCHANGES:;
#KEYSOUNDS:;
#ATTACKS:;

//---------------dance-single - ----------------
#NOTES:
     dance-single:
     :
     Challenge:
     19:
     1.008686,2.074236,0.342627,0.470272,0.480349,1051.000000,1000.000000,51.000000,70.000000,0.000000,0.000000,1.008686,2.074236,0.342627,0.470272,0.480349,1051.000000,1000.000000,51.000000,70.000000,0.000000,0.000000:
0000
0000
0000
0000
,
0000
0000
0000
0000
,
0000
0000
0000
0000
,
0000
0000
0000
0000
,
0110
0000
0000
0000
0110
0000
0000
0000
0100
0000
0001
0000
1000
0001
0100
0010
,
1000
0000
0001
0000
0010
0100
1000
0000
,
0100
0000
1000
0001
0010
0000
0002
0000
,
0000
1000
1000
1000
,
1000
0000
1003
0000
0001
1000
0100
0000
,
1000
0000
0010
0100
0001
0000
0001
0000
,
1000
0100
0010
0000
0100
0000
2000
0000
,
0000
0100
0100
0100
,
0100
0000
3100
0000
1000
0001
0100
0000
,
0001
0000
0001
0010
0100
0000
1000
0000
,
0100
1000
0001
0000
1000
0000
0020
0000
,
0000
0100
0100
0100
,
0100
0000
0130
0000
0010
0100
0001
0000
,
0010
0000
0100
0000
0010
0100
1000
0000
,
0100
0000
1000
0100
0010
0000
0110
0000
,
0000
0000
0010
0100
0001
0000
1001
0000
,
1100
0000
0110
0000
,
0010
0000
0001
0000
0100
0000
0001
0000
1000
0000
0001
0000
0010
0000
0001
0000
0100
0000
0010
0000
1000
0000
0001
0000
0100
0000
0010
1000
0010
0100
0001
0000
,
0010
0001
0100
0001
1000
0001
0100
0001
0010
0100
1000
0100
0010
0001
0100
0010
,
0100
0001
1000
0001
0010
0100
1000
0100
0001
1000
0001
1000
0100
1000
0100
1000
,
0020
0230
0302
2003
,
3001
0000
1000
0000
0100
0000
0010
0000
0100
1000
0100
1000
0010
0100
0010
0100
,
0001
0010
0001
0010
0001
0010
0001
0010
0100
1000
0100
1000
0100
1000
0100
1000
,
0002
0000
1003
0002
0000
0103
0010
0000
,
1010
1000
0001
0010
0100
0001
1000
0001
,
0100
0000
0010
0000
1000
0000
0100
0000
0010
0000
0001
0010
1000
0000
0000
0000
,
1000
0010
1000
0010
1000
0010
1000
0010
0100
0001
0100
0001
0100
0001
0100
0001
,
2000
0000
3001
0000
0011
0011
0110
0110
,
2100
0000
0100
0000
3100
0000
1000
0001
0020
0000
0100
0000
0130
0000
0001
0010
,
0002
0000
0100
0000
1003
0000
0001
1000
0200
0000
1000
0000
0310
0000
0100
1000
,
0001
1000
0001
0100
0001
0010
0001
0000
0011
0000
0001
0010
0000
0100
0010
0000
,
0001
0010
0100
1000
0001
0000
1000
0001
0100
0010
1000
0000
1001
0000
0000
0000
,
0110
0000
0101
1010
1001
0011
1100
0000
,
1100
0000
0010
0000
0110
0000
0010
0000
0011
0000
1001
0000
0001
1000
0100
0010
,
0001
0010
0001
0010
0001
0010
0001
0010
,
0001
0100
0001
0100
0001
0100
0001
0100
,
0010
1000
0010
1000
0010
1000
0010
1000
,
0010
1000
0100
1000
0100
1000
0100
1000
,
0200
2300
3002
0203
,
0320
0000
0130
0000
0110
0000
0100
0010
,
0100
0000
0001
0000
1000
0000
0100
0010
,
0100
1000
0100
1000
0100
1000
0100
1000
,
0010
0100
0010
0100
0010
0100
0010
0100
,
0010
1000
0010
1000
0010
1000
0010
1000
,
0001
0010
0001
0010
0001
0000
0100
1000
,
0100
1000
0100
1000
0100
1000
0001
0000
,
1000
0001
1000
0001
1000
0001
1000
0001
,
1000
0001
1000
0001
1000
0001
1000
0001
,
0100
0010
0100
0010
0100
0010
0100
0010
,
0100
0010
0200
0000
0010
0000
0300
0000
,
0001
1000
0100
1000
0010
0100
0001
0010
,
0001
0100
0010
1000
0001
0100
0010
1000
,
0002
0000
0100
0000
0103
0000
0001
0100
,
0020
0000
1000
0000
1030
0001
0010
0000
,
2000
0000
0010
0000
3010
0001
0100
0000
,
0200
0000
0010
0000
0310
1000
0001
0000
,
0002
0000
0010
0000
0013
0100
1000
0000
,
2000
0000
0100
0000
3100
0001
1000
0000
,
1000
0001
0010
0000
0010
0001
1000
0000
,
1000
0010
0100
0000
0010
0100
0001
0000
,
0001
1000
0100
1000
0010
0100
0010
0100
,
0001
1000
0100
0010
0100
1000
0001
1000
,
0010
0011
1001
1010
,
0101
0000
0000
0000
1010
0000
0000
0000
0011
0000
0010
0100
1000
0010
0100
0001
,
0010
1100
0101
1010
,
0011
0000
0000
0000
1010
0000
0000
0000
0011
0000
0000
0000
0010
1000
0001
0100
,
0010
0100
0010
0100
0001
1000
0001
1000
,
0001
0010
0100
1000
0001
1000
0100
0010
,
0001
0010
0001
0010
0100
1000
0100
1000
0010
0100
0001
1000
0001
0010
0100
1000
,
0001
0010
0001
0100
0010
0100
0001
0010
,
0001
1000
0010
1000
0100
1000
0001
0100
,
0010
0100
0010
0100
0010
0100
0010
0100
0001
1000
0001
1000
0001
1000
0001
1000
,
0200
0000
1000
0000
1000
0000
1300
0000
0020
0000
0100
0000
0100
0000
0130
0000
0002
0000
0010
0000
0010
0000
0010
0000
0013
0000
0001
0010
0100
0000
1000
0000
,
0200
0000
1000
0000
1000
0000
1300
0000
0020
0000
0100
0000
0100
0000
0130
0000
2000
0000
0010
0000
0010
0000
3010
0000
1000
0100
1000
0100
0010
0001
0010
0001
,
0100
0010
0100
0010
0100
0010
0100
0010
0100
0000
0000
0000
1000
0000
0000
0000
,
0010
0000
0000
0000
0100
0000
0000
0000
0001
0010
0001
0010
0001
0010
0001
0010
,
0001
0010
0100
1000
,
0010
0100
0010
0100
0010
0100
0010
0100
0010
0000
0000
0000
0100
0000
0000
0000
,
0001
0000
0000
0000
1000
0000
0000
0000
0100
1000
0100
1000
0010
0000
0100
0000
,
0001
0010
0001
0010
0001
0000
1000
0000
0001
0000
0100
0000
0010
0000
1000
0000
,
0100
0000
0010
0000
0100
0000
1000
0000
0010
1000
0001
0100
0001
0010
0100
1000
,
0001
1000
0100
0001
0100
1000
0010
0100
,
0001
0010
0100
1000
0001
1000
0100
0010
0002
0000
0000
0000
0000
0000
0000
0000
,
0000
0000
0023
0000
,
0000
0000
0230
0000
,
0000
1000
2300
0000
,
0000
0000
3020
0000
,
0000
0000
0230
0000
,
0000
0000
0302
0000
,
0000
0000
1003
0000
,
1001
0000
2000
0000
,
0000
0000
3200
0000
,
0000
0000
0320
0000
,
0000
0001
0032
0000
,
0000
0000
0203
0000
,
0000
0000
0320
0000
,
0000
0000
2030
0000
,
0100
0000
3002
0000
,
0010
0000
0000
0000
0103
0000
0001
1000
,
0100
1000
0010
0100
0001
0010
0001
1000
,
0010
0100
0001
0100
0010
1000
0100
1000
,
0001
0000
0010
0000
0100
0000
1000
0000
0001
0000
1000
0001
0010
0000
0010
0100
,
1000
0000
0000
0000
1000
0000
0100
0000
0010
0000
0000
0000
0010
0000
0001
0000
1000
0000
0001
0000
0100
0000
0010
0000
0100
0000
0010
0100
0000
0010
0100
0000
,
0010
0010
0000
0000
1000
0000
0000
0000
0220
0000
0000
0000
0000
0000
0000
0000
,
0000
0000
0330
1000
0001
1000
0001
1000
,
0001
1000
0001
1000
0001
1000
0001
1000
,
0001
1000
0001
1000
0001
0010
0100
1000
,
0001
0100
0010
1000
0001
0010
0100
1000
,
0001
0100
0010
1000
0100
1000
0100
1000
,
0010
0100
0001
0010
0001
0010
0001
0010
,
0100
1000
0001
0100
0010
0000
0010
1000
,
0001
0010
0001
0100
0010
0100
1000
0010
,
0100
0001
0010
0001
1000
0001
0010
0001
,
0100
0010
1000
0001
0010
0100
1000
0001
,
0100
0010
1000
0010
0100
0000
0100
0001
,
1000
0001
0010
0100
1000
0001
0010
0001
,
0100
0010
0100
0001
1000
0100
0010
0100
,
1000
0001
0100
0010
0100
0001
1000
0010
,
0100
0001
1000
0001
0020
0000
0032
0000
,
2003
3200
2300
3020
,
0230
0000
0302
0000
1003
0001
0010
0100
,
1000
0000
1001
0000
0001
0100
0010
1000
,
0001
0000
1001
0000
1100
0000
1000
0100
,
0010
0000
0010
0100
1000
0000
1000
0100
,
0010
0000
0010
0100
1000
0000
1000
0100
,
0010
0000
0010
0100
1000
0000
1000
0100
,
0010
0100
1000
0100
0010
0000
0001
0010
,
0100
0000
0100
0010
0001
0000
0001
0010
,
0100
0000
0100
0010
0001
0000
0001
0010
,
0100
0000
0100
0010
0001
0000
0001
0010
,
0100
0020
0200
0000
,
0000
0000
0000
0000
,
0000
0000
0030
0300
,
2000
3200
0320
0032
,
0023
0000
0230
0000
1300
0100
1000
0010
,
1000
0100
1000
0010
1000
0100
1000
0010
,
1000
0100
1000
0010
0100
0001
0100
1000
,
0100
0001
0100
1000
0100
0001
0100
1000
,
0100
0001
0100
1000
0200
0000
0000
0000
,
0000
0000
0000
0000
,
0000
0000
0000
0000
,
0000
0000
0000
0000
,
0000
0300
0000
0100
,
1000
0000
1000
0100
,
0000
0020
0000
0031
,
0010
0001
0100
0010
,
1000
0010
0100
0000
0001
0000
1000
0000
,
0100
0000
0010
0000
0100
1000
0001
0000
,
0000
0002
0000
0103
,
0010
1000
0001
0100
,
0010
1000
0001
0000
0000
0000
1001
0000
,
0011
0000
0101
1010
,
0000
0000
1100
0000
0000
0000
1000
0001
,
0100
0110
1001
0000
,
1001
0000
0000
0000
1000
1000
0001
0001
,
0100
0100
0010
0010
1000
0001
0100
0010
,
1000
0000
0001
0010
0100
1000
0001
0000
2002
0000
0000
0000
0000
0000
0000
0000
,
0000
0000
0000
0000
,
0000
0000
3003
0000
;

//---------------dance-single - ----------------
#NOTES:
     dance-single:
     :
     Beginner:
     9:
     0.322472,0.655022,0.047027,0.208263,0.000000,336.000000,329.000000,7.000000,31.000000,0.000000,0.000000,0.322472,0.655022,0.047027,0.208263,0.000000,336.000000,329.000000,7.000000,31.000000,0.000000,0.000000:
0000
0000
0000
0000
,
0000
0000
0000
0000
,
0000
0000
0000
0000
,
0000
0000
0000
0000
,
1000
0000
0001
0000
0001
1000
0001
0000
,
1000
0000
0100
0000
,
1000
0000
0001
0000
,
0020
0000
0001
0000
,
0031
0000
0010
0000
,
0100
0000
1000
0000
,
0001
0100
0001
0000
,
0200
0000
0010
0000
,
0010
0000
0310
0000
,
0001
0000
1000
0000
,
0001
0010
0100
0000
,
2000
0000
0100
0000
,
0100
0000
3100
1000
,
0010
0000
0100
0000
,
0001
0010
0001
0020
,
0000
0000
0001
0000
,
0001
0000
0031
0000
,
0002
1000
0100
0013
,
0001
1000
0001
0100
,
0010
1000
0001
0010
,
0100
0010
0100
1000
,
2000
3010
0002
0103
,
1000
0010
0001
0100
,
1000
0100
0001
0100
,
0020
1000
1030
0001
,
0200
0000
0010
0000
0310
0100
0001
0000
,
0001
0010
0001
1000
,
0100
1000
0020
0130
,
1000
0000
0001
0100
0010
0000
1000
0000
,
0001
0000
1000
0100
0010
0000
0001
0000
,
2000
3001
1000
0000
0001
0000
0010
0000
,
0001
0100
0010
0000
0100
0010
1000
0000
,
1000
0001
0100
0010
,
1000
0000
0010
0010
0000
0100
0100
0000
,
0001
0010
0001
0000
,
0010
0100
0010
0000
,
1000
0000
0100
0000
,
0010
0000
0001
0000
,
0010
0000
0001
1000
,
0100
0000
1000
0000
,
0010
0000
0100
0001
,
0100
0000
0001
0000
,
0100
0000
1000
0010
,
0100
0000
0001
0000
,
1000
0000
0001
1000
,
0000
0001
1000
0000
,
0010
0000
0100
0000
,
0001
0000
1000
0000
,
0100
0000
1000
0000
,
0010
0100
0001
0000
,
1000
0000
0010
0000
,
0001
0000
0010
0000
,
0100
0000
0000
1000
,
0000
0000
0010
0000
,
1000
0000
0000
0000
,
0001
0000
0000
0000
,
0100
0000
0000
0000
,
0010
0000
0000
0000
,
1000
0000
0010
0100
,
0001
0000
1000
0000
,
0010
0000
0100
0000
,
0001
0000
1000
0100
,
2000
0100
0100
0100
,
0010
0010
0001
3001
,
0002
0010
0010
0010
,
0100
0100
1000
1003
,
0001
0000
0001
0000
,
0001
0000
0001
0000
,
1000
1000
1000
1000
,
0001
0000
0001
0000
,
0001
0000
0001
0000
,
1000
0001
0001
1000
,
0200
0010
0010
0310
,
0020
0100
0100
0130
,
0100
0010
0010
0000
,
0100
0000
0100
0010
,
0010
0000
0100
0000
,
0100
0000
0010
0000
,
0100
0000
0100
0000
,
0010
0000
0100
0000
,
0010
0000
0100
0010
,
0001
0000
1000
0000
,
0001
1000
0001
0000
,
0000
0000
0100
0000
,
0000
0000
0010
0000
,
0000
1000
0010
0000
,
0000
0000
0100
0000
,
0000
0000
0001
0000
,
0000
0000
0100
0000
,
0000
0000
0010
0000
,
0000
0000
1000
0000
,
0000
0000
0001
0000
,
0000
0000
0010
0000
,
0000
0100
0100
0000
,
0000
0000
1000
0000
,
0000
0000
0010
0000
,
0000
0000
0100
0000
,
0001
0000
0010
0000
,
0100
0000
0000
0000
1000
0000
0001
0010
,
0100
0000
1000
0000
0010
0000
0100
0010
,
1000
0000
0001
0000
0010
0000
1000
0001
,
0100
0000
0010
0000
1000
0000
0100
1000
,
0001
0000
1000
0000
2002
0000
0000
3003
,
0220
0000
0000
0330
2002
0000
0000
0000
,
3003
0000
0220
0000
,
0000
0000
0000
0000
,
0000
0000
0330
0000
,
0000
0000
0000
0000
,
0000
0000
0010
0000
,
0000
0000
0010
0000
,
1000
0000
0001
0000
,
0000
0000
0001
0000
,
0000
0000
0001
0000
,
1000
0000
0100
0000
,
0000
0000
1000
0000
,
0000
0000
0100
0000
,
0000
0000
1000
0000
,
0100
0000
0010
0000
,
0000
0000
0010
0000
,
0001
0000
0010
0000
,
0100
0000
1000
0000
,
0100
0000
1000
0000
,
0001
0000
0010
0000
,
0000
0000
0010
0000
,
0000
0000
0010
0000
,
0001
0000
1000
0000
,
0001
0000
0100
0000
,
0000
0000
0100
0000
,
0000
0000
0100
0000
,
0010
0000
1000
0000
,
0001
0000
0020
0000
,
0000
0000
0000
0000
,
0000
0000
0030
0000
,
0001
0000
1000
0000
,
0001
0000
2002
0000
,
0000
0000
3003
0000
,
0000
0000
0220
0000
,
0000
0000
0330
0000
,
0000
0000
0200
0000
,
0000
0000
0000
0000
,
0000
0000
0000
0000
,
0000
0000
0000
0000
,
0000
0000
0300
0000
,
0000
0000
0000
0000
,
0000
0000
1000
0000
,
0000
0000
0000
0000
,
0000
0000
0001
0000
,
0000
0000
0000
0000
,
0000
0000
1000
0000
,
0000
0000
0000
0000
,
0000
0000
0010
0000
,
0000
0000
0000
0000
,
0000
0100
0000
0000
,
0000
0000
0000
0000
,
0000
0000
0001
0000
,
0000
0000
1000
0000
,
0000
0000
2002
0000
,
0000
0000
0000
0000
,
0000
0000
3003
0000
;

//---------------dance-single - ----------------
#NOTES:
     dance-single:
     :
     Easy:
     13:
     0.574884,1.364629,0.584481,0.369499,0.003359,599.000000,512.000000,87.000000,55.000000,0.000000,0.000000,0.574884,1.364629,0.584481,0.369499,0.003359,599.000000,512.000000,87.000000,55.000000,0.000000,0.000000:
0000
0000
0000
0000
,
0000
0000
0000
0000
,
0000
0000
0000
0000
,
0000
0000
0000
0000
,
1000
0000
0001
0000
1000
0001
0100
0001
,
0010
0001
0010
0001
,
1000
0100
1000
0100
,
2000
0000
0010
0000
,
0010
0000
0010
0000
,
3010
1000
0010
1000
,
0001
0100
0001
0100
,
0002
0000
0010
0000
,
0010
0000
0010
0000
,
0013
0001
0010
0001
,
1000
0100
1000
0100
,
2000
0000
0100
0000
,
0100
0000
0100
0000
,
3100
1000
0001
0100
,
0010
0100
0000
0110
,
0000
0010
0100
0001
,
1000
0000
1001
0000
,
0002
0000
0013
0000
2000
3100
0010
0001
,
1000
0001
0010
0000
0010
0001
0100
0000
,
0100
0010
1000
0000
1000
0010
0100
0000
,
0020
0230
0302
2003
,
3200
2300
3020
0030
,
0100
0001
1000
0000
1000
0001
0010
0000
,
0010
0000
0001
0010
0000
0100
1000
0000
,
2000
0100
3100
1001
,
0002
0010
0013
1001
,
1000
0001
0010
0000
0010
0100
0000
0100
,
1000
1100
0210
1300
,
1020
0000
0130
0001
0010
0000
0011
0000
,
0102
0000
1003
0100
0010
0000
0110
0000
,
2100
0000
0000
0000
3010
0000
0000
0000
1000
0000
0000
0001
0000
0000
1000
0000
,
1001
0000
0000
1010
0000
0000
0011
0000
,
1001
0000
0000
0011
0000
0000
1010
0000
,
1100
0000
0000
0101
0000
0000
1100
0000
,
0100
0000
0100
1000
,
0010
0000
0010
0100
,
0001
0000
0001
0010
,
0100
0000
0010
0100
,
2000
0000
0010
0000
,
0100
0000
0001
0000
,
3100
0000
1000
0000
,
0001
1000
0001
1000
,
0001
0000
0010
0001
,
0100
0000
0100
0010
,
1000
0000
1010
1010
,
0000
0101
0101
0000
,
0002
0000
0010
0000
,
0013
0000
1001
0000
,
2000
0000
0010
0000
,
3010
0000
1001
0000
,
0001
0000
1000
0001
,
0100
0000
0010
0000
,
1000
0000
0101
0101
,
0000
1010
1010
0000
,
0020
0000
1030
0001
,
2000
0000
3100
0010
,
0002
0000
1003
0010
,
0200
0000
0301
1000
,
0020
0000
0230
0000
,
0302
0000
2003
0000
,
3200
0000
0000
0000
,
2300
0000
0000
0000
,
3001
0000
1000
0001
0010
0000
0010
0001
,
1000
0000
1000
0001
0100
0000
0100
0001
,
1000
1000
0100
0010
,
0001
0000
0010
0000
0001
1000
0100
0010
,
0001
0010
0001
0010
,
0100
1000
0001
0100
,
0010
1000
0001
0100
0010
1000
0100
0010
,
0001
0010
0001
0010
,
0100
1000
0001
0100
,
0010
0000
1000
0010
0100
0000
0101
0000
,
0001
0010
0100
1000
1000
0100
0010
0001
,
1001
1001
1001
1001
0101
1010
1100
0011
,
0010
0000
0001
0010
0100
0000
0000
0000
,
1100
0000
0000
0000
1001
0000
0001
1000
,
0010
0000
0110
0000
,
0101
0000
0001
1000
0100
0000
0000
0000
,
1100
0000
0000
0000
1000
0001
0010
0000
,
0010
0001
1000
0000
1010
0000
0000
0000
,
0101
0000
1100
0011
,
0101
0000
1010
0000
,
0101
1010
2001
0000
,
0000
0100
3100
0000
,
1001
0000
0012
0000
,
0000
1000
1003
0000
,
1010
0000
0210
0000
,
0000
0001
0301
0000
,
1001
0000
1020
0000
,
0130
0000
0021
0000
,
0130
0000
1200
0000
,
0000
0010
0310
0000
,
0110
0000
0021
0000
,
0000
0100
0130
0000
,
1001
0000
2010
0000
,
0000
0001
3001
0000
,
1001
0000
2000
0000
,
3200
0000
0320
0000
,
0032
0000
0000
0000
0013
0000
0001
0010
,
0001
0010
0100
1000
0100
1000
0001
0100
,
0010
1000
0001
0010
0100
1000
0001
0100
,
0010
1000
0001
0010
0100
1000
0001
1000
,
0100
0000
1100
0000
1000
0001
0100
0010
,
0010
0100
0001
1000
1002
0000
1000
0000
,
1000
1003
1020
0000
,
0100
0000
0100
0000
,
0100
0000
0130
0000
,
0001
0000
1000
0000
,
0100
0000
0010
0001
,
0010
0000
1000
0100
,
1000
0001
0100
0000
,
0010
0000
1000
0000
,
0001
0000
0010
0001
,
0010
0000
0001
1000
,
0010
0100
1000
0000
,
0100
0000
0010
0000
,
0001
0000
1000
0001
,
0010
0000
0010
0001
,
1000
0000
1001
0000
,
1010
0000
1001
0000
,
0011
0000
0101
0000
,
0110
0000
1010
0000
,
1000
0001
0021
0000
,
0100
0000
0001
0000
,
0100
0000
0001
0000
,
0100
0000
0031
0000
,
1000
0001
0201
0000
,
0010
0000
0001
0000
,
0010
0000
0001
0000
,
0310
0000
0001
1000
,
0100
0000
0100
1000
,
0100
1000
0010
0100
,
0001
0010
0001
1000
,
0100
1000
0010
0000
,
0110
0000
0100
0001
,
0100
0001
1000
0010
,
1000
0010
0100
0000
,
0101
0000
1010
0000
,
1100
0000
0010
0001
,
0010
0001
1000
0100
,
0000
1100
0000
0100
,
1000
0001
0100
0010
,
1000
0001
0000
0001
,
0010
0001
0010
0100
,
0000
0110
0000
0100
,
0010
0001
0010
0100
,
1000
0010
0000
0100
,
0001
1000
0010
0100
,
0000
0101
0000
0001
,
1000
0100
1000
0010
,
0100
0001
0000
1000
,
0001
0000
2002
3003
,
0000
1001
0000
1000
,
0001
1000
0200
0300
,
0020
0030
0002
0000
,
0000
0000
2003
0000
,
0200
0300
0002
0000
,
0000
0000
0000
0000
,
0000
0000
3003
0000
;

//---------------dance-single - ----------------
#NOTES:
     dance-single:
     :
     Hard:
     18:
     0.912712,2.347162,0.342627,0.342627,0.319113,951.000000,900.000000,51.000000,51.000000,0.000000,0.000000,0.912712,2.347162,0.342627,0.342627,0.319113,951.000000,900.000000,51.000000,51.000000,0.000000,0.000000:
// measure 0
0000
0000
0000
0000
,  // measure 1
0000
0000
0000
0000
,  // measure 2
0000
0000
0000
0000
,  // measure 3
0000
0000
0000
0000
,  // measure 4
0001
0000
0001
0000
1000
0000
1000
0000
0001
0000
1000
0000
0001
1000
0001
1000
,  // measure 5
0100
0000
1000
0000
0100
1000
0001
0000
,  // measure 6
0100
0000
0010
0100
0001
0000
0010
0000
,  // measure 7
0001
0010
0001
0010
,  // measure 8
0001
0000
0010
0000
0001
0010
0100
0000
,  // measure 9
1000
0000
0001
0010
0100
0000
1000
0000
,  // measure 10
1000
0100
0010
0000
0010
0000
0100
0000
,  // measure 11
1000
0100
1000
0100
,  // measure 12
1000
0000
0100
0000
0010
0100
1000
0000
,  // measure 13
0010
0000
0001
1000
0010
0000
0100
0000
,  // measure 14
0010
1000
0100
0000
1000
0000
0010
0000
,  // measure 15
1000
0010
1000
0010
,  // measure 16
1000
0000
0010
0000
1000
0100
0010
0000
,  // measure 17
0001
0010
0001
1000
,  // measure 18
0001
1000
0010
0000
0000
0000
0110
0000
,  // measure 19
0000
0000
0100
0001
1000
0000
0001
0000
,  // measure 20
1001
0000
1001
0000
,  // measure 21
1000
0000
1000
0000
0100
0000
0100
0000
0010
0000
0010
0000
0001
0000
0001
0000
0020
0000
0032
0000
0203
0000
0320
0000
2030
0000
3200
0000
0310
0001
0010
0000
,  // measure 22
0001
0010
0001
0000
0010
0000
0001
0000
0010
0001
0010
0000
0001
0000
0010
0000
,  // measure 23
0001
0100
0001
0000
1000
0000
0010
0000
0100
0001
0100
0000
1000
0000
0010
0000
,  // measure 24
1000
0000
0100
1000
0100
0000
0010
0100
0010
0000
0001
0000
0100
0000
0001
0000
,  // measure 25
1000
0000
1000
0000
0001
0000
0001
0010
0100
0000
1000
0000
0100
0000
1000
0000
,  // measure 26
0100
1000
0100
0000
1000
0000
0010
0000
0010
0100
0010
0000
0001
0000
0100
0000
,  // measure 27
0001
0010
0001
0000
0100
0000
0010
1000
0010
0000
0100
0000
0001
0000
1000
0001
,  // measure 28
1000
0001
1000
0001
0100
0010
0100
0010
,  // measure 29
1000
0000
0100
0000
0010
0000
0100
0000
1000
0000
0001
0010
0100
0000
1000
0000
,  // measure 30
0100
1000
0100
0000
0010
0000
0100
0000
0001
0010
0001
0000
0010
0000
0001
0000
,  // measure 31
1000
0000
0000
0000
1001
0000
0001
1000
0010
0000
0100
0000
0010
0000
0100
0001
,  // measure 32
1000
0001
1000
0001
0010
0100
0010
0100
,  // measure 33
1000
0000
0001
0000
0010
0000
0100
0000
1000
0000
0001
0000
0100
0000
0010
0100
,  // measure 34
0001
0000
0100
0000
0010
0000
1000
0000
0001
0000
0010
0001
0000
0010
0001
0000
,  // measure 35
1000
0100
0010
0000
0010
0000
0010
0100
1000
0000
1000
0000
1000
0100
0010
0000
,  // measure 36
0010
0001
0100
0000
0100
0000
0100
0001
0010
0000
0010
0000
0010
0001
0100
0000
,  // measure 37
0101
0000
1001
1001
0000
1010
1010
0000
,  // measure 38
1000
0010
0100
0000
0001
0000
1000
0000
,  // measure 39
0001
0010
0100
0000
1000
0000
0001
0000
,  // measure 40
1000
0001
0010
0000
0100
0000
1000
0000
,  // measure 41
0001
1000
0100
0000
0010
0000
0001
0000
,  // measure 42
0010
0000
0100
1000
0010
0000
0010
0100
,  // measure 43
0001
0100
0010
0001
,  // measure 44
1000
0000
0010
0000
0100
0000
0001
1000
,  // measure 45
0100
1000
0100
1000
,  // measure 46
0010
0100
0001
0000
1000
0000
0001
0000
,  // measure 47
1000
0100
0010
0000
0100
0000
1000
0001
,  // measure 48
0100
0000
0010
0000
0100
0001
1000
0000
,  // measure 49
0001
0000
1000
0100
0010
0000
0000
0000
,  // measure 50
0001
0000
0010
0001
0100
0000
0100
0010
,  // measure 51
1000
0000
1000
0000
1000
0100
0010
0100
,  // measure 52
1000
0100
0001
0100
,  // measure 53
1000
0000
0100
0010
0100
0000
0000
0000
,  // measure 54
0100
1000
0010
0000
0010
0100
0010
0000
,  // measure 55
0010
0100
0001
0000
0001
1000
0001
0000
,  // measure 56
0001
0010
0100
0000
0100
0000
1000
0100
,  // measure 57
1000
0000
0001
0000
0100
0010
0100
0000
,  // measure 58
0010
0100
1000
0100
0010
0000
0001
0000
,  // measure 59
1000
0001
0010
0001
0100
0000
0001
0000
,  // measure 60
1000
0001
0010
0100
1000
0000
0001
0000
,  // measure 61
1000
0001
0100
0010
1000
0000
0000
0000
,  // measure 62
0010
0000
0100
0001
1000
0000
0010
0100
,  // measure 63
0001
0000
1000
0001
0010
0000
0100
0010
,  // measure 64
1000
0010
0100
0001
,  // measure 65
1000
0000
0001
0000
0100
0000
0001
1000
,  // measure 66
0002
1000
1000
1003
0200
1000
1000
1300
,  // measure 67
0020
0100
0100
0130
0002
0010
0010
0013
,  // measure 68
2000
0010
0010
3010
0002
0100
0100
0103
,  // measure 69
2000
0000
0001
0000
0001
0000
3001
0000
2000
0000
3001
0010
0100
1000
0100
0010
,  // measure 70
0001
0010
0001
0100
0010
1000
0001
0100
,  // measure 71
0010
1010
0011
0110
,  // measure 72
0100
1000
0100
1000
0010
0100
0010
0100
0001
0010
0100
1000
0100
0010
0001
0000
,  // measure 73
0100
0001
1001
1000
,  // measure 74
0010
0100
0001
0010
,  // measure 75
0100
1000
0100
1000
0100
1000
0100
0000
0010
0100
0010
0100
0010
0100
0010
0100
,  // measure 76
0001
0000
0001
0010
0001
0000
0001
1000
0001
0000
0100
1000
0100
0000
0010
1000
0010
0000
0100
0020
0130
0000
0000
0000
0110
0000
0000
0000
1001
0000
0000
0000
,  // measure 77
0011
0000
0001
0010
0001
0000
0010
0100
0010
0000
0100
1000
0100
0000
1000
0001
1000
0000
0100
2000
3100
0000
0000
0000
1100
0000
0000
0000
1010
0000
0000
0000
,  // measure 78
0010
0100
0001
1000
0001
0010
0100
1000
,  // measure 79
0100
0010
0001
1000
0001
0100
0010
1000
,  // measure 80
0001
1000
0100
0010
0001
0010
0100
1000
,  // measure 81
0001
0100
0010
1000
0010
0100
0001
0100
,  // measure 82
0010
0000
1000
0000
0100
0000
1000
0000
0010
0100
0010
0100
0010
0100
0010
0000
,  // measure 83
0001
0100
0001
0100
0001
0100
0001
0000
0001
0000
0100
0000
0010
0000
0000
0000
,  // measure 84
0100
0000
0010
0000
1000
0000
0000
0000
1000
0010
0100
0000
0010
0100
0001
0000
,  // measure 85
0001
1000
0100
0000
0100
1000
0001
0000
,  // measure 86
0001
1000
0001
1000
0100
1000
0010
0100
0002
0000
0000
0000
0000
0000
0000
0000
,  // measure 87
0000
0000
0023
0000
,  // measure 88
0000
0000
0032
0000
,  // measure 89
0000
1003
0200
0000
,  // measure 90
0000
0000
2300
0000
,  // measure 91
0000
0000
3020
0000
,  // measure 92
0000
0000
0230
0000
,  // measure 93
0000
0000
0301
0000
,  // measure 94
1001
0000
2000
0000
,  // measure 95
0000
0000
3002
0000
,  // measure 96
0000
0000
0023
0000
,  // measure 97
0000
0130
2000
0000
,  // measure 98
0000
0000
3002
0000
,  // measure 99
0000
0000
0203
0000
,  // measure 100
0000
0000
0320
0000
,  // measure 101
0100
0000
2030
0000
,  // measure 102
3010
0000
0100
0010
1000
0100
1000
0100
,  // measure 103
0010
0001
0010
0001
1000
0100
0001
0100
,  // measure 104
1000
0100
0001
0100
1000
0010
0001
0010
,  // measure 105
1000
0010
0001
0010
2000
3200
0320
0032
,  // measure 106
0023
0000
0230
0000
2300
0000
3002
0000
0103
0010
0100
0001
0000
0001
1000
0100
,  // measure 107
0010
0010
0001
0000
1000
1000
0001
0000
0100
0000
0001
0000
0100
0000
0001
0000
,  // measure 108
0100
0000
0001
0000
0100
0000
0001
1000
0010
0000
1000
0000
0010
0000
1000
0000
,  // measure 109
0010
1000
0010
1000
0010
1000
0010
1000
,  // measure 110
0010
1000
0010
1000
0002
0000
0023
0000
,  // measure 111
0230
2300
3200
0320
,  // measure 112
0032
2003
3001
0100
,  // measure 113
0001
1000
0010
0100
,  // measure 114
0001
0000
1000
0100
0010
0000
0000
0000
,  // measure 115
0011
0000
0101
0000
,  // measure 116
1010
0000
1100
0000
,  // measure 117
1001
0000
0101
0000
,  // measure 118
1010
0000
1001
0000
,  // measure 119
1100
0000
0110
0000
,  // measure 120
0011
0000
1001
0000
,  // measure 121
1010
0000
0101
0000
,  // measure 122
1010
0000
0101
0000
,  // measure 123
1100
0000
0011
0000
,  // measure 124
0110
0000
1200
0010
,  // measure 125
1300
0000
1020
0100
,  // measure 126
0031
0000
1000
0000
0001
0000
0010
0001
,  // measure 127
0010
0000
0100
0010
0100
0000
1000
0100
,  // measure 128
1000
0000
1000
0001
0010
0000
0001
0000
,  // measure 129
0010
0001
1000
0100
,  // measure 130
1000
0000
0100
1000
0001
0000
0100
0000
,  // measure 131
0001
0100
0010
1000
,  // measure 132
0010
0000
1000
0001
0010
0000
0001
0000
,  // measure 133
0010
0001
1000
0100
,  // measure 134
1000
0000
0100
1000
0010
0000
0100
0000
,  // measure 135
0010
0100
0010
0100
,  // measure 136
0010
0100
0010
0100
,  // measure 137
0010
0000
0110
0000
,  // measure 138
1001
0000
0000
0000
0100
0010
0100
0010
,  // measure 139
0100
0010
0100
0010
0100
0010
0100
0010
,  // measure 140
0100
0000
0000
0000
1000
0001
1000
0001
,  // measure 141
1000
0001
1000
0001
1000
0001
1000
0001
,  // measure 142
1000
0001
1000
0001
1000
0000
0010
0000
,  // measure 143
0100
0001
1000
0001
,  // measure 144
0000
0000
0011
0000
0000
0000
0001
0010
,  // measure 145
0100
0000
0010
0100
1000
0000
1100
0000
,  // measure 146
1001
0000
0101
0000
1001
0000
0001
1000
,  // measure 147
0100
0000
1000
0000
0010
0100
0001
0000
,  // measure 148
1000
0000
1001
0000
0000
0000
0001
0010
,  // measure 149
0001
0000
1000
0010
1000
0000
0001
0100
,  // measure 150
0010
1000
0100
1000
0001
0000
1000
0000
,  // measure 151
0100
0000
0010
0000
0001
1000
0010
0000
,  // measure 152
0100
0000
0001
1000
0100
0000
1000
0000
,  // measure 153
0010
0100
0001
1000
,  // measure 154
0100
0010
0001
0000
0010
0000
0100
0000
,  // measure 155
1000
0000
0001
0000
0100
0010
0100
0000
,  // measure 156
1000
0000
1001
0000
0000
0000
1000
0010
,  // measure 157
0100
0001
0010
0000
0001
0000
0000
0000
,  // measure 158
1001
0000
0000
0000
1000
0001
0010
0100
,  // measure 159
1000
0001
0100
0010
1000
0001
0100
0010
,  // measure 160
1000
0000
0100
0010
0100
0010
0001
0000
2002
0000
0000
0000
0000
0000
0000
0000
,  // measure 161
0000
0000
0000
0000
,  // measure 162
0000
0000
3003
0000
;

//---------------dance-single - ----------------
#NOTES:
     dance-single:
     :
     Medium:
     16:
     0.757234,1.746725,0.248572,0.470272,0.181391,789.000000,752.000000,37.000000,70.000000,0.000000,0.000000,0.757234,1.746725,0.248572,0.470272,0.181391,789.000000,752.000000,37.000000,70.000000,0.000000,0.000000:
0000
0000
0000
0000
,
0000
0000
0000
0000
,
0000
0000
0000
0000
,
0000
0000
0000
0000
,
0020
0000
0230
0000
2300
0100
3002
1000
,
1003
0001
0100
0001
,
1000
0100
0010
0100
,
1000
0000
0100
1000
0001
0000
0001
1000
,
0100
0000
0100
0010
0001
0010
0100
1000
,
0001
1000
0010
0100
,
0001
1000
0100
0010
,
0100
0000
0100
1000
0001
0000
0001
0010
,
0100
0000
0100
1000
0001
0010
0100
1000
,
0001
1000
0010
0100
,
0001
1000
0100
1000
,
0001
0000
1000
0001
0010
0000
0010
0100
,
1000
0000
1000
0001
0010
0100
1000
0001
,
0100
0010
1000
0001
,
0010
0110
0000
1100
,
0000
0000
1000
0100
0001
0000
0100
0000
,
1000
0000
1001
0000
,
1000
0010
0100
0001
0100
0001
0010
1000
0000
1000
0100
0010
0100
1000
0001
0100
,
0010
1000
0001
0000
0001
0100
0010
0000
,
0010
1000
0001
0010
1000
0010
0001
1000
,
0200
2300
3002
0203
,
0310
0000
0010
0000
0100
0000
0100
0010
1000
0000
1000
0000
0001
0000
1000
0000
,
0001
0010
0100
1000
0001
0100
0010
1000
,
0002
0000
0023
0000
0230
0000
2300
0000
3000
0000
2000
0000
3200
0000
1300
0001
,
0010
0001
0010
0001
1000
0100
1000
0001
,
0100
0000
0010
0000
1000
0000
0001
0000
0010
0000
0100
1000
0001
0000
0001
0010
,
0100
1000
0100
1000
0001
0010
0001
0010
,
0200
0000
2300
0000
3002
1000
0203
1000
,
0320
0000
0000
0000
0130
0001
0010
0000
0011
0000
0000
0000
0101
0000
0000
0000
,
2010
0000
0010
0000
3010
0000
0010
0100
0002
0000
0010
0000
0013
0000
0001
1000
,
0010
0000
0100
0000
0001
0000
1000
0000
0100
0000
0000
0110
0000
0000
1100
0000
,
1000
0001
0100
0010
1000
0001
0010
0100
,
2000
0000
3100
2000
0000
3001
0200
0000
,
0310
0100
0010
0000
1000
0000
0100
0010
0100
0000
0001
0000
0010
0100
0010
0000
,
1000
0010
0100
0001
,
1000
0100
0010
0100
,
1000
0001
0100
0010
,
1000
0001
0010
0001
,
0010
0000
0001
0010
0100
0000
0010
0100
,
1000
1000
0001
0100
,
0010
0000
1000
0000
0010
0000
0100
0001
,
0010
0100
0010
0100
,
1000
0001
0100
0010
,
1000
0001
0010
0100
,
1000
0100
0001
0000
0100
0000
1000
0100
,
0001
0000
0100
0000
0001
0100
1000
0000
,
0100
1000
0001
0100
,
0010
1000
0001
0010
,
0001
0100
0010
1000
,
0001
0000
1000
0001
0010
0000
0000
0000
,
1000
0001
0010
0001
,
1000
0100
1000
0010
,
0100
0001
1000
0000
0100
0000
0100
0001
,
1000
0000
0100
0000
0100
0001
1000
0000
,
0002
0000
0010
0000
0013
0100
1000
0000
,
2000
0000
0100
0000
3100
1000
0010
0000
,
0020
0000
0100
0000
0130
0001
1000
0000
,
0200
0000
1000
0000
1300
0100
0010
0000
,
0010
0000
0001
0010
0100
0000
0010
0100
,
1000
0000
1000
0001
0100
0000
0100
0010
,
1000
0010
1000
0010
0100
0001
0010
0000
,
0010
0001
0010
0001
0100
0010
1000
0000
,
1001
1010
1001
0011
,
1001
0000
0000
0000
0110
0000
0000
0000
1001
0000
0001
1000
0100
0000
0010
0000
,
0011
0101
1010
1100
,
1001
0000
0000
0000
0110
0000
0000
0000
1010
0000
0000
0000
0101
0000
0001
0010
,
0100
1000
0100
0001
,
0100
0000
1000
0000
0100
0000
0001
0100
,
1000
0001
0100
1000
0100
0001
0100
1000
,
0001
0100
1000
0100
,
0001
0000
0100
0000
1000
0000
0100
0001
,
1000
0100
0001
0100
1000
0100
0001
0100
,
1000
0000
1000
0100
0001
0100
0001
0100
1000
0100
1000
0100
0001
0100
0001
0100
,
1000
0100
1000
0100
0001
0100
0001
0100
1000
0100
0001
0100
1000
0100
0001
0100
,
1000
0100
0001
0100
1000
0000
0010
0000
,
0001
0000
0010
0000
1000
0100
0001
0100
,
1000
0010
0001
0010
,
1000
0100
0001
0100
1000
0000
0010
0000
,
0001
0000
0010
0000
1000
0001
0100
1000
,
0100
0001
0010
1000
0010
0000
0001
0000
,
0010
0000
1000
0000
0010
0001
0010
1000
,
0010
0001
0010
1000
,
0010
0001
1000
0010
0200
0000
0000
0000
,
0000
0000
0302
0000
,
0000
0000
2003
0000
,
0000
0100
3020
0000
,
0000
0000
0230
0000
,
0000
0000
0302
0000
,
0000
0000
2003
0000
,
0000
0000
3001
0000
,
1001
0000
0002
0000
,
0000
0000
0023
0000
,
0000
0000
0230
0000
,
0000
0010
2300
0000
,
0000
0000
3020
0000
,
0000
0000
0230
0000
,
0000
0000
0302
0000
,
0000
0000
2003
0000
,
0000
0000
0000
0000
3001
1000
0100
1000
,
0010
0100
0001
0010
0001
0100
0010
1000
,
0001
0010
1000
0010
0001
0100
1000
0001
,
0100
1000
1000
0010
0001
1000
0010
0001
,
1000
0000
0010
0000
0100
0000
0001
0000
1000
0100
0100
0001
0100
0100
1000
0100
,
0100
0000
0000
0001
0000
0000
0010
0000
0000
0010
0000
0000
1000
0000
0000
0010
0000
0000
0010
0000
0000
0001
0000
0000
0010
0000
0000
0000
0001
0000
0000
0000
0010
0000
0000
0000
0001
0000
0000
0000
0010
0000
0000
0000
0001
0000
0000
0000
,
0010
0001
0010
0001
0010
0001
0020
0000
0000
0000
0000
0000
,
0000
0000
0000
0000
,
0000
0000
0032
0000
,
0023
0000
0230
0000
,
2300
0000
3002
0000
,
0100
0000
0023
0000
,
1000
0130
0002
0000
,
2003
0000
3200
0000
,
0320
0000
0032
0000
,
0010
0000
0203
0000
,
0010
1300
0200
0000
,
0320
0000
0032
0000
,
0023
0000
0032
0000
,
0010
0000
2003
0000
,
0100
3000
2000
0010
,
3002
0100
2003
0100
,
3002
0000
0010
0000
0103
1000
0100
1000
,
0010
0100
0010
0000
0010
0100
0010
0100
,
0001
0010
0001
0010
0001
0000
0010
0000
,
0001
1000
0100
1000
,
0001
0000
0100
0000
1000
0001
0100
0000
,
1000
0000
0010
0000
1000
0010
0100
0000
,
0001
1000
0010
0100
,
0001
0010
0100
1000
,
0001
0000
1000
0001
0010
0000
0100
0000
,
1000
0000
0001
0010
0100
0000
1000
0000
,
0001
0000
0001
0010
,
0001
0010
0100
1000
,
0100
1000
0001
0100
,
0010
0000
1010
0000
,
0101
0000
1000
0001
,
1000
0001
1000
0001
,
1000
0000
0001
0000
1000
0100
0010
0100
,
1000
0010
0100
0010
1000
0100
0010
0100
,
1000
0010
0100
0020
2000
0000
0000
0000
,
0000
0000
0000
0000
,
0000
0000
0000
0000
,
0000
0000
0000
0000
,
0000
3030
0000
0010
,
0100
0000
0100
0001
,
0000
1001
0000
0001
,
1000
0001
1000
0001
,
1000
0001
0010
0000
0010
0000
0001
0000
,
1000
0100
0010
0100
,
1000
0001
0100
0001
,
0100
0010
1000
0010
,
1000
0001
0010
0000
0001
0000
1000
0000
,
0100
1000
0010
0100
,
0000
0000
1001
0000
0000
0000
0100
0010
,
0100
0110
0011
0000
,
1100
0000
0000
0000
1010
0010
0011
0001
,
0101
0100
1100
1000
1001
0001
0010
0100
,
1000
0001
0010
0100
1000
0000
0001
0000
2002
0000
0000
0000
0000
0000
0000
0000
,
0000
0000
0000
0000
,
0000
0000
3003
0000
;
