#VERSION:0.83;
#TITLE:DYNAMITE RAVE(Long ver.);
#SUBTITLE:;
#ARTIST:NAOKI;
#TITLETRANSLIT:;
#SUBTITLETRANSLIT:;
#ARTISTTRANSLIT:;
#GENRE:;
#ORIGIN:;
#CREDIT:;
#BANNER:DYNAMITE RAVE(Long ver.).png;
#BACKGROUND:DYNAMITE RAVE(Long ver.)-bg.png;
#PREVIEWVID:;
#JACKET:DYNAMITE RAVE(Long ver.)-jacket.png;
#CDIMAGE:;
#DISCIMAGE:;
#LYRICSPATH:;
#CDTITLE:;
#MUSIC:DYNAMITE RAVE(Long ver.).ogg;
#OFFSET:0.000000;
#SAMPLESTART:131.203995;
#SAMPLELENGTH:15.000000;
#SELECTABLE:YES;
#DISPLAYBPM:150.000000;
#BPMS:0.000=149.542,
4.000=150.000;
#STOPS:;
#DELAYS:;
#WARPS:;
#TIMESIGNATURES:0.000=4=4;
#TICKCOUNTS:0.000=4;
#COMBOS:0.000=1;
#SPEEDS:0.000=1.000=0.000=0;
#SCROLLS:0.000=1.000;
#FAKES:;
#LABELS:0.000=Song Start;
#BGCHANGES:;
#KEYSOUNDS:;
#ATTACKS:
;

//---------------dance-single - ----------------
#NOTEDATA:;
#CHARTNAME:;
#STEPSTYPE:dance-single;
#DESCRIPTION:;
#CHARTSTYLE:;
#DIFFICULTY:Easy;
#METER:6;
#RADARVALUES:0.298703,0.364775,0.079546,0.000000,0.000000,368.000000,354.000000,14.000000,0.000000,0.000000,0.000000,0.000000,0.000000,0.000000,0.298703,0.364775,0.079546,0.000000,0.000000,368.000000,354.000000,14.000000,0.000000,0.000000,0.000000,0.000000,0.000000,0.000000;
#CREDIT:;
#DISPLAYBPM:150.000000;
#NOTES:
0000
0000
0000
0000
,
0000
0000
0000
0000
,
0000
0000
0000
0000
,
0010
0000
0010
0000
,
1000
1000
1000
1000
,
0001
0100
1000
0100
,
0001
0100
1000
0100
,
0001
0000
1000
0000
,
0001
0100
0100
0100
,
0010
0000
1000
0000
,
0001
0000
0100
0000
,
0010
0000
0010
0000
,
1000
0000
0001
1001
,
0010
0000
1000
0001
,
0100
0000
0001
1000
,
0100
0000
0010
0001
,
0100
0000
1000
0100
,
0001
0000
0000
0000
,
0010
0010
1000
1000
,
0100
0100
0001
0001
,
1000
0100
0001
0100
,
1000
0100
0001
0001
,
0010
0010
1000
1000
,
0001
0001
1000
0100
,
0001
1000
0001
1000
,
0010
0010
1000
0100
,
0010
0000
1001
0000
0010
1000
0100
0000
,
0001
0100
0010
1100
,
0001
1000
0001
0100
,
1000
1000
0100
0100
,
0010
0000
0001
0100
,
0010
0000
1000
0100
,
0001
0100
1000
0100
,
0001
1000
0001
0101
,
0010
0000
0000
0000
,
1000
0000
0000
0000
,
0100
0000
0000
0000
,
0001
0010
1000
0100
,
1000
0100
0001
0100
,
1000
0100
0001
0100
,
0010
0000
0010
0000
,
1000
0001
1000
0100
,
0001
0001
0000
0000
,
0100
0100
0000
0000
,
0010
0010
0000
0000
,
1000
1000
0001
0100
,
0001
0001
0000
0000
,
1000
1000
0000
0000
,
0100
0100
0000
0000
,
0010
0010
0010
0010
,
0001
0100
1000
1000
,
0001
0100
1000
1000
,
0001
0100
1000
1000
,
0001
0001
0001
0001
,
0010
0100
1000
0100
,
0010
0100
1000
0100
,
0010
0100
1000
0100
,
0001
0001
0001
0001
,
0010
1001
0010
0100
,
0001
1000
0001
0100
,
1000
1000
1000
0100
,
0001
1000
0001
1100
,
1001
0010
0010
0010
,
0001
1000
0100
0100
,
0001
1000
0010
0010
,
1000
0001
0100
0000
,
0000
0010
0000
0010
,
0000
0100
0000
0100
,
0000
0001
0000
0001
,
0000
1000
1000
1000
,
0000
0001
0000
0001
,
0000
0100
0000
0100
,
0000
0001
0000
1000
,
0010
1000
0100
0001
,
0010
0000
1001
0000
0001
1000
0100
0000
,
0010
0010
0001
1100
,
0001
0100
1000
0100
,
0010
1000
0100
0001
,
0010
1000
0001
0100
,
1000
1000
0001
0100
,
1000
0000
1000
0000
,
0001
0001
0010
0100
,
1000
0000
1000
0000
,
0001
1000
0001
1100
,
0010
0010
0001
0100
,
0010
1000
0100
0100
,
0001
1000
0100
0100
,
0001
0100
0100
0000
,
0010
1000
0100
0001
,
0010
1000
0100
0000
,
0010
1000
0010
1000
,
0001
0001
1000
0100
,
0001
0100
0001
0100
,
0010
0010
1000
1100
,
0001
0101
0101
0000
,
1000
1000
0001
1000
,
0010
0010
0100
0100
,
0010
1000
0100
0000
,
0010
0001
0010
0001
,
1000
1000
0001
0100
,
0010
1001
0100
0100
,
1000
0001
1000
1000
,
1000
1000
0100
0100
,
0001
0100
1000
0100
,
0001
1000
0100
0100
,
0010
1000
0100
0100
,
0100
0001
0100
0001
,
1000
0000
0000
0000
;

//---------------dance-single - ----------------
#NOTEDATA:;
#CHARTNAME:;
#STEPSTYPE:dance-single;
#DESCRIPTION:;
#CHARTSTYLE:;
#DIFFICULTY:Medium;
#METER:9;
#RADARVALUES:0.407470,0.425571,0.147728,0.000000,0.000000,502.000000,476.000000,26.000000,0.000000,0.000000,0.000000,0.000000,0.000000,0.000000,0.407470,0.425571,0.147728,0.000000,0.000000,502.000000,476.000000,26.000000,0.000000,0.000000,0.000000,0.000000,0.000000,0.000000;
#CREDIT:;
#DISPLAYBPM:150.000000;
#NOTES:
0000
0000
0000
0000
,
0000
0000
0000
0000
,
0000
0000
0000
0000
,
0010
0000
0010
0000
0010
1000
0100
0000
,
0001
1000
0100
0000
0010
0000
1001
0000
,
0001
0100
1000
0100
,
0001
0100
1000
0100
,
0010
0000
0010
0000
1000
0100
1000
0000
,
0010
0000
0010
0000
0001
0100
0001
0000
,
0010
1000
0100
0001
,
0010
1000
0100
0001
,
0010
1000
0100
0001
,
0010
1000
0100
1001
,
0001
0100
0001
0000
1000
0000
0100
0000
,
0001
0100
0001
0000
1000
0000
0100
0000
,
0001
0100
0001
0000
1000
0000
0100
0000
,
0010
0000
0010
0001
0010
0001
0100
0000
,
1001
0100
0100
0100
,
0001
0000
1000
0000
0010
1000
0100
0000
,
0001
1000
0001
0000
0010
0000
1001
0000
,
0001
0100
1000
0100
,
0010
0000
0010
0000
0010
0001
0100
0000
,
1000
0000
1000
0000
0001
0100
0001
0000
,
0001
0000
0001
0000
1000
0100
1000
0000
,
0010
0000
0010
0000
0010
1000
0100
0000
,
0010
1000
0100
0000
0010
0000
1001
0000
,
1001
0000
0101
0000
0010
1000
0100
0000
,
0010
1000
0100
0000
0001
0000
0100
0000
,
1000
0000
1000
0000
0010
0001
0100
0000
,
0010
0001
0100
0000
1000
0000
0100
0000
,
0001
0100
1000
0100
,
0001
0000
0100
0000
1000
0100
0001
0000
,
1000
0000
0100
0000
0010
0001
0100
0000
,
1000
0100
1000
0100
0010
0001
0100
0000
,
0010
0000
0010
0010
,
1000
0000
1000
1000
,
0100
0000
0100
0100
,
0001
0000
0010
0000
1000
0100
0001
0000
,
0100
0000
1000
0000
0010
0001
0010
0000
,
0100
0000
0001
0000
1000
0100
0010
0000
,
0001
0100
1000
0100
,
0001
0000
0100
0000
1000
1000
0100
0000
,
0010
0000
0000
0000
0010
0001
0100
0000
,
0001
0000
0000
0000
0001
1000
0100
0000
,
1000
0000
0000
0000
1000
0001
0100
0000
,
0001
0000
0000
0000
0001
1000
0010
0000
,
0100
0000
0000
0000
0100
0010
1000
0000
,
1000
0000
0000
0000
1000
0100
0010
0000
,
0001
0000
0000
0000
0001
0100
0010
0000
,
1000
0000
1000
0000
1000
1000
1000
0000
,
1001
0000
1001
0000
0010
1000
0100
0000
,
0010
1000
0100
0000
0010
0000
1001
0000
,
0010
0000
0010
0010
,
0100
0000
0100
0100
,
1001
0000
0100
0000
0010
1000
0100
0000
,
0010
1000
0100
0000
0010
0000
1001
0000
,
0010
0000
1000
0000
,
0100
0000
0001
0010
,
1001
0100
0010
0001
,
1000
0000
1000
0000
0010
1000
0100
0000
,
0010
0000
0010
0000
0010
1000
0100
0000
,
0010
1000
0100
0000
0010
0000
1001
0000
,
0010
0010
0010
0001
,
0100
0100
0100
1000
,
0100
0001
0100
1000
,
0010
0010
0010
0000
,
0100
0000
0100
0000
0010
1000
0100
0000
,
0010
0000
0010
0000
0010
1000
0100
0000
,
0010
1000
0100
0000
0010
1000
0100
0000
,
0010
0000
0010
0000
0010
1000
0100
0000
,
0001
0100
0001
0000
1000
0000
1000
0000
,
0001
0100
0001
0000
1000
0000
1000
0000
,
0001
0100
0001
0000
0001
0100
0001
0000
,
0010
1000
0100
0001
,
0010
0000
1001
0000
0010
1000
0100
0000
,
0010
1000
0100
0000
0001
0000
0101
0000
,
1000
1100
0001
0101
,
0010
0000
0010
0000
0010
1000
0100
0000
,
0010
0000
0010
0000
0001
1000
0100
0000
,
0001
1000
0100
0000
0001
1000
0100
0000
,
0001
0100
1000
0100
,
0001
0000
0001
0000
0010
1000
0100
0000
,
0010
0101
1001
0100
,
0001
0000
0001
0000
0001
1000
0100
0000
,
0010
0000
0010
0000
0010
1000
0100
0000
,
0010
1000
0100
0000
0010
0000
1001
0000
,
1001
0000
0100
0000
0010
1000
0100
0000
,
0001
0000
0100
0000
0010
1000
0100
0000
,
0001
0100
1000
0100
,
0010
1001
0100
0000
,
0010
0000
1000
0000
0010
1000
0100
0000
,
0001
0000
0100
0000
0010
1000
0100
0000
,
0010
1000
0100
0000
0001
0000
0100
0000
,
1000
0000
0100
0000
0010
0000
0010
1000
,
0100
0000
0001
0000
0001
1000
0100
0000
,
0001
0000
1000
0000
0001
1000
0100
0000
,
0001
1000
0010
0010
,
1000
0000
0001
1000
0100
0000
0000
0000
,
0001
0101
1000
1100
,
0010
0000
0010
0000
0010
1000
0100
0000
,
0010
0000
0001
0000
0010
0100
1000
0000
,
0001
0000
0100
0000
0010
0000
0010
1000
,
0100
0000
0101
0000
0010
1000
0100
0000
,
0001
0000
0100
0000
0010
1000
0100
0000
,
0001
0100
1000
0100
,
0010
0000
0010
1000
0100
0000
0000
0000
,
0001
0100
1000
0100
,
0001
0000
0000
0000
;

//---------------dance-single - ----------------
#NOTEDATA:;
#CHARTNAME:;
#STEPSTYPE:dance-single;
#DESCRIPTION:;
#CHARTSTYLE:;
#DIFFICULTY:Hard;
#METER:12;
#RADARVALUES:0.568185,0.639847,0.323866,0.005682,0.048296,700.000000,643.000000,57.000000,1.000000,0.000000,0.000000,0.000000,0.000000,0.000000,0.568185,0.639847,0.323866,0.005682,0.048296,700.000000,643.000000,57.000000,1.000000,0.000000,0.000000,0.000000,0.000000,0.000000;
#CREDIT:;
#DISPLAYBPM:150.000000;
#NOTES:
0000
0000
0000
0000
,
0000
0000
0000
0000
,
0000
0000
0000
0000
,
0010
0000
0010
0000
0010
1000
0100
0000
,
0010
0001
0100
1000
0100
0001
0010
0000
,
0001
0100
0001
0000
1000
0100
1000
0000
,
0001
0010
0001
0000
1000
0100
1000
0000
,
0010
1000
0100
0000
0010
0001
0100
0000
,
0010
1000
0100
0001
0100
1000
0010
0000
,
0010
1000
0100
0000
1000
0100
0001
0000
,
0100
0001
0010
0000
0001
0010
1000
0000
,
0010
0001
0100
0000
0001
0100
1000
0000
,
0100
1000
0010
0000
1000
0010
0001
0000
,
0001
0001
0001
0000
1000
0000
0100
0000
,
0001
0001
0001
0000
1000
0000
0100
0000
,
0001
0001
0001
0000
1000
0000
0100
0000
,
0010
1000
0100
1000
0001
0100
0010
0000
,
1001
0000
1001
0000
0010
1000
0100
0000
,
0001
0100
0001
0000
1000
0100
1000
0000
,
0001
0100
0001
0000
1000
0100
1000
0000
,
0010
0010
0010
0000
0100
0100
0100
0000
,
1000
0100
1001
0101
,
0010
0000
0010
0000
0010
1000
0100
0000
,
0001
1000
0001
0100
0001
1000
0100
0000
,
0001
0000
1000
0000
0001
1000
0100
0000
,
0001
1000
0100
0000
1001
0000
0101
0000
,
0010
0000
0000
0000
1000
0000
0000
0000
0001
0100
0001
0000
0100
0000
0000
0000
,
0010
1000
0010
0000
1000
0000
0000
0000
0001
0100
0001
0000
0100
0000
0000
0000
,
1001
0000
1001
0000
0010
1000
0100
0000
,
0001
1000
0001
1000
0010
1000
0100
0000
,
0001
0000
0001
0000
0010
1000
0100
0000
,
0001
0000
0001
0000
0010
1000
0100
0000
,
0001
0001
0001
0000
1000
1000
1000
0000
,
0010
1000
0100
0001
0100
1000
0010
0000
,
0010
1000
0010
1000
0001
1000
0100
0000
,
1000
0100
1000
0100
0010
0001
0100
0000
,
0001
0100
0001
0100
0010
1000
0100
0000
,
1000
0001
1000
0001
0010
0001
0100
0000
,
0010
1000
0100
0000
0010
0001
0100
0000
,
0001
1000
0100
0000
1000
0001
0100
0000
,
0010
1000
0100
0010
0001
0100
1000
0000
,
0100
0001
0010
1000
0010
0001
0100
0000
,
0010
0000
0000
0000
0010
0000
0000
0000
1000
0100
1000
0000
0100
0000
0000
0000
,
0010
0000
0000
0000
0010
0000
0000
0000
0001
0100
0001
0000
0100
0000
0000
0000
,
0010
0000
0000
0000
0000
0000
0000
0000
0001
1000
0100
0000
1000
0000
0000
0000
,
0010
0000
0000
0000
0000
0000
0000
0000
1000
0001
0100
0000
0001
0000
0000
0000
,
1000
0000
0000
0000
0000
0000
0000
0000
0010
0001
0100
0000
0001
0000
0000
0000
,
0001
0000
0000
0000
0000
0000
0000
0000
0010
1000
0100
0000
1000
0000
0000
0000
,
0100
0000
0000
0000
0000
0000
0000
0000
0001
1000
0100
0000
0010
0000
0000
0000
,
0001
0000
0001
0000
1001
1001
0100
0000
,
0010
0000
0010
0000
0010
1000
0100
0000
,
0010
1000
0010
1000
0001
1000
0101
0000
,
0010
0101
0010
1100
,
0001
1000
0100
0010
0001
1100
1001
0000
,
1001
0000
1100
0000
0010
0001
0100
0000
,
0010
0001
0100
1000
0100
0001
1100
0000
,
0010
0101
0010
1100
,
0001
1000
0100
0010
0001
1100
1001
0000
,
1001
1001
0100
0000
1001
1001
0100
0000
,
0010
1000
0100
0001
0100
1000
0010
0000
,
1001
0000
1100
0000
0010
0001
0100
0000
,
0010
1000
0100
1000
0001
0100
1001
0000
,
0110
0000
1001
0000
0101
0010
1000
0000
,
1000
0100
1000
0001
0100
0010
1000
0000
,
0001
0001
1000
1000
0010
1000
0100
0000
,
0010
1000
0100
0001
0100
0000
0000
0000
,
1001
1001
0010
0000
0001
1000
0100
0000
,
1000
0001
0100
0000
0001
1000
0100
0000
,
0000
0010
0100
0000
0000
0001
1000
0000
,
0010
1000
0010
1000
0001
1000
0100
0000
,
0110
0110
0001
0000
1000
0100
1000
0000
,
0001
0100
0001
0000
1000
0100
1000
0000
,
0010
1000
0100
0000
0010
1000
0100
0000
,
0001
1000
0001
1000
0010
1000
0100
0000
,
1001
0000
0000
0000
0101
0000
0000
0000
0010
1000
0010
0000
0100
0000
0000
0000
,
0001
1000
0001
0000
0100
0000
0000
0000
0001
0000
0000
0000
1100
0000
0000
0000
,
0010
0001
0000
0000
0100
0000
0000
0000
0010
1000
0000
0000
0100
0000
0000
0000
,
1000
0100
0000
0000
0001
0000
0000
0000
0001
0100
0000
0000
1000
0000
0000
0000
,
1001
0000
1001
0000
1001
0100
0010
0000
,
0010
0100
1000
0000
1000
0100
0010
0000
,
1001
0100
0010
0000
1100
0001
0100
0000
,
1001
1001
0100
0010
0001
1000
0101
0000
,
0001
0100
0100
0000
1000
0100
0100
0000
,
0010
1000
0100
0010
0001
0000
1100
0000
,
1001
0000
0010
0001
1000
0100
0010
0000
,
0001
0001
0100
0000
1001
0000
1100
0000
,
0010
0000
1001
0000
0010
0001
0100
0000
,
0010
1000
0100
0010
0001
1000
0100
0000
,
0001
0001
0010
0100
1000
0001
0001
0100
,
0010
1000
0100
0010
0001
0001
0001
0000
,
0010
0010
0010
0001
1000
1000
1000
0100
,
0010
0010
0010
0001
1000
0100
0010
0000
,
0001
0100
0010
1000
0100
0010
0001
0001
,
1000
0100
0010
0001
0100
0010
1000
1000
,
0010
0000
0101
0000
0010
1000
0100
1000
,
0100
1000
0001
0010
0100
1000
0001
0000
,
0010
0010
1000
1000
0001
0001
0100
0100
,
0010
1000
0100
1000
0010
0000
0000
0000
,
1001
1001
0010
0000
1001
1001
0100
0000
,
0010
1000
0100
0001
0100
1000
0010
0001
,
0010
1000
0100
0010
0001
0100
1000
0100
,
0001
0010
0100
1000
0001
0100
0010
1000
,
0100
0001
0100
1000
0010
0001
0010
1000
,
0100
0010
0001
1000
0100
1000
0001
0100
,
0010
1000
0100
0010
0001
0100
0010
1000
,
0100
0010
0001
0100
1000
0100
0001
0000
,
1000
0000
0000
0100
0000
0000
0010
0000
0000
0000
1000
0000
0100
0000
0010
0000
,
0002
0003
0000
0000
;

//---------------dance-double - ----------------
#NOTEDATA:;
#CHARTNAME:;
#STEPSTYPE:dance-double;
#DESCRIPTION:;
#CHARTSTYLE:;
#DIFFICULTY:Easy;
#METER:4;
#RADARVALUES:0.316560,0.364775,0.119319,0.000000,0.000000,390.000000,369.000000,21.000000,0.000000,0.000000,0.000000,0.000000,0.000000,0.000000,0.316560,0.364775,0.119319,0.000000,0.000000,390.000000,369.000000,21.000000,0.000000,0.000000,0.000000,0.000000,0.000000,0.000000;
#CREDIT:;
#DISPLAYBPM:150.000000;
#NOTES:
00000000
00000000
00000000
00000000
,
00000000
00000000
00000000
00000000
,
00000000
00000000
00000000
00000000
,
00100000
00000000
10000000
00000000
,
01000000
00010000
00001000
00000100
,
00000001
00000010
00000001
00000100
,
00001000
00010000
00001000
00000100
,
00001000
00010000
01000000
10000000
,
00010000
01000000
10000000
01000000
,
10000000
00000000
01000000
00000000
,
00010000
00000000
00001000
00000000
,
00000100
00000000
00000001
00000000
,
00000010
00000001
00000100
00001001
,
00000001
00000100
00001000
00010000
,
01000000
10000000
00100000
00010000
,
00100000
10000000
01000000
00010000
,
00001000
00000100
00000001
00000010
,
00000001
00000001
00000100
00001001
,
00010000
00001000
00100000
01000000
,
00010000
00001000
00100000
01000000
,
00001000
00010000
00000010
00000100
,
00000001
00001000
00000001
00001001
,
00000010
00000010
00001000
00000100
,
00010000
00001000
00100000
00100000
,
01000000
10000000
01000000
00100000
,
00001000
00010000
00000010
00000010
,
00001001
00000100
00000001
00000100
,
00001000
00010000
01000000
10000000
,
00100000
00100000
10000000
10000000
,
01000000
00010000
00001000
00000100
,
00000001
00000001
00000100
00001000
,
00010000
00010000
01000000
10000000
,
00100000
00100000
10000000
01000000
,
00010000
00001000
00000100
00000001
,
00000010
00000000
00000001
00001000
,
00000100
00000000
00010000
00001000
,
00000100
00000000
00001000
00010000
,
01000000
10000000
00100000
10010000
,
00100000
10000000
01000000
01000000
,
00010000
00001000
00000100
00000001
,
00000001
00000010
00000100
00000100
,
00010000
00001000
00100000
01000000
,
10000000
00000000
00000000
00000000
,
00000001
00000000
00000000
00000000
,
00100000
00000000
00000000
00000000
,
00000100
00000000
00000000
00000000
,
10000000
00000000
00001000
00000000
,
10000000
00000000
00001000
00000000
,
00100000
00000000
00000100
00000000
,
00000010
00000000
01000000
00000000
,
00100000
00100000
10000000
01000000
,
00010000
00001000
00000001
00000100
,
00000001
00000100
00001000
00000100
,
00010000
00001000
01000000
00011000
,
00010000
01000000
10000000
00100000
,
00010000
00100000
10000000
01000000
,
00010000
00001000
00000100
00000001
,
00000010
00000001
00000100
00000100
,
00001000
00011000
00100000
11000000
,
00100000
00100000
00010000
10010000
,
00001000
00010000
00000010
00000100
,
00010000
00001000
00100000
00100000
,
00010000
10000000
01000000
10010000
,
00001000
00010000
00000010
00000100
,
00000001
00000001
00001000
00000100
,
00010000
00001000
00000100
00000000
,
00000001
00000001
00000000
00000000
,
00000100
00000100
00000000
00000000
,
00010000
00010000
10000000
10000000
,
01000000
00010000
00001000
00000100
,
00000001
00000001
00000000
00000000
,
00000100
00000100
00000000
00000000
,
00010000
00000000
00100000
00000000
,
00010000
10000000
01000000
01100000
,
00001000
00000110
00000001
00000100
,
00000010
00000010
00000100
00011000
,
00100000
00100000
01000000
01000000
,
10000000
01000000
00100000
00011000
,
00000010
00001000
00010000
00001000
,
00000010
00001000
00010000
00001000
,
00000010
00000010
00000100
00000100
,
00001000
00010000
01000000
10000000
,
00010000
00000000
10000000
00000000
,
01000000
00010000
00001000
00000110
,
00000001
00001000
00000001
00001000
,
00000010
00011000
01000000
10010000
,
00100000
10000000
11000000
00100000
,
00010000
00010000
10000000
10000000
,
01000000
01000000
00010000
00001000
,
00000100
00000001
00001000
00000000
,
00001001
00000100
00000010
00000010
,
00001000
00100000
10000000
01000000
,
00010000
00001000
00000100
00000001
,
00001000
00000100
00000001
00000010
,
00010000
00001000
00100000
01000000
,
10000000
10000000
01000000
01000000
,
00010000
00000000
00001000
00000000
,
00000100
00000001
00000010
00000000
,
00001000
00000101
00000010
00001001
,
00000100
00010000
00001000
00001000
,
00100000
00010000
10000000
01000000
,
00010000
01000000
10000000
01000000
,
01000000
00100000
00010000
00000100
,
00000001
00000001
00000010
00000010
,
00000100
00000100
00010000
00001000
,
00100000
01000000
10000000
10000000
,
00010000
01000000
10000000
01000000
,
00010000
00000000
00000000
00000000
,
00000000
00000000
00000000
00000000
;

//---------------dance-double - ----------------
#NOTEDATA:;
#CHARTNAME:;
#STEPSTYPE:dance-double;
#DESCRIPTION:;
#CHARTSTYLE:;
#DIFFICULTY:Medium;
#METER:6;
#RADARVALUES:0.432632,0.455969,0.142046,0.000000,0.000000,533.000000,508.000000,25.000000,0.000000,0.000000,0.000000,0.000000,0.000000,0.000000,0.432632,0.455969,0.142046,0.000000,0.000000,533.000000,508.000000,25.000000,0.000000,0.000000,0.000000,0.000000,0.000000,0.000000;
#CREDIT:;
#DISPLAYBPM:150.000000;
#NOTES:
00000000
00000000
00000000
00000000
,
00000000
00000000
00000000
00000000
,
00000000
00000000
00000000
00000000
,
00100000
00000000
00100000
00000000
10000000
01000000
10000000
00000000
,
01000000
00000000
00010000
00000000
00001000
00000100
00000001
00000000
,
00001000
00000000
00000100
00000000
00000001
00001000
00000100
00000000
,
00010000
00000000
00001000
00000000
00100000
00010000
01000000
00000000
,
00001000
00000000
00010000
00000000
01000000
10000000
00100000
00000000
,
00010000
00000000
01000000
00000000
10000000
01000000
00100000
00000000
,
00010000
01000000
10000000
01000000
,
00010000
00001000
00000010
00000001
,
00000100
00001000
00000100
00000001
,
00000010
00000001
00000100
00001001
,
00000001
00001000
00000100
00000000
00010000
00000000
00001000
00000000
,
00100000
00010000
01000000
00000000
00010000
00000000
10000000
00000000
,
00100000
10000000
01000000
00000000
00010000
00000000
00001000
00000000
,
00001000
00000100
00000001
00000000
00000010
00000001
00000100
00000000
,
00001001
00000000
00000000
00000000
,
00010000
00000000
00001000
00000000
00100000
00010000
01000000
00000000
,
10000000
00000000
01000000
00000000
00100000
00010000
01000000
00000000
,
00001000
00000000
00010000
00000000
00000010
00001000
00000100
00000000
,
00000001
00000000
00001000
00000000
00000001
00001000
00000100
00000000
,
00000010
00000000
00000010
00000000
00000001
00000100
00000001
00000000
,
00000100
00011000
00100000
01100000
,
01000000
00000000
10000000
00000000
01000000
00100000
00010000
00000000
,
00001000
00000000
00011000
00000000
00000010
00000001
00000100
00000000
,
00001001
00000000
00000110
00000000
00000001
00001000
00000100
00000000
,
00010000
00001000
00100000
00000000
01000000
10000000
00010000
00000000
,
00100000
00000000
00100000
00000000
10000000
01000000
10000000
00000000
,
01000000
00010000
00001000
00000000
00001000
00000100
00000001
00000000
,
00000001
00000000
00000001
00000000
00001000
00000010
00000100
00000000
,
00001000
00010000
00001000
00000000
00100000
01000000
10000000
00000000
,
00010000
00100000
01000000
00000000
10000000
00100000
01000000
00000000
,
00010000
00100000
01000000
00010000
00001000
00000100
00000001
00000000
,
00000001
00000000
00000000
00000000
00000001
00001000
00000100
00000000
,
00000100
00000000
00000000
00000000
00010000
00001000
00000100
00000000
,
00000100
00000000
00000000
00000000
00001000
00010000
01000000
00000000
,
01000000
00000000
01000000
00000000
10000000
10000000
10000000
00000000
,
00100000
00000000
10000000
00000000
01000000
00010000
01000000
00000000
,
00010000
00000000
00001000
00000000
00000100
00000001
00000100
00000000
,
00000001
00000000
00000010
00000000
00000100
00001000
00000100
00000000
,
00010000
00000000
00001000
00000000
00100000
01000000
10000000
00000000
,
10000000
00000000
00010000
00000000
10000000
01000000
00010000
00000000
,
00001000
00000000
00010000
00000000
00001000
00000100
00000001
00000000
,
00000010
00000000
00000001
00000000
00000100
00001000
00010000
00000000
,
01000000
10000000
00100000
00000000
00100000
10000000
01000000
00000000
,
00100000
00000000
00000000
00000000
00001000
00010000
00000100
00000000
,
00000010
00000000
00000000
00000000
00000001
00000100
00001000
00000000
,
00010000
00000000
00000000
00000000
01000000
10000000
00100000
00000000
,
10010000
00000000
11000000
00000000
00100000
00010000
01000000
00000000
,
10000000
00000000
11000000
00000000
00100000
00010000
01000000
00000000
,
00001000
00010000
00000100
00000000
00000010
00000001
00000100
00000000
,
00000001
00000100
00001000
00010000
,
00100000
10000000
01000000
01000000
,
10010000
00000000
01000000
00000000
00100000
00010000
01000000
00000000
,
00001000
00010000
00000100
00000000
00000001
00000100
00000001
00000000
,
00001000
00000000
00010000
01000000
,
00000000
10010000
00000000
10010000
,
00100000
10000000
01000000
00100000
00010000
00000000
00010000
00000000
,
00100000
00000000
00100000
00000000
10000000
01000000
00010000
00000000
,
00001000
00000000
00001000
00000000
00000100
00000001
00000010
00000000
,
00000100
00001000
00000100
00000000
00000100
00000001
00000100
00000000
,
00001000
00000000
00110000
00000000
00010000
10000000
01000000
00000000
,
00010000
00001000
00000100
00000100
,
00000001
00001000
00000100
00000000
00001000
00000001
00000100
00000000
,
00010000
00001000
00000100
00000000
,
00000001
00000001
00000001
00000000
00001000
00000000
00000100
00000000
,
00000100
00000100
00000100
00000000
00010000
00000000
01000000
00000000
,
10000000
10000000
10000000
00000000
00010000
00010000
00010000
00000000
,
00100000
00001000
00000100
00000001
,
00000001
00000100
00001000
00000000
00010000
00000000
01000000
00000000
,
10000000
01000000
00010000
00000000
00001000
00000000
00000100
00000000
,
00001000
00100000
01000000
10000000
,
00110000
00000000
10000000
00000000
01000000
01000000
01000000
00000000
,
00010000
00000000
00000110
00000000
00000001
00001000
00000100
00000000
,
00000001
00000000
00000001
00000000
00000100
00001000
00010000
00000000
,
01000000
11000000
00100000
01010000
,
10000000
00000000
10000000
00000000
00100000
00010000
01000000
00000000
,
00001000
00000000
00001000
00000000
00010000
00001000
01000000
00000000
,
00001000
00010000
00000100
00000000
00010000
00001000
01000000
00000000
,
00011000
00100000
00011000
00000100
,
00001000
00000000
00010000
00000000
01000000
10000000
01000000
00000000
,
00100000
00100000
01000000
01000000
,
10000000
01000000
00010000
00000000
00001000
00000000
00000110
00000000
,
00000001
00001000
00000001
00000000
00000100
00000000
00000100
00000000
,
00000010
00000000
00011000
00000000
01000000
00010000
10000000
00000000
,
00100000
00000000
10000000
00000000
10000000
00010000
01000000
00000000
,
00010000
00010000
10000000
01000000
,
00010000
00000000
00001000
00000000
00000100
00000001
00000010
00000000
,
00000100
00000000
00000100
00001000
00000001
00000000
00000000
00000000
,
00001001
00000000
00000100
00000000
00000010
00001000
00000100
00000000
,
00000001
00000100
00001000
00010000
00001000
00000100
00000001
00000000
,
00001000
00000000
00000100
00000000
00000001
00001000
00000001
00000000
,
00000100
00000000
00011000
00000000
00100000
00010000
01000000
00000000
,
00010000
00000000
00001000
00000000
00100000
00010000
01000000
00000000
,
10000000
01000000
10000000
00000000
00100000
00000000
00001000
00000000
,
00010000
00001000
00000100
00000000
00000001
00000010
00000100
00000000
,
00001000
00000000
00000001
00000010
00000100
00000000
00000000
00000000
,
00001001
00000000
00000100
00000000
00001000
00010000
01000000
00000000
,
10000000
00100000
00010000
00001000
00010000
01000000
10000000
00000000
,
00010000
00000000
01000000
00000000
10000000
00010000
10000000
00000000
,
01000000
00000000
00010000
00000000
00001000
00000000
00000100
00000100
,
00000100
00000000
00000001
00000000
00000010
00000100
00001000
00000000
,
00000001
00000000
00000001
00000000
00000010
00000100
00001000
00000000
,
00000010
00000100
00001000
00000000
00010000
01000000
10000000
00000000
,
00100000
00000000
10000000
01000000
00010000
00000000
00001000
00000000
,
00010000
01000000
10000000
01000000
,
00010000
00000000
00000000
00000000
,
00000000
00000000
00000000
00000000
;

//---------------dance-double - ----------------
#NOTEDATA:;
#CHARTNAME:;
#STEPSTYPE:dance-double;
#DESCRIPTION:;
#CHARTSTYLE:;
#DIFFICULTY:Hard;
#METER:9;
#RADARVALUES:0.586854,0.577560,0.312502,0.000000,0.056819,723.000000,668.000000,55.000000,0.000000,0.000000,0.000000,0.000000,0.000000,0.000000,0.586854,0.577560,0.312502,0.000000,0.056819,723.000000,668.000000,55.000000,0.000000,0.000000,0.000000,0.000000,0.000000,0.000000;
#CREDIT:;
#DISPLAYBPM:150.000000;
#NOTES:
00000000
00000000
00000000
00000000
,
00000000
00000000
00000000
00000000
,
00000000
00000000
00000000
00000000
,
00100000
10000000
01000000
00010000
01000000
10000000
00010000
00000000
,
00100000
10000000
01000000
00010000
00001000
00000100
00000001
00000000
,
00001001
00000000
00000101
00000000
00000010
00001000
00000100
00000000
,
00000001
00000100
00000001
00000000
00001000
00000100
00010000
00000000
,
00100000
10000000
01000000
00010000
01000000
10000000
00100000
00000000
,
00010000
00001000
00000100
00000000
00000001
00000010
00000100
00000000
,
00001001
00000100
00000010
00000000
00000101
00000100
00001000
00000000
,
00011000
00010000
01000000
00000000
10010000
01000000
00100000
00000000
,
01010000
10000000
01000000
00000000
01100000
00010000
00001000
00000000
,
00011000
00001000
00000100
00000000
00001001
00001001
00000101
00000000
,
00000010
00001000
00000100
00000001
00000100
00001000
00000010
00000000
,
00000100
00001000
00010000
01000000
10000000
00100000
00010000
00000000
,
00100000
10000000
01000000
00010000
00001000
00000010
00000001
00000000
,
00000001
00000100
00000010
00001000
00000100
00000001
00000100
00001000
,
00000100
00010000
00001000
00100000
00010000
10000000
01000000
00000000
,
10010000
00000000
11000000
00000000
00100000
00001000
00010000
00000000
,
00000010
00001000
00000100
00000000
00001000
00000001
00000100
00000000
,
00000010
00000001
00000100
00000000
00000001
00001000
00000100
00000000
,
00010000
00001000
01000000
00000000
00010000
10000000
01000000
00000000
,
11000000
00000000
10010000
00000000
01000000
00001000
00010000
00000000
,
00000010
00001000
00000100
00000000
00000001
00000100
00000001
00000000
,
00001001
00000000
00001100
00000000
00000010
00000001
00000100
00000000
,
00000010
00000001
00000100
00000000
00001001
00000000
00001001
00000000
,
00001100
00000000
00011000
00000000
00100000
00010000
01000000
00000000
,
00100000
10000000
00010000
01000000
00100000
10000000
01000000
00000000
,
01000000
00010000
00001000
00000000
00001000
00000100
00000001
00000000
,
00000001
00000010
00000100
00000000
00000100
00001000
00000001
00000000
,
00000001
00000100
00001000
00000000
00001000
00010000
01000000
00000000
,
01000000
10000000
00100000
00000000
00100000
00010000
00001000
00000000
,
00011000
00001000
00000010
00000000
00000011
00001000
00000100
00000000
,
00000001
00000100
00001000
00010000
01000000
00010000
00001000
00000000
,
00011000
00000100
00000001
00000010
,
00001001
00000100
00001000
00010000
,
10010000
10000000
01000000
00010000
,
00001000
00000100
00000001
00000010
00000100
00001000
00000010
00000000
,
00001001
00000000
00000100
00000000
00000010
00001000
00000100
00000000
,
00001100
00000000
00010000
00000000
00001000
00010000
01000000
00000000
,
11000000
00000000
00010000
00000000
00100000
10000000
01000000
00000000
,
10010000
00000000
01010000
00000000
00001000
00010000
00000100
00000000
,
00000010
00001000
00000010
00000000
00000100
00000000
00000000
00000000
00001000
00000001
00001000
00000000
00000100
00000000
00000000
00000000
,
00010000
00001000
00010000
00000000
01000000
00000000
00000000
00000000
00010000
10000000
00010000
00000000
01000000
00000000
00000000
00000000
,
00100000
00010000
00100000
00000000
00001000
00000000
00000000
00000000
00001000
00010000
00001000
00000000
00000100
00000000
00000000
00000000
,
00000001
00000100
00000001
00000000
00001000
00000000
00000000
00000000
00001000
00000010
00001000
00000000
00000001
00000000
00000000
00000000
,
00000010
00000000
00000000
00000000
00000100
00000000
00000000
00000000
00000100
00001000
00000100
00000000
00010000
00000000
00000000
00000000
,
00001000
00010000
00001000
00000000
00100000
00000000
00000000
00000000
01000000
10000000
01000000
00000000
00100000
00000000
00000000
00000000
,
00001000
00000000
00000000
00000000
00010000
00000000
00000000
00000000
00000100
00001000
00000100
00000000
00000010
00000000
00000000
00000000
,
00000001
00000100
00001000
00010000
01000000
00010000
00001000
00000000
,
00011000
00000000
00000000
00000000
00011000
00000000
00000000
00000000
00000010
00001000
00000100
00000000
00001000
00000000
00000000
00000000
,
00001000
00000001
00000100
00000000
00000010
00000000
00000000
00000000
00001001
00000000
00000000
00000000
00000101
00000000
00000000
00000000
,
00000001
00001000
00000100
00000000
00010000
00000000
00000000
00000000
00001000
00100000
00010000
00000000
01000000
00000000
00000000
00000000
,
00100000
10000000
01000000
00000000
00100000
00000000
00000000
00000000
10010000
00000000
00000000
00000000
01010000
00000000
00000000
00000000
,
00100000
01000000
00010000
10000000
01000000
00010000
00001000
00000000
,
00000100
00000001
00001000
00000100
00000010
00000001
00000100
00000000
,
00001000
00010000
01000000
00100000
00010000
10000000
01000000
00000000
,
00100000
00010000
01000000
00000000
00001000
00010000
00000100
00000000
,
00001000
00000001
00000000
00000000
00000100
00000000
00000000
00000000
00000001
00001000
00000000
00000000
00000100
00000000
00000000
00000000
,
00000010
00000001
00000100
00001000
00010000
00001000
00000100
00000000
,
00001000
00010000
01000000
00000000
10000000
00100000
00010000
00000000
,
00001000
00010000
00001000
00000100
00000001
00000010
00000100
00000000
,
00001000
00000001
00000100
00000000
00000010
00001000
00000100
00000000
,
00010000
00001000
00010000
01000000
10000000
00100000
01000000
00000000
,
00100000
10000000
01000000
00010000
00001000
00000100
00000001
00000010
,
00000100
00001000
00000010
00010000
00001000
01000000
00010000
00000000
,
10000000
00010000
01000000
00000000
00100000
10000000
01000000
00000000
,
00100000
00001000
00010000
00000000
00001000
00010000
00000100
00000000
,
00000010
00000001
00000100
00000000
00001000
00010000
01000000
00000000
,
00100000
00010000
01000000
00001000
00010000
00001000
00000100
00000000
,
00001001
00001001
00001100
00000000
00000010
00010000
00001000
00000000
,
00001000
00010000
01000000
00000000
10000000
00100000
01000000
00000000
,
10000000
01000000
00010000
00000000
00001000
00000100
00000001
00000000
,
00000010
00001000
00010000
00100000
00010000
00001000
01000000
00000000
,
10010000
00000000
11000000
00000000
00100000
00010000
01000000
00000000
,
00001000
00010000
00000100
00000000
00000001
00000010
00000100
00000000
,
00000010
00000001
00000100
00000000
00001000
00010000
01000000
00000000
,
10000000
01000000
00100000
00010000
00100000
00001000
00010000
00000000
,
00000010
00001000
00000100
00000000
00000001
00000100
00001000
00000000
,
00001000
00010000
01000000
00100000
00010000
10000000
01000000
00000000
,
10000000
00010000
01000000
00000000
00100000
10000000
01000000
00000000
,
00100000
00010000
01000000
10000000
01000000
00010000
01000000
00000000
,
01010000
00001000
00010000
00000000
00011000
00000100
00001000
00000000
,
00000001
00001000
00000100
00000010
00000001
00000100
00001000
00000000
,
00010000
01000000
10000000
00100000
10000000
01000000
00010000
00001000
,
00000100
00000001
00000010
00000100
00001000
00000001
00000100
00000000
,
00001001
00000000
00000110
00000000
00010000
00000010
00001000
00000000
,
00000001
00000100
00001000
00010000
00001000
00010000
01000000
00000000
,
00100000
00001000
00010000
00001000
00000100
00000001
00000010
00000100
,
00001000
00100000
10000000
01000000
00010000
00001000
00000100
00000000
,
00000101
00001000
00000010
00000000
00001010
00010000
00001000
00000000
,
00000010
00001000
00010000
00001000
00100000
00001000
00010000
00000000
,
00100000
10000000
00010000
01000000
00100000
01000000
00010000
10000000
,
01000000
00010000
00001000
00000100
00000001
00000001
00000001
00000000
,
00000011
00000000
00001001
00000000
00000010
00001000
00000100
00000000
,
00000001
00000100
00001000
00010000
01000000
10000000
10000000
00000000
,
00100000
00010000
00001000
00000010
00000001
00000100
00001000
00010000
,
01000000
10000000
00100000
00010000
00001000
00000010
00000001
00000000
,
00001001
00000100
00000010
00000000
00000110
00001000
00000010
00000000
,
00000001
00000100
00001000
00010000
00001000
00000100
00000001
00000000
,
00000010
00000100
00001000
00000001
00000100
00001000
00010000
01000000
,
10000000
00100000
00010000
00100000
10000000
01000000
00010000
00000000
,
00011000
00000000
00001100
00000000
00000010
00000001
00000100
00000000
,
00000010
00001000
00000100
00010000
00001000
00000100
00000001
00000000
,
00000010
00000001
00000100
00001000
00010000
01000000
00100000
00010000
,
10000000
01000000
00010000
00001000
00000100
00000001
00000010
00000000
,
00000001
00000000
00000000
00000100
00000000
00000000
00001000
00000000
00000000
00000000
00010000
00000000
01000000
00000000
10000000
00000000
,
00100000
00000000
00000000
00000000
,
00000000
00000000
00000000
00000000
;

//---------------dance-single - ----------------
#NOTEDATA:;
#CHARTNAME:;
#STEPSTYPE:dance-single;
#DESCRIPTION:;
#CHARTSTYLE:;
#DIFFICULTY:Challenge;
#METER:16;
#RADARVALUES:0.766238,0.975006,0.676140,0.227274,0.474435,944.000000,825.000000,119.000000,40.000000,0.000000,0.000000,0.000000,0.000000,0.000000,0.766238,0.975006,0.676140,0.227274,0.474435,944.000000,825.000000,119.000000,40.000000,0.000000,0.000000,0.000000,0.000000,0.000000;
#CREDIT:;
#DISPLAYBPM:150.000000;
#NOTES:
// measure 0
0000
0000
0000
0000
,  // measure 1
0000
0000
0000
0000
,  // measure 2
0000
0000
0000
0000
,  // measure 3
0011
0000
0010
0100
1000
0000
0001
0010
0100
0000
0010
0100
1000
0000
0001
0000
,  // measure 4
1001
0000
0000
0000
1001
0000
0000
0000
1001
0000
0000
0000
1000
0100
0010
0001
,  // measure 5
1000
0001
0000
0100
0001
0000
1000
0010
0000
1000
0001
0000
0100
0000
0001
0000
,  // measure 6
0010
0001
0000
1000
0001
0000
1000
0010
0000
0100
0001
0000
1000
0001
0100
0000
,  // measure 7
0001
0010
0000
0100
1000
0000
0001
0100
0000
0010
1000
0000
0100
0000
1000
0000
,  // measure 8
0010
1000
0000
0001
1000
0000
0100
1000
0000
0010
0100
0000
0010
0001
0010
0000
,  // measure 9
0001
0010
0001
0010
0100
1000
0100
1000
,  // measure 10
0020
0130
0002
0013
0000
0110
0000
1010
,  // measure 11
0100
0001
0100
0001
1000
0010
1000
0010
,  // measure 12
1000
0000
0100
0000
0010
0000
0001
0000
0100
0000
1000
0001
0100
0000
0010
0000
,  // measure 13
0011
0001
0011
0001
0101
0001
0101
0001
,  // measure 14
0011
0001
0101
0001
0011
0001
0101
0000
,  // measure 15
1010
1000
1010
1000
1100
1000
1100
1000
,  // measure 16
1010
1000
1100
1000
1010
1000
1100
0000
,  // measure 17
2002
0000
0000
3003
,  // measure 18
1000
0001
0100
0000
0010
0000
1000
0000
0001
0010
0100
0000
1000
0000
0001
0000
,  // measure 19
1000
0010
0100
0000
0001
0000
1000
0100
0010
0000
0001
0000
0200
0000
0310
0000
,  // measure 20
0001
0010
0100
0000
1000
0000
0010
0000
0100
0010
1000
0000
0010
0000
0100
0000
,  // measure 21
0001
1000
0100
0000
0010
0000
0001
0010
0100
0000
1000
0000
0020
0000
0030
0000
,  // measure 22
0001
1000
0010
0000
1000
0000
0001
0000
1000
0001
0010
0000
0100
0000
1000
0000
,  // measure 23
0001
0100
0010
0000
1000
0000
0001
1000
0100
0000
0010
0000
0002
0000
1003
0001
,  // measure 24
0100
0001
0010
0000
1000
0000
0001
0000
0010
0100
0001
0000
1000
0000
0001
0000
,  // measure 25
1000
0100
0010
0000
0001
0000
0100
0010
1000
0000
0001
0000
2000
0000
3100
0000
,  // measure 26
1000
0010
0100
0000
0110
0000
0000
0000
0001
0100
0010
0000
0110
0000
0000
0000
,  // measure 27
1000
0000
0100
0000
0001
0000
0100
1000
0010
0000
0100
0000
0110
0000
0100
0000
,  // measure 28
0010
1000
0001
0000
0011
0000
0000
0000
0100
0001
0010
0000
1010
0000
0000
0000
,  // measure 29
0010
0000
0001
0000
0010
0000
1000
0100
0010
0000
0001
0000
0101
0000
0100
0000
,  // measure 30
0010
1000
0100
0000
0101
0000
0000
0000
0001
1000
0010
0000
1010
0000
0000
0000
,  // measure 31
1000
0000
0010
0000
0001
0000
0100
1000
0001
0000
0100
0000
0110
0000
0010
0000
,  // measure 32
1000
0010
0100
0010
1000
0000
0000
0000
0010
0100
0001
0100
0010
0000
0000
0000
,  // measure 33
1000
0010
0100
0000
0010
0100
0001
0000
1000
0100
0010
0001
1000
0100
0010
0001
,  // measure 34
2000
0001
0000
0001
,  // measure 35
0000
0000
0001
0000
0000
0001
0000
0001
,  // measure 36
0000
0001
0000
3001
,  // measure 37
0110
0000
0000
0000
0101
0000
0000
0000
1100
0000
0000
0000
1000
0010
0100
0001
,  // measure 38
1000
0001
0000
0001
0100
0000
0001
1000
0000
1000
0100
0000
0010
0000
0001
0000
,  // measure 39
1000
0001
0100
0010
1000
0002
0103
0020
,  // measure 40
1030
0001
0010
0100
1000
0100
0010
0001
,  // measure 41
1001
0000
0000
0000
0101
0000
0000
0000
0011
0000
0000
0000
0001
0100
0010
1000
,  // measure 42
0001
0000
0010
0000
1000
0000
0010
0000
0001
0000
0010
0000
1000
0000
0001
0100
,  // measure 43
0010
0000
1000
0000
0100
0000
1000
0000
0010
0000
1000
0000
0100
0000
1000
0010
,  // measure 44
0100
0000
0001
0000
0010
0000
0001
0000
0100
0000
0001
0000
0010
0000
0001
0100
,  // measure 45
0010
0000
0000
0000
1010
0000
0000
0000
0101
0000
0000
0000
1000
0100
0001
0010
,  // measure 46
0100
0000
1000
0000
0100
0000
1000
0000
0001
0000
0010
0000
0001
0000
0010
0100
,  // measure 47
1000
0000
0001
0000
1000
0000
0001
0000
0100
0000
0010
0000
0100
0000
0010
1000
,  // measure 48
0001
0000
0010
0000
0001
0000
0010
0000
1000
0000
0010
0000
1000
0000
0010
0001
,  // measure 49
1000
0000
0100
0000
1000
0000
0100
0000
0001
0000
0100
0000
0001
0000
0100
0010
,  // measure 50
1000
0001
0100
0000
0101
0000
0000
0000
0001
1000
0100
0000
1100
0000
0000
0000
,  // measure 51
1000
0010
0100
0000
0110
0000
0010
0100
0001
0000
0010
0000
0011
0000
0001
0000
,  // measure 52
1000
0001
0100
0000
0101
0000
0000
0000
0001
1000
0100
0000
1100
0000
0000
0000
,  // measure 53
1000
0000
0010
0000
0001
0000
0010
1000
0100
0000
0010
0000
0001
0000
0100
0000
,  // measure 54
0010
1000
0001
0000
1000
0000
0000
0000
0010
0001
1000
0000
0001
0000
0000
0000
,  // measure 55
1000
0001
0100
0000
0001
0000
0010
0000
0100
1000
0020
0000
0230
0000
0302
0000
,  // measure 56
1003
0001
0100
0000
0001
0000
0000
0000
0001
1000
0010
0000
0100
0000
0010
0100
,  // measure 57
0020
0000
0000
0000
1000
0000
0030
0000
1010
0000
1010
0000
0100
0001
1000
0010
,  // measure 58
0100
0001
0000
0000
0011
0000
0000
0000
0001
0010
0000
0000
1100
0000
0001
1000
,  // measure 59
0100
0000
1000
0000
0100
0000
1000
0000
0100
0000
0001
0010
0001
0000
0100
1000
,  // measure 60
0100
0000
0010
1000
0010
0000
0001
0100
0010
0000
1000
0000
0000
0000
0200
0000
,  // measure 61
0000
0000
1300
0000
0001
0000
0100
0000
0020
0000
0000
0000
1030
0001
0100
0010
,  // measure 62
1000
0010
0100
0000
0010
0100
0001
0000
0001
1000
0100
0000
0001
0010
0100
1000
,  // measure 63
0001
0000
1000
0000
0001
0000
1000
0000
0100
0000
1000
0000
0100
0000
1000
0010
,  // measure 64
0100
0000
0100
0000
1000
0000
1000
0000
1001
0000
1001
0000
0001
0010
0200
0000
,  // measure 65
1000
0000
0000
0000
1300
0000
0000
0000
1100
0000
1100
0000
1000
0100
0010
0001
,  // measure 66
1000
0001
1001
0000
0000
1001
0000
0000
,  // measure 67
0000
0101
0000
0000
0000
0000
0000
0000
,  // measure 68
0000
0010
0010
0010
0000
0100
1000
0001
,  // measure 69
0000
0000
0200
0000
0000
0000
1300
0001
0010
0100
0000
0000
0000
0000
0000
0000
,  // measure 70
1100
1010
1100
0200
0000
0300
0000
0000
,  // measure 71
0000
0000
0000
0000
0000
0000
0000
0000
0000
0000
0001
1000
0020
0000
0100
0000
,  // measure 72
0030
0001
0010
0000
1100
0000
1010
0000
,  // measure 73
0001
0100
0001
0100
0010
1000
0010
1000
0001
0100
0010
1000
0001
0100
0010
0000
,  // measure 74
0110
0110
1010
1010
,  // measure 75
0110
1010
0110
1010
,  // measure 76
0011
0011
1001
1001
,  // measure 77
0011
1001
0000
0011
0000
1001
0011
1001
,  // measure 78
0101
0101
1100
1100
,  // measure 79
0101
1100
0101
1100
,  // measure 80
0110
0110
1001
1001
,  // measure 81
0110
1001
0110
1001
,  // measure 82
0020
0130
0020
0130
,  // measure 83
0020
0130
0020
0130
,  // measure 84
0002
0013
0200
1300
,  // measure 85
0002
0013
0200
1300
,  // measure 86
2000
3010
2000
3010
,  // measure 87
2000
3100
2000
3100
,  // measure 88
1000
0100
0010
0001
0100
0010
1000
0000
,  // measure 89
1001
0110
2002
3003
,  // measure 90
0001
1000
0010
0000
1010
0000
1000
0000
0100
0010
0001
0000
0011
0000
0010
0100
,  // measure 91
1000
0000
0100
1000
0010
0000
0010
0100
0001
0000
1000
0100
0010
0001
0100
0010
,  // measure 92
1000
0000
0100
0000
1000
0000
0100
0000
0010
0000
0001
0000
0010
0000
0001
1000
,  // measure 93
0010
0000
1000
0000
0010
0000
1000
0000
0001
0000
0010
0000
0001
0010
0100
1000
,  // measure 94
0010
0000
1000
0010
0100
0000
0010
0100
0001
0000
1000
0000
0001
0000
0010
0001
,  // measure 95
1000
0000
0001
0000
1000
0000
0001
0000
0100
0000
0010
0000
0100
0000
0010
1000
,  // measure 96
0100
0000
0100
0000
0010
0000
0010
0000
0001
0010
0001
0000
0010
0100
1000
0100
,  // measure 97
0010
0001
0100
0000
0010
1000
0100
0000
0010
0001
0010
0001
1000
0100
1000
0100
,  // measure 98
0010
0001
1000
0000
0001
1000
0010
0000
0100
0010
1000
0000
0010
0100
0001
1000
,  // measure 99
0100
0000
0001
0000
0100
0000
1000
0000
0100
0000
0001
1000
0010
0000
1000
0001
,  // measure 100
0010
0000
0100
1000
0010
0000
0100
0001
0010
0000
0100
0000
1000
0000
0001
0000
,  // measure 101
0100
0000
1000
0010
0100
0000
0001
0100
0020
0000
0000
0000
1030
0001
0100
0010
,  // measure 102
1000
0000
0000
0100
1000
0000
0000
0001
0010
0000
0000
0100
1000
0001
0010
0100
,  // measure 103
1000
1000
0010
0010
0001
0001
1001
1001
,  // measure 104
1100
0101
1100
0101
0110
1010
0110
0011
,  // measure 105
1001
0110
1001
0110
2002
0000
3003
0000
,  // measure 106
0001
0010
0000
0010
0100
0000
0010
0010
0000
0010
0010
0000
0011
0000
1001
0000
,  // measure 107
2020
3030
0000
0000
;
