#VERSION:0.83;
#TITLE:DUB-I-DUB (2008 X-edit);
#SUBTITLE:;
#ARTIST:ME & MY;
#TITLETRANSLIT:;
#SUBTITLETRANSLIT:;
#ARTISTTRANSLIT:;
#GENRE:;
#ORIGIN:;
#CREDIT:;
#BANNER:DUB-I-DUB (2008 X-edit).png;
#BACKGROUND:DUB-I-DUB (2008 X-edit)-bg.png;
#PREVIEWVID:;
#JACKET:DUB-I-DUB (2008 X-edit)-jacket.png;
#CDIMAGE:;
#DISCIMAGE:;
#LYRICSPATH:;
#CDTITLE:;
#MUSIC:DUB-I-DUB (2008 X-edit).ogg;
#OFFSET:0.000000;
#SAMPLESTART:37.060001;
#SAMPLELENGTH:15.000000;
#SELECTABLE:YES;
#DISPLAYBPM:136.000000;
#BPMS:0.000=135.600,
4.000=136.000,
187.000=134.000,
188.000=136.000,
195.000=142.000,
196.000=136.000,
203.000=135.000,
204.000=136.000;
#STOPS:;
#DELAYS:;
#WARPS:;
#TIMESIGNATURES:0.000=4=4;
#TICKCOUNTS:0.000=4;
#COMBOS:0.000=1;
#SPEEDS:0.000=1.000=0.000=0;
#SCROLLS:0.000=1.000;
#FAKES:;
#LABELS:0.000=Song Start;
#BGCHANGES:;
#KEYSOUNDS:;
#ATTACKS:
;

//---------------dance-single - ----------------
#NOTEDATA:;
#CHARTNAME:;
#STEPSTYPE:dance-single;
#DESCRIPTION:;
#CHARTSTYLE:;
#DIFFICULTY:Beginner;
#METER:2;
#RADARVALUES:0.114588,0.167020,0.000000,0.000000,0.000000,76.000000,76.000000,0.000000,0.000000,0.000000,0.000000,0.000000,0.000000,0.000000,0.114588,0.167020,0.000000,0.000000,0.000000,76.000000,76.000000,0.000000,0.000000,0.000000,0.000000,0.000000,0.000000,0.000000;
#CREDIT:;
#DISPLAYBPM:136.000000;
#NOTES:
0000
0000
0000
0000
,
0000
0000
0000
0000
,
0000
0000
0000
0000
,
0000
0000
0000
0000
,
0000
0000
0000
0000
,
0001
0000
0000
0000
,
1000
0000
0000
0000
,
0001
0000
0001
0000
,
1000
0000
1000
0000
,
0001
0000
0000
0000
,
1000
0000
0000
0000
,
0001
0000
0001
0000
,
1000
0000
1000
0000
,
0001
0000
0000
0000
,
1000
0000
0000
0000
,
0010
0000
0000
0000
,
0100
0000
0000
0000
,
0001
0000
0001
0000
,
1000
0000
1000
0000
,
0010
0000
0000
0000
,
0100
0000
0000
0000
,
1000
0000
1000
0000
,
0001
0000
0001
0000
,
1000
0000
0001
0000
,
1000
1000
1000
0000
,
0001
0000
0001
0000
,
1000
0000
1000
0000
,
0001
0000
1000
0000
,
0001
0001
0001
0000
,
0010
0000
0000
0000
,
0000
0000
0000
0000
,
0100
0000
0000
0000
,
0000
0000
0000
0000
,
1000
0000
0000
0000
,
0000
0000
0000
0000
,
0001
0000
0001
0000
,
1000
0000
1000
0000
,
0001
0000
1000
0000
,
0001
0001
0001
0000
,
1000
0000
1000
0000
,
0001
0000
0001
0000
,
1000
0000
0001
0000
,
1000
1000
1000
0000
,
0001
0000
0000
0000
,
0010
0000
0000
0000
,
0100
0000
0000
0000
,
1000
0000
0000
0000
,
1000
0000
1000
0000
,
0001
0000
0001
0000
,
1000
0000
0001
0000
,
1000
1000
1000
0000
,
0010
0000
0000
0000
,
0000
0000
0000
0100
,
0000
0000
0000
0000
;

//---------------dance-single - ----------------
#NOTEDATA:;
#CHARTNAME:;
#STEPSTYPE:dance-single;
#DESCRIPTION:;
#CHARTSTYLE:;
#DIFFICULTY:Easy;
#METER:7;
#RADARVALUES:0.333211,0.501061,0.506602,0.221638,0.000000,221.000000,173.000000,48.000000,21.000000,0.000000,0.000000,0.000000,0.000000,0.000000,0.333211,0.501061,0.506602,0.221638,0.000000,221.000000,173.000000,48.000000,21.000000,0.000000,0.000000,0.000000,0.000000,0.000000;
#CREDIT:;
#DISPLAYBPM:136.000000;
#NOTES:
0000
0000
0000
0000
,
0000
0000
0000
0000
,
0000
0000
0000
0000
,
0000
0000
0000
0000
,
0000
0000
0000
0000
,
0020
0000
1030
0000
,
0200
0000
0301
0000
,
0010
0010
1000
1000
,
0100
0100
0010
1001
,
0020
0000
0130
0000
,
0200
0000
0310
0000
,
0001
0001
1000
1000
,
0001
1000
0100
1001
,
1000
1000
0100
1001
,
0001
0001
0100
1001
,
1000
1000
0001
0001
,
1000
0001
1000
1001
,
0010
0010
0100
0100
,
0010
0101
0010
1100
,
0001
0100
1000
0100
,
0100
0011
0100
1010
,
0010
0010
0100
0100
,
0010
0100
0010
1001
,
0101
0101
1100
1100
,
0011
0101
1001
0101
,
0010
0000
0100
0000
2000
0001
3001
0000
,
1000
0000
0100
0000
0020
0001
0031
0000
,
1100
1100
0101
1100
,
0001
0000
1000
0000
0200
0001
0301
0000
,
0020
0000
0000
0000
,
0200
0000
0030
1300
,
0002
0000
2000
3003
,
0001
0100
1000
0100
,
2000
0000
0002
3003
,
1000
0100
0001
1001
,
0010
0010
0100
0100
,
0010
0100
0010
1001
,
1100
1100
0101
0101
,
1010
1100
1001
1100
,
0010
0000
0100
0000
0002
1000
1003
0000
,
0001
0000
0100
0000
0020
1000
1030
0000
,
0101
0101
1100
0101
,
1000
0000
0001
0000
0200
1000
1300
0000
,
0020
0000
1030
0000
,
0200
0000
0301
0100
,
0020
0000
0031
0000
,
0100
0000
0101
0101
,
0010
0010
0100
0100
,
0010
0100
0010
1001
,
0101
0101
1100
1100
,
0011
0101
1001
0101
,
0020
0000
0200
0330
,
0010
1000
0001
0101
,
0000
0000
0000
0000
;

//---------------dance-single - ----------------
#NOTEDATA:;
#CHARTNAME:;
#STEPSTYPE:dance-single;
#DESCRIPTION:;
#CHARTSTYLE:;
#DIFFICULTY:Medium;
#METER:9;
#RADARVALUES:0.425184,0.556734,0.453831,0.189976,0.000000,282.000000,239.000000,43.000000,18.000000,0.000000,0.000000,0.000000,0.000000,0.000000,0.425184,0.556734,0.453831,0.189976,0.000000,282.000000,239.000000,43.000000,18.000000,0.000000,0.000000,0.000000,0.000000,0.000000;
#CREDIT:;
#DISPLAYBPM:136.000000;
#NOTES:
0000
0000
0000
0000
,
0000
0000
0000
0000
,
0000
0000
0000
0000
,
0000
0000
0000
0000
,
0000
0000
0000
0000
,
0100
0001
0100
0000
0010
1000
0010
0000
,
0100
0001
0100
0000
0010
1000
0010
0000
,
1000
0010
1000
0010
1000
0100
1000
0100
,
1000
0001
0100
0001
0200
0001
0301
0000
,
0010
1000
1000
0000
1000
0100
0100
0000
,
0100
0001
0001
0000
0001
0010
0010
0000
,
0001
0010
0001
0010
0001
0100
0001
0100
,
0001
1000
0100
1000
0200
1000
1300
0000
,
0001
0002
1003
2000
,
3001
0010
1000
0010
,
0002
0100
0103
0000
2000
0100
3100
0000
,
0002
0100
0103
0000
2000
0100
3100
0000
,
0010
0001
0100
0000
0001
0010
0001
0000
,
0010
1000
0100
0000
1000
0100
1000
0000
,
0020
1000
0130
0101
,
0020
0001
0130
1100
,
0010
0000
0010
0000
0100
1000
0100
0000
,
0010
0000
0010
0000
0100
0001
0100
0000
,
0101
0101
1100
1100
,
0110
0000
1001
0000
0001
0100
1000
0000
,
0010
0000
0010
0000
0100
0001
0100
0000
,
0010
0000
0010
0000
0100
1000
0100
0000
,
1100
1100
0101
0101
,
0110
0000
1001
0000
1000
0100
0001
0000
,
0020
0000
0000
0000
,
0200
0000
0030
0301
,
1010
0000
0101
0000
1000
0001
0100
0000
,
1000
0100
0001
0100
,
0011
0000
1100
0000
0001
1000
0100
0000
,
0001
0100
1000
1001
,
0010
0000
0010
0000
0100
1000
0100
0000
,
0010
0000
0010
0000
0100
0001
0100
0000
,
0101
0101
1100
1100
,
0110
0000
1001
0000
0001
0100
1000
0000
,
1000
0000
1000
0000
0010
0001
0100
0000
,
0001
0000
0001
0000
0010
1000
0100
0000
,
0011
1100
1010
0101
,
0110
0000
1001
0000
1000
0100
0001
0000
,
0001
0100
0002
0000
0103
1000
0200
0000
,
1300
0010
2000
0000
3010
0000
0001
0000
,
0001
0100
0002
0000
0103
1000
0200
0000
,
1300
0010
2000
0000
3010
0000
1001
0000
,
0010
0000
0010
0000
0100
1000
0100
0000
,
0010
0000
0010
0000
0100
0001
0100
0000
,
0101
0101
1100
1100
,
0110
0000
1001
0000
0110
1001
0110
0000
,
0101
0000
0101
0000
,
0010
0000
0001
0000
0001
0100
1000
0000
,
0000
0000
0000
0000
;

//---------------dance-single - ----------------
#NOTEDATA:;
#CHARTNAME:;
#STEPSTYPE:dance-single;
#DESCRIPTION:;
#CHARTSTYLE:;
#DIFFICULTY:Hard;
#METER:12;
#RADARVALUES:0.526202,0.612408,0.686023,0.137205,0.137205,349.000000,284.000000,65.000000,13.000000,0.000000,0.000000,0.000000,0.000000,0.000000,0.526202,0.612408,0.686023,0.137205,0.137205,349.000000,284.000000,65.000000,13.000000,0.000000,0.000000,0.000000,0.000000,0.000000;
#CREDIT:;
#DISPLAYBPM:136.000000;
#NOTES:
0000
0000
0000
0000
,
0000
0000
0000
0000
,
0000
0000
0000
0000
,
0000
0000
0000
0000
,
0000
0000
0000
0000
,
0100
0001
0101
0000
0010
1000
1100
0000
,
0100
0001
0100
0000
1010
0000
0101
0000
,
0010
1000
0100
0010
0001
0100
0010
1000
,
0100
0010
0001
0100
0020
1000
1030
0000
,
0010
1001
0100
0000
1000
0110
0001
0000
,
0020
0001
0031
0000
0020
1000
1030
0000
,
0010
0001
0100
0010
1000
0100
0010
0001
,
0100
0010
1000
0100
0020
0001
0031
0000
,
0001
1100
1000
0101
,
0002
1000
1003
0000
2000
0001
3001
0000
,
0020
0001
0031
0000
0200
1000
1300
0000
,
0010
1001
0010
1001
,
0010
1001
1100
0000
0010
1001
0101
0000
,
0010
1000
0100
0000
0010
0001
0100
0000
,
0010
0000
1000
0000
0100
0001
1100
0000
,
0010
0000
0001
0000
0100
1000
1001
0000
,
0110
0000
1001
0000
1100
0001
0001
0000
,
1001
0000
0110
0000
0011
1000
1000
0000
,
0101
0000
0101
0000
1100
0001
0100
0000
,
0110
0000
1001
0000
0110
0001
1000
0000
,
0010
0000
1000
0010
0000
0100
0001
0100
0010
0000
1010
0000
1010
0000
0000
0000
,
0001
0000
0010
0001
0000
1000
0100
1000
0010
0000
0000
0000
1001
0000
0000
0000
,
0010
0000
0001
0010
0000
0100
1000
0100
0010
0000
0011
0000
0011
0000
0000
0000
,
0100
0100
1000
1000
0010
0100
0001
0000
,
0020
0000
0000
0000
,
0200
0000
0030
1300
,
0010
0000
1000
0010
0000
1000
0020
0000
0130
0000
0001
0000
0100
0000
0000
0000
,
1000
0100
0001
0100
,
0010
0000
0001
0010
0000
0001
0020
0000
0130
0000
1000
0000
0100
0000
0000
0000
,
0001
0100
2000
3001
,
0110
0000
1001
0000
0101
1000
1000
0000
,
1001
0000
0110
0000
1010
0001
0001
0000
,
1100
0000
1100
0000
0101
1000
0100
0000
,
0110
0000
1001
0000
0110
1000
0001
0000
,
0010
0000
0001
0010
0000
0100
1000
0100
0010
0000
0011
0000
0011
0000
0000
0000
,
1000
0000
0010
1000
0000
0001
0100
0001
0010
0000
0000
0000
1001
0000
0000
0000
,
0010
0000
1000
0010
0000
0100
0001
0100
0010
0000
1010
0000
1010
0000
0000
0000
,
0100
0100
0001
0001
0010
0100
1000
0000
,
0010
0010
1000
1000
,
0001
0000
0000
0000
0001
0000
0000
0000
0100
1000
0000
0000
0001
0000
0000
0000
,
0010
1000
0000
0000
0001
0000
0000
0000
0100
1000
0000
0000
0001
0000
0000
0000
,
0010
1000
0000
0000
0001
0000
0000
0000
0100
0000
0100
0000
0100
0000
0000
0000
,
1010
0000
0110
0000
0101
1000
0100
0000
,
0011
0000
0110
0000
1100
0001
0100
0000
,
0101
0000
0101
0000
1100
0010
0101
0000
,
0110
0000
1001
0000
0110
1001
0110
0000
,
0010
1000
0001
0010
1000
0100
0010
1000
,
0001
0010
0100
0001
1000
0100
0100
0000
,
0000
0000
0000
0000
;

//---------------dance-single - ----------------
#NOTEDATA:;
#CHARTNAME:;
#STEPSTYPE:dance-single;
#DESCRIPTION:;
#CHARTSTYLE:;
#DIFFICULTY:Challenge;
#METER:7;
#RADARVALUES:0.287979,0.417551,0.422168,0.158313,0.000000,191.000000,151.000000,40.000000,15.000000,112.000000,0.000000,0.000000,0.000000,0.000000,0.287979,0.417551,0.422168,0.158313,0.000000,191.000000,151.000000,40.000000,15.000000,112.000000,0.000000,0.000000,0.000000,0.000000;
#CREDIT:;
#DISPLAYBPM:136.000000;
#NOTES:
0000
0000
0000
0000
,
0000
0000
0000
0000
,
0000
0000
0000
0000
,
0000
0000
0000
0000
,
0000
0000
0000
0000
,
0020
0000
1030
MMMM
,
0200
0000
0301
MMMM
,
0010
0010
1000
1000
,
0100
0100
0010
MMMM
,
0020
0000
0130
MMMM
,
0200
0000
0310
MMMM
,
0001
0001
1000
1000
,
0001
1000
0100
MMMM
,
1000
1000
0100
1001
,
0001
0001
0100
1001
,
1000
MMMM
0001
MMMM
,
1000
0001
1000
1001
,
0010
0010
0100
0100
,
0010
0101
0010
1100
,
0001
MMMM
1000
MMMM
,
0100
0011
0100
1010
,
0010
0010
0100
0100
,
0010
0100
0010
MMMM
,
0101
0101
1100
1100
,
0011
0101
MMMM
0101
,
0010
0000
0100
0000
1000
0001
MMMM
0000
,
1000
0000
0100
0000
0010
0001
MMMM
0000
,
1100
1100
0101
1100
,
0001
0000
1000
0000
0100
0001
MMMM
0000
,
0020
0000
0000
0000
,
0200
0000
0030
1300
,
0002
0000
2000
3003
,
MMMM
0100
MMMM
0100
,
2000
0000
0002
3003
,
MMMM
0100
MMMM
1001
,
0010
0010
0100
0100
,
0010
0100
0010
MMMM
,
1100
1100
0101
0101
,
1010
1100
MMMM
1100
,
0010
0000
0100
0000
0001
1000
MMMM
0000
,
0001
0000
0100
0000
0010
1000
MMMM
0000
,
0101
0101
1100
0101
,
1000
0000
0001
0000
0100
1000
MMMM
0000
,
0020
0000
1030
MMMM
,
0200
0000
0301
0100
,
0020
0000
0031
MMMM
,
0100
0000
0101
0101
,
0010
0010
0100
0100
,
0010
0100
0010
MMMM
,
0101
0101
1100
1100
,
0011
0101
MMMM
0101
,
0020
0000
0200
0330
,
0010
1000
0001
0101
,
0000
0000
0000
0000
;

//---------------dance-double - ----------------
#NOTEDATA:;
#CHARTNAME:;
#STEPSTYPE:dance-double;
#DESCRIPTION:;
#CHARTSTYLE:;
#DIFFICULTY:Easy;
#METER:7;
#RADARVALUES:0.354320,0.501061,0.591035,0.158313,0.000000,235.000000,179.000000,56.000000,15.000000,0.000000,0.000000,0.000000,0.000000,0.000000,0.354320,0.501061,0.591035,0.158313,0.000000,235.000000,179.000000,56.000000,15.000000,0.000000,0.000000,0.000000,0.000000,0.000000;
#CREDIT:;
#DISPLAYBPM:136.000000;
#NOTES:
00000000
00000000
00000000
00000000
,
00000000
00000000
00000000
00000000
,
00000000
00000000
00000000
00000000
,
00000000
00000000
00000000
00000000
,
00000000
00000000
00000000
00000000
,
21000000
00000000
30010000
00000000
,
02000000
00000000
13000000
00000000
,
01000000
00010000
00000100
00000001
,
00000100
00001000
00001001
00000001
,
00000102
00000000
00001003
00000000
,
00000200
00000000
00000301
00000000
,
00000100
00001000
01000000
10000000
,
01000000
00010000
10010000
10000000
,
00110000
00110000
01010000
01010000
,
00001010
00001010
00001100
00001100
,
00001010
00001100
00001010
00001100
,
00110000
01010000
00110000
01010000
,
10000000
01000000
00001000
00000001
,
00000010
00000100
00010000
10000000
,
00010000
01000000
00001000
00000001
,
00000100
00001000
10000000
10010000
,
00100000
00100000
11000000
01010000
,
00000100
00001000
00001100
00000101
,
00000010
00000010
00001000
00000100
,
00000101
00001100
01010000
11000000
,
00100000
00000000
00010000
00000000
00002000
00010000
00013000
00000000
,
00000010
00000000
00001000
00000000
00020000
00001000
00031000
00000000
,
00100000
00000000
10000000
00000000
00020000
01000000
01030000
00000000
,
00001000
00000000
00000010
00000000
00000002
00000100
00000103
00000000
,
00000110
00000000
00000000
00000000
,
00020000
00000000
00000000
00031000
,
00000010
00000010
00000100
00000100
,
00000010
00000001
00000100
00001000
,
00100000
00100000
01000000
01000000
,
00100000
10000000
01000000
00011000
,
00000010
00000010
00000101
00001100
,
01000000
00010000
01010000
11000000
,
00100000
00100000
00010000
01000000
,
11000000
01010000
00001100
00000101
,
00000010
00000000
00001000
00000000
00020000
00001000
00031000
00000000
,
00100000
00000000
00010000
00000000
00002000
00010000
00013000
00000000
,
00000010
00000000
00000001
00000000
00002000
00000100
00003100
00000000
,
00010000
00000000
00100000
00000000
20000000
01000000
31000000
00000000
,
00020000
00000000
00030010
00000000
,
00000200
00000000
00010300
01000000
,
01010000
00000000
00001010
00000000
,
11000000
00000000
00010000
00010000
,
00100000
00100000
11000000
01010000
,
00000100
00001000
00001100
00000101
,
00000010
00000010
00001000
00000100
,
00000101
00001100
01010000
11000000
,
10010000
00000000
01010000
00000000
,
00110000
00011000
00001010
00001100
,
00000000
00000000
00000000
00000000
;

//---------------dance-double - ----------------
#NOTEDATA:;
#CHARTNAME:;
#STEPSTYPE:dance-double;
#DESCRIPTION:;
#CHARTSTYLE:;
#DIFFICULTY:Medium;
#METER:11;
#RADARVALUES:0.480970,0.528897,0.918216,0.031663,0.000000,319.000000,232.000000,87.000000,3.000000,0.000000,0.000000,0.000000,0.000000,0.000000,0.480970,0.528897,0.918216,0.031663,0.000000,319.000000,232.000000,87.000000,3.000000,0.000000,0.000000,0.000000,0.000000,0.000000;
#CREDIT:;
#DISPLAYBPM:136.000000;
#NOTES:
00000000
00000000
00000000
00000000
,
00000000
00000000
00000000
00000000
,
00000000
00000000
00000000
00000000
,
00000000
00000000
00000000
00000000
,
00000000
00000000
00000000
00000000
,
00100000
10000000
01000000
00000000
00100000
00010000
01000000
00000000
,
00000010
00001000
00000100
00000000
00000010
00000001
00000100
00000000
,
00000011
00000101
00001100
00011000
,
01010000
00000000
11000000
00000000
10010000
01000000
01000000
00000000
,
00100000
01000000
00001000
00000001
,
00000010
00000100
00010000
10000000
,
00100000
10000000
01000000
00100000
00010000
01000000
00001000
00100000
,
00001000
00010000
00000010
00001000
00000001
00000100
00000100
00000000
,
00000001
00000001
00001000
00001000
,
00010000
00010000
10000000
10000000
,
00100000
00010000
00010000
00000000
00000010
00001000
00001000
00000000
,
01000000
00010000
00010000
00000000
00000010
00001000
00001000
00000000
,
00001001
00010000
00001001
00010000
,
10010000
00000000
00001000
00000000
00011000
00000100
00000100
00000000
,
00000011
00001000
00000100
00001001
,
00011000
01010000
11000000
10100000
,
01000000
00000000
11000000
00000000
11000000
00010000
01010000
00000000
,
00000100
00000000
00001100
00000000
00001100
00000001
00000101
00000000
,
00001100
00001100
01010000
01010000
,
10000000
00000000
01000000
00000000
00100000
00010000
00001000
00000000
,
01100000
00000000
10010000
00000000
11000000
00010000
00001000
00000000
,
00000110
00000000
00001001
00000000
00000101
00001000
00010000
00000000
,
11000000
00000000
11000000
00000000
00010000
00001000
00000010
00000000
,
00000101
00000000
00000101
00000000
00001000
00010000
00100000
00000000
,
20020000
00000000
00000000
30030000
,
02000000
00000000
00000000
03100000
,
10100000
00000000
01010000
00000000
00100000
00001000
00010000
00000000
,
00000010
00000001
00000100
00001000
,
00000011
00000000
00001100
00000000
00000010
00010000
00001000
00000000
,
00100000
10000000
01000000
10010000
,
01000000
00000000
11000000
00000000
11000000
00010000
01010000
00000000
,
00000100
00000000
00001100
00000000
00001100
00000001
00000101
00000000
,
00001100
00001100
01010000
01010000
,
10000000
00000000
01000000
00000000
00100000
00010000
00001000
00000000
,
01100000
00000000
10010000
00000000
11000000
00010000
00001000
00000000
,
00000110
00000000
00001001
00000000
00000101
00001000
00010000
00000000
,
11000000
00000000
11000000
00000000
00010000
00001000
00000010
00000000
,
00000101
00000000
00000101
00000000
00001000
00010000
00100000
00000000
,
00110000
00010000
01000000
00000000
00011000
00001000
00000010
00000000
,
00001001
00000001
00000100
00000000
00000001
00000010
00000001
00000100
,
00000001
00000001
00001001
00000000
00001000
00001000
00011000
00000000
,
00010000
00010000
10010000
00000000
10000000
00000000
10010000
00000000
,
01010000
01010000
11000000
11000000
,
01100000
00000000
01010000
00000000
00001100
00000001
00000100
00000000
,
00000100
00000000
00000101
00000000
00000101
00001000
00001100
00000000
,
01000000
00000000
01010000
00000000
01010000
10000000
11000000
00000000
,
11000000
00100000
00011000
00000100
,
00010010
00000000
01001000
00000000
00100000
00001000
00000100
00000000
,
00000000
00000000
00000000
00000000
;

//---------------dance-double - ----------------
#NOTEDATA:;
#CHARTNAME:;
#STEPSTYPE:dance-double;
#DESCRIPTION:;
#CHARTSTYLE:;
#DIFFICULTY:Hard;
#METER:13;
#RADARVALUES:0.508109,0.556734,0.158313,0.189976,0.221638,337.000000,322.000000,15.000000,18.000000,0.000000,0.000000,0.000000,0.000000,0.000000,0.508109,0.556734,0.158313,0.189976,0.221638,337.000000,322.000000,15.000000,18.000000,0.000000,0.000000,0.000000,0.000000,0.000000;
#CREDIT:;
#DISPLAYBPM:136.000000;
#NOTES:
00000000
00000000
00000000
00000000
,
00000000
00000000
00000000
00000000
,
00000000
00000000
00000000
00000000
,
00000000
00000000
00000000
00000000
,
00000000
00000000
00000000
00000000
,
00001000
00000000
00010000
00001000
00010000
00000000
00000000
00000000
00100000
00000000
10000000
01000000
10000000
00000000
00000000
00000000
,
00010000
00000000
00001000
00010000
00001000
00000000
00000000
00000000
00000010
00000000
00000001
00000100
00000001
00000000
00000000
00000000
,
00000001
00000100
00001000
00000100
00000001
00000100
00001000
00010000
,
01000000
10000000
01000000
00010000
00002000
00010000
00013000
00000000
,
00000010
00000000
00000001
00000100
00000010
00000000
00000000
00000000
00010000
00000000
00001000
00100000
00010000
00000000
00000000
00000000
,
00100000
00000000
01000000
10000000
00100000
00000000
00000000
00000000
01000000
00000000
00100000
00010000
00001000
00000000
00000000
00000000
,
00000010
00000001
00000010
00000100
00001000
00000001
00000100
00001000
,
00010000
01000000
10000000
00100000
00020000
00001000
00031000
00000000
,
00000010
00000001
00000100
00000000
00000010
00001000
00000100
00000000
,
00000001
00001001
00010000
10010000
,
00200000
01000000
01300000
00000000
00100000
10000000
01000000
00000000
,
00020000
00001000
00031000
00000000
00000100
00000001
00000010
00000000
,
00000001
00000100
00010000
00100000
,
10000000
01000000
00100000
00000000
00010000
01000000
00100000
00000000
,
10010000
01100000
00011000
00000110
,
00000001
00000100
00000010
00001000
00000100
00000000
00001001
00000000
,
00000010
00000000
00010000
00001000
00000000
00100000
00010000
10000000
00200000
00000000
01000000
00000000
01300000
00000000
00000000
00000000
,
00100000
00000000
00010000
00001000
00000000
00000100
00000001
00000010
00000100
00000000
00000000
00000000
00001001
00000000
00000000
00000000
,
00000010
00000001
00000010
00000001
00000100
00001000
00000100
00001000
,
00010000
00001000
00000010
00001000
00010000
00100000
10000000
00000000
,
00010000
00000000
10000000
01000000
00000000
00100000
01000000
10000000
00200000
00000000
00010000
00000000
00310000
00000000
00000000
00000000
,
00001000
00000000
00000100
00000001
00000000
00000010
00000100
00001000
00000010
00000000
00000000
00000000
00001001
00000000
00000000
00000000
,
00000010
00010000
00000010
00010000
00001000
00100000
00001000
00100000
,
01000000
10000000
01000000
10000000
00200000
01000000
01300000
00000000
,
10010000
00000000
00000000
00000000
,
00200000
00000000
00000000
01300000
,
00100000
00000000
00010000
01000000
00000000
00001000
00010000
00000000
00100000
00000000
10000000
00000000
01000000
00000000
00000000
00000000
,
00010000
00001000
00000100
00000001
,
00000010
00000000
00001000
00000100
00000000
00010000
00001000
00000000
00000010
00000000
00000001
00000000
00000100
00000000
00000000
00000000
,
00001000
00010000
01000000
10010000
,
00100000
00000000
00001000
00010000
00000000
00000010
00001000
00000001
00000020
00000000
00000100
00000000
00000130
00000000
00000000
00000000
,
00000010
00000000
00001000
00010000
00000000
01000000
10000000
00100000
01000000
00000000
00000000
00000000
10010000
00000000
00000000
00000000
,
00100000
10000000
00100000
10000000
01000000
00010000
01000000
00010000
,
00001000
00010000
00100000
00010000
00001000
00000010
00000001
00000000
,
00001000
00000000
00000001
00000100
00000000
00000010
00000100
00000001
00000020
00000000
00001000
00000000
00001030
00000000
00000000
00000000
,
00010000
00000000
01000000
10000000
00000000
00100000
01000000
00010000
00100000
00000000
00000000
00000000
10010000
00000000
00000000
00000000
,
00100000
00001000
00100000
00001000
00010000
00000010
00010000
00000010
,
00000100
00000001
00000100
00000001
00000020
00000100
00000130
00000000
,
00000200
00001300
00020000
00031000
,
02000000
00000000
03100000
00000000
10000000
01000000
10000000
01000000
,
00200000
00310000
02000000
03001000
,
00020000
00030010
00000100
00001001
,
00000010
00000000
00010000
00001000
00000000
00100000
00010000
10000000
00200000
00000000
01000000
00000000
01300000
00000000
00000000
00000000
,
00100000
00000000
00010000
00001000
00000000
00000100
00000001
00000010
00000100
00000000
00000000
00000000
00001001
00000000
00000000
00000000
,
00000010
00000001
00000010
00000001
00000100
00001000
00000100
00001000
,
00010000
00001000
00000010
00001000
00010000
00100000
10000000
00000000
,
00010000
01000000
00000000
01000000
00100000
01000000
00000000
00100000
,
00010000
00001000
00000010
00000001
00001000
00000010
00000100
00000000
,
00000000
00000000
00000000
00000000
;

//---------------dance-double - ----------------
#NOTEDATA:;
#CHARTNAME:;
#STEPSTYPE:dance-double;
#DESCRIPTION:;
#CHARTSTYLE:;
#DIFFICULTY:Challenge;
#METER:8;
#RADARVALUES:0.322657,0.501061,0.506602,0.116096,0.000000,214.000000,166.000000,48.000000,11.000000,168.000000,0.000000,0.000000,0.000000,0.000000,0.322657,0.501061,0.506602,0.116096,0.000000,214.000000,166.000000,48.000000,11.000000,168.000000,0.000000,0.000000,0.000000,0.000000;
#CREDIT:;
#DISPLAYBPM:136.000000;
#NOTES:
00000000
00000000
00000000
00000000
,
00000000
00000000
00000000
00000000
,
00000000
00000000
00000000
00000000
,
00000000
00000000
00000000
00000000
,
00000000
00000000
00000000
00000000
,
21000000
00000000
30010000
MMMMMMMM
,
02000000
00000000
13000000
MMMMMMMM
,
01000000
00010000
00000100
00000001
,
00000100
00001000
00001001
00000001
,
00000102
00000000
00001003
0000MMMM
,
00000200
00000000
00000301
0000MMMM
,
00000100
00001000
01000000
10000000
,
01000000
00010000
10010000
10000000
,
00110000
00110000
01010000
01010000
,
00001010
00001010
00001100
00001100
,
00001010
MMMMMMMM
00001100
MMMMMMMM
,
00110000
MMMMMMMM
01010000
MMMMMMMM
,
10000000
01000000
00001000
00000001
,
00000010
00000100
00010000
10000000
,
00010000
01000000
00001000
00000001
,
00000100
00001000
10000000
MMMMMMMM
,
00100000
00100000
11000000
01010000
,
00000100
00001000
00001100
00000101
,
00000010
00000010
00001000
00000100
,
00000101
00001100
MMMMMMMM
11000000
,
00100000
00000000
00010000
00000000
00002000
00010000
00013000
00000000
,
00000010
00000000
00001000
00000000
00020000
00001000
00031000
00000000
,
00100000
00000000
10000000
00000000
MMMMMMMM
01000000
01000000
00000000
,
00001000
00000000
00000010
00000000
MMMMMMMM
00000100
00000100
00000000
,
00000110
00000000
00000000
00000000
,
00020000
00000000
00000000
00031000
,
00000010
00000010
00000100
00000100
,
00000010
00000001
00000100
00001000
,
00100000
00100000
01000000
01000000
,
00100000
MMMMMMMM
01000000
00011000
,
00000010
00000010
00000101
00001100
,
01000000
00010000
01010000
11000000
,
00100000
00100000
00010000
01000000
,
11000000
01010000
MMMMMMMM
00000101
,
00000010
00000000
00001000
00000000
00020000
00001000
00031000
00000000
,
00100000
00000000
00010000
00000000
00002000
00010000
00013000
00000000
,
00000010
00000000
00000001
00000000
MMMMMMMM
00000100
00000100
00000000
,
00010000
00000000
00100000
00000000
MMMMMMMM
01000000
01000000
00000000
,
00020000
00000000
00030010
MMMMMMMM
,
00000200
00000000
00010300
01000000
,
01010000
MMMMMMMM
00001010
MMMMMMMM
,
11000000
00000000
00010000
00010000
,
00100000
00100000
11000000
01010000
,
00000100
00001000
00001100
00000101
,
00000010
00000010
00001000
00000100
,
00000101
00001100
MMMMMMMM
11000000
,
10010000
MMMMMMMM
01010000
MMMMMMMM
,
00110000
00011000
00001010
00001100
,
00000000
00000000
00000000
00000000
;

//---------------dance-single - Edit----------------
#NOTEDATA:;
#CHARTNAME:;
#STEPSTYPE:dance-single;
#DESCRIPTION:Edit;
#CHARTSTYLE:;
#DIFFICULTY:Edit;
#METER:15;
#RADARVALUES:0.625713,0.751591,0.664915,0.168867,0.554096,415.000000,352.000000,63.000000,16.000000,192.000000,0.000000,0.000000,0.000000,0.000000,0.625713,0.751591,0.664915,0.168867,0.554096,415.000000,352.000000,63.000000,16.000000,192.000000,0.000000,0.000000,0.000000,0.000000;
#CREDIT:;
#DISPLAYBPM:136.000000;
#NOTES:
// measure 0
0000
0000
0000
0000
,  // measure 1
0000
0000
0000
0000
,  // measure 2
0000
0000
0000
0000
,  // measure 3
0000
0000
0000
0000
,  // measure 4
0000
0000
0000
0000
,  // measure 5
1000
0100
0010
0000
0011
0000
MMMM
0000
0001
0010
0100
0000
1100
0000
MMMM
0000
,  // measure 6
0010
0000
1000
0100
0010
0000
0001
0010
0100
0000
1000
0010
0100
0001
0010
0100
,  // measure 7
1000
0000
0100
0000
0010
0000
0100
0010
0001
0010
0100
0000
0010
0100
1000
0100
,  // measure 8
0010
0000
0001
0000
0100
0000
MMMM
0000
0001
0010
0100
0000
1000
0000
0100
0000
,  // measure 9
0010
1000
0100
0000
1100
0000
MMMM
0000
0010
0001
0100
0000
0101
0000
MMMM
0000
,  // measure 10
0100
0000
0010
1000
0100
0000
0010
0001
0100
0000
0001
0100
0010
1000
0100
0000
,  // measure 11
0010
0000
0001
0000
0100
0000
0010
1000
0100
0010
0001
0000
0100
0010
1000
0001
,  // measure 12
0010
0000
0100
0000
1000
0000
MMMM
0000
0100
0010
1000
0000
1001
0000
1000
0010
,  // measure 13
0200
0000
0301
MMMM
0000
1010
0000
1100
,  // measure 14
0100
0010
0001
1000
MMMM
0010
1000
0100
,  // measure 15
MMMM
0010
0001
0100
MMMM
0010
1000
0001
,  // measure 16
0200
0000
0000
0000
0001
0000
0000
0000
0301
0000
1000
0000
1100
0000
1000
0010
,  // measure 17
0200
0000
0000
0000
1300
0000
0000
MMMM
0000
0000
1010
0000
0010
0000
0001
0000
,  // measure 18
0010
0001
0100
1000
MMMM
1000
0100
0001
,  // measure 19
0000
0000
1001
0000
0000
MMMM
0000
0000
0110
0000
0000
0000
0100
0000
0001
0000
,  // measure 20
0000
0000
1010
0000
0000
0000
1000
0100
0010
0001
0100
0000
0110
0000
0000
0000
,  // measure 21
0110
0000
0100
0001
0000
1000
0010
0100
0002
0000
0013
0000
MMMM
0000
0000
0000
,  // measure 22
0110
0000
0100
0001
0000
1000
0010
0100
2000
0000
3000
0000
MMMM
0000
0000
0000
,  // measure 23
1100
MMMM
1100
MMMM
1010
MMMM
1010
0000
,  // measure 24
1000
0000
0100
0010
0001
0000
0100
0000
MMMM
0000
0110
0000
0110
0000
0010
0001
,  // measure 25
1001
0000
0010
0001
0000
1000
0100
0001
0020
0000
0130
0000
MMMM
0000
0000
0000
,  // measure 26
1001
0000
0100
0001
0000
0010
1000
0010
0200
0000
0300
0000
MMMM
0000
0000
0000
,  // measure 27
0101
MMMM
0101
MMMM
0011
MMMM
0011
0000
,  // measure 28
0001
0000
0010
0100
1000
0000
0010
0000
MMMM
0000
0110
0000
0110
0000
0000
0000
,  // measure 29
0200
0000
0000
0000
0000
0000
0000
0000
0000
0000
0000
0000
0300
0000
0001
0100
,  // measure 30
2000
0000
0000
3020
0000
0000
0031
0000
,  // measure 31
0011
0000
0010
0100
0000
0100
1000
0100
0010
0000
0011
0000
MMMM
0000
0100
0001
,  // measure 32
0000
1000
0100
1000
0000
0010
1000
0010
0000
0100
0001
0100
0000
0010
0001
0010
,  // measure 33
0001
0000
0010
0100
0000
0100
0001
1000
0100
0000
0110
0000
MMMM
0000
0010
0100
,  // measure 34
0000
1000
0100
1000
0000
0010
0001
0010
0000
0010
0100
0001
0010
0000
0000
0000
,  // measure 35
1010
0000
0100
0001
0000
1000
0100
0010
0002
0000
0013
0000
MMMM
0000
0000
0000
,  // measure 36
0011
0000
0100
0010
0000
1000
0100
0001
0020
0000
0030
0000
MMMM
0000
0000
0000
,  // measure 37
0110
MMMM
0110
MMMM
1001
MMMM
1001
0000
,  // measure 38
1000
0100
0001
0010
MMMM
1001
0110
0000
,  // measure 39
0110
0000
0001
1000
0000
0010
0100
0001
2000
0000
3100
0000
MMMM
0000
0000
0000
,  // measure 40
1100
0000
0010
0001
0000
1000
0100
0001
0200
0000
0300
0000
MMMM
0000
0000
0000
,  // measure 41
0011
MMMM
1100
MMMM
1010
MMMM
0101
0000
,  // measure 42
0001
0010
1000
0100
MMMM
0110
1001
0000
,  // measure 43
1000
0010
0000
0000
MMMM
0000
0000
0000
0001
0010
0000
0000
MMMM
0000
0000
0000
,  // measure 44
0100
0010
0000
0000
MMMM
0000
0000
0000
1000
0100
0000
0000
0010
0001
0000
0000
,  // measure 45
1000
0001
0000
0000
MMMM
0000
0000
0000
0001
0100
0000
0000
MMMM
0000
0000
0000
,  // measure 46
0010
0001
0100
0010
1000
0100
0001
0100
0010
1000
0100
0010
0100
0000
0000
0000
,  // measure 47
0011
0000
0100
0010
0000
1000
0100
0001
0010
0000
0011
0000
MMMM
0000
0000
0000
,  // measure 48
0101
0000
0010
1000
0000
0001
0010
0100
1000
0000
1010
0000
MMMM
0000
0000
0000
,  // measure 49
1001
0000
0010
0001
0000
1000
0100
0010
0100
0000
0110
0000
MMMM
0000
0000
0000
,  // measure 50
0110
0000
0001
1000
0000
0100
0010
0001
1000
0000
1010
0000
MMMM
0000
0000
0000
,  // measure 51
1100
0000
0110
0000
0011
0000
0110
0000
1010
0000
0110
0000
0101
0000
0001
0100
,  // measure 52
2000
0000
0000
3002
0000
0000
0013
0000
;
