#TITLE:DOESN'T REALLY MATTER;
#SUBTITLE:;
#ARTIST:JANET JACKSON;
#TITLETRANSLIT:;
#SUBTITLETRANSLIT:;
#ARTISTTRANSLIT:;
#GENRE:;
#CREDIT:;
#BANNER:DOESN'T REALLY MATTER.png;
#BACKGROUND:DOESN'T REALLY MATTER-bg.png;
#LYRICSPATH:;
#CDTITLE:;
#MUSIC:DOESN'T REALLY MATTER.ogg;
#OFFSET:0.000000;
#SAMPLESTART:55.680000;
#SAMPLELENGTH:15.000000;
#SELECTABLE:YES;
#DISPLAYBPM:99.000000;
#BPMS:0.000000=99.599998
,4.000000=99.000000
,12.000000=98.800003
,16.000000=99.000000
,17.500000=98.000000
,18.000000=99.099998
,20.000000=101.000000
,21.000000=95.699997
,22.000000=100.000000
,23.000000=99.000000
,27.000000=98.000000
,28.000000=100.000000
,29.000000=99.000000
,34.000000=98.900002
,36.000000=90.900002
,38.000000=94.000000
,39.000000=103.000000
,40.000000=105.000000
,41.000000=98.000000
,42.000000=101.000000
,43.000000=106.500000
,44.000000=99.379997
;
#STOPS:
;
#BGCHANGES:;
#KEYSOUNDS:;
#ATTACKS:;

//---------------dance-single - ----------------
#NOTES:
     dance-single:
     :
     Beginner:
     1:
     0.084305,0.098356,0.000000,0.000000,0.000000,51.000000,51.000000,0.000000,0.000000,0.000000,0.000000,0.084305,0.098356,0.000000,0.000000,0.000000,51.000000,51.000000,0.000000,0.000000,0.000000,0.000000:
0000
0000
0000
0000
,
0000
0000
0000
0000
,
0000
0000
0000
0000
,
0001
0000
0000
0000
,
0010
0000
0000
0000
,
1000
0000
0001
0000
,
0100
0000
0000
0000
,
1000
0000
0010
0000
,
0100
0000
0000
0000
,
0001
0000
1000
0000
,
1000
0000
0001
0000
,
0001
0000
0000
0000
,
1000
0000
0000
0000
,
0100
0000
0000
0000
,
0010
0000
0000
0000
,
1000
0000
0000
0000
,
0001
0000
0000
0000
,
0100
0000
0000
0000
,
0010
0000
0000
0000
,
1000
0000
0001
0000
,
1000
0000
0010
0000
,
0001
0000
1000
0000
,
0001
0000
0010
0000
,
1000
0000
0001
0000
,
1000
0000
0001
0000
,
0100
0000
0010
0000
,
0100
0000
0010
0000
,
0001
0000
1000
0000
,
0001
0000
1000
0000
,
0100
0000
0010
0000
,
0100
0000
0010
0000
,
1000
0000
1000
0000
,
0001
0000
0001
0000
,
1000
0000
0010
0000
,
0001
0000
0000
0000
;

//---------------dance-single - ----------------
#NOTES:
     dance-single:
     :
     Easy:
     3:
     0.107447,0.137698,0.000000,0.023143,0.000000,65.000000,65.000000,0.000000,2.000000,0.000000,0.000000,0.107447,0.137698,0.000000,0.023143,0.000000,65.000000,65.000000,0.000000,2.000000,0.000000,0.000000:
0000
0000
0000
0000
,
0000
0000
0000
0000
,
0000
0000
0000
0000
,
0001
0000
0000
0000
,
0010
0000
0000
0000
,
1000
0000
0001
0000
,
0100
0000
0000
0000
,
1000
0000
0010
0000
,
0100
0000
0000
0000
,
0001
0000
1000
0000
,
1000
0000
0001
0000
,
0001
1000
0000
0000
,
1000
0001
0000
0000
,
0100
0010
0000
0000
,
0010
0100
0000
0000
,
1000
0001
0000
0000
,
0001
1000
0000
0000
,
0200
0000
0000
0300
,
0020
0000
0000
0030
,
1000
0000
0001
0000
,
1000
0100
0010
0000
,
0001
0000
1000
0000
,
0001
0000
0010
0100
,
1000
0000
0001
0010
,
1000
0000
0001
0000
,
0100
0000
0010
1000
,
0100
0000
0010
0000
,
0001
0000
1000
0010
,
0001
0000
1000
0000
,
0100
0000
0010
0001
,
0100
0000
0010
0000
,
1000
0001
1000
0000
,
0001
0000
0001
0000
,
1000
0100
0010
0000
,
0001
0000
0000
0000
;

//---------------dance-single - ----------------
#NOTES:
     dance-single:
     :
     Medium:
     8:
     0.277710,0.318210,0.173569,0.000000,0.109927,168.000000,153.000000,15.000000,0.000000,0.000000,0.000000,0.277710,0.318210,0.173569,0.000000,0.109927,168.000000,153.000000,15.000000,0.000000,0.000000,0.000000:
0000
0000
0000
0000
,
0000
0000
0000
0000
,
0000
0000
0000
0000
,
0010
0000
0000
0100
0001
0000
0000
0010
,
1000
0000
0000
0001
1001
0100
0010
1001
,
0110
0000
0000
1000
0100
0000
0000
0001
,
0100
0000
0000
1000
0010
0000
0000
1001
,
0100
0000
0000
0010
0001
0000
0000
0100
,
0010
0000
1001
0000
0000
0000
0000
0110
0000
0000
0000
0000
0000
0000
1001
0000
,
0100
0000
1000
0100
,
0010
0001
0100
0010
,
1000
0000
0000
0001
0000
0000
0100
0000
0000
0000
0001
0000
0100
0000
0000
0000
,
1000
0000
0000
0010
0000
0000
0100
0000
0000
0000
0001
0000
0100
0000
0000
0000
,
0010
0000
0000
1000
0000
0000
0001
0000
0000
0000
0001
0000
0100
0000
0000
0000
,
0010
0000
0000
1000
0000
0000
0100
0000
0000
0000
0001
0000
0100
0000
0000
0000
,
0001
0000
0000
1000
0000
0000
0010
0000
0000
0000
0001
0000
0100
0000
0000
0000
,
0001
0000
0000
0010
0000
0000
0100
0000
0000
0000
0001
0000
0100
0000
0000
0000
,
1000
0010
0100
0001
0000
0001
0100
0000
,
0010
0100
1000
0001
0000
0001
0100
0000
,
1001
0000
1100
0000
,
0010
0000
0001
0100
0010
0000
1000
0000
,
0001
0000
0000
1000
0000
0000
0001
0000
0000
1000
0000
0000
0100
0000
0010
0000
,
0001
0100
0010
1000
,
0001
0000
0010
0000
0100
0000
0000
0000
1000
0000
0000
0001
0000
0000
1000
0000
,
0001
0000
0100
0000
0010
0000
0000
0000
1000
0000
0000
0001
0000
0000
1000
0000
,
0010
0000
0100
0000
0001
0000
0000
0000
1000
0000
0000
0001
0000
0000
1000
0000
,
0100
0000
0010
0000
0001
0000
0000
0000
1000
0000
0000
0100
0000
0000
0000
0000
,
0001
0000
0100
0000
0010
0000
0000
0000
1000
0000
0000
0001
0000
0000
1000
0000
,
1000
0000
0100
0000
0010
0000
0000
0000
0001
0000
0000
1000
0000
0000
0001
0000
,
0100
0000
0010
0000
1000
0000
0000
0000
1000
0000
0000
0001
0000
0000
1000
0000
,
1000
0100
0001
0000
1000
0010
0100
0001
,
1001
0000
0000
0110
0000
0000
1001
0000
0000
0000
0000
0000
0000
0000
0000
0000
,
0100
0010
1000
0001
,
0110
0000
0000
1001
0000
0000
0110
0000
0000
0000
0000
0000
0000
0000
0000
0000
,
1000
0000
0000
0001
0000
0000
0100
0000
0000
0000
0000
0000
0000
0000
0000
0000
;

//---------------dance-single - ----------------
#NOTES:
     dance-single:
     :
     Hard:
     10:
     0.357056,0.409333,0.115713,0.034714,0.254568,216.000000,206.000000,10.000000,3.000000,0.000000,0.000000,0.357056,0.409333,0.115713,0.034714,0.254568,216.000000,206.000000,10.000000,3.000000,0.000000,0.000000:
0000
0000
0000
0000
,
0000
0000
0000
0000
,
0000
0000
0000
0000
,
0100
0000
0001
1000
0001
0000
1000
0001
,
1000
0000
0000
0000
0001
0000
0100
0000
0010
0000
1000
0100
1000
0100
1000
0000
,
0001
0000
1000
0010
0100
0000
0001
0010
,
0100
0000
1000
0001
0100
0000
0010
1001
,
0100
0000
0010
1000
0100
0000
0010
0001
,
0100
0000
1001
0000
0000
0000
0000
0110
0000
0000
0000
0000
0000
0000
1001
0000
,
0100
0000
1000
0010
,
0100
0001
0010
0100
,
1000
0000
0001
0100
0000
0001
0010
0000
0000
0000
0100
0000
1000
0000
0000
0000
,
0001
0000
1000
0100
0000
1000
0010
0000
0000
0000
0100
0000
0001
0000
0000
0000
,
0010
0000
0100
1000
0000
0001
0100
0000
0000
0000
0010
0000
1000
0000
0000
0000
,
0100
0000
0010
0001
0000
1000
0010
0000
0000
0000
0100
0000
0001
0000
0000
0000
,
1000
0000
0001
0100
0000
0001
0010
0000
0000
0000
0100
0000
1000
0000
0000
0000
,
0001
0000
1000
0100
0000
1000
0010
0000
0000
0000
0100
0000
0001
0000
0000
0000
,
2000
0000
0000
3000
0000
0001
0100
0000
,
2000
0000
0000
3000
0001
0010
0000
0000
,
0000
1000
0100
0000
0000
0001
0100
0000
,
1000
0000
0001
0100
0000
0010
1000
0000
0100
0000
0000
0010
0000
0000
0000
0000
,
0001
0000
0000
1000
0000
0000
0001
0000
0000
1000
0000
0000
0100
0000
0010
0000
,
0001
0000
0100
0000
1000
0000
0100
0010
,
0001
0100
0001
0100
0001
0000
1000
0000
0100
0000
0010
0001
0000
0000
1000
0000
,
0001
0000
0100
0001
0000
0000
1000
0000
0001
0000
1000
0100
0000
0000
0001
0000
,
1000
0100
1000
0100
1000
0000
0001
0000
0100
0000
0010
1000
0000
0000
0001
0000
,
1000
0000
0001
0100
0000
0000
1000
0000
0001
0000
1000
0100
0000
0000
0000
0000
,
0001
0100
0001
0010
0001
0000
0100
0000
0010
0000
1000
0100
0000
0000
0010
0000
,
0001
0000
1000
0010
0000
0000
0100
0000
0001
0000
1000
0010
0000
0000
0100
0000
,
0001
0010
0001
0100
0001
0000
0010
0000
0100
0000
1000
0001
0000
0000
0100
0000
,
0010
0000
1000
0001
0000
0000
0010
0000
0100
0000
1000
0000
0010
0000
0100
0000
,
1001
0000
0000
0110
0000
0000
1001
0000
0000
0000
0000
0000
0000
0000
0000
0000
,
0010
0000
0100
0000
1000
0000
0001
0010
0001
0000
0100
0000
0010
0000
0000
0000
,
1001
0000
0000
0110
0000
0000
1001
0000
0000
0000
0000
0000
0010
0000
0100
0000
,
0010
0000
0001
0100
0000
1000
0200
0000
0000
0000
0000
0000
0000
0000
0000
0000
,
0000
0000
0000
0300
0000
0000
0000
0000
;

//---------------dance-double - ----------------
#NOTES:
     dance-double:
     :
     Easy:
     2:
     0.097529,0.137698,0.023143,0.000000,0.000000,59.000000,57.000000,2.000000,0.000000,0.000000,0.000000,0.097529,0.137698,0.023143,0.000000,0.000000,59.000000,57.000000,2.000000,0.000000,0.000000,0.000000:
00000000
00000000
00000000
00000000
,
00000000
00000000
00000000
00000000
,
00000000
00000000
00000000
00000000
,
01000000
00000000
00000000
00000000
,
00001000
00000000
00000000
00000000
,
00010000
00000000
00000000
00000000
,
00000100
00000000
00000000
00000000
,
00001000
00000000
00000000
00000000
,
00000001
00000000
00000000
00000000
,
00000100
00000000
00000001
00000000
,
00001000
00000000
00000100
00000000
,
00010000
00000000
00001000
00000000
,
01000000
00000000
00001000
00000000
,
00001000
00000000
00010000
00000000
,
00000100
00000000
00010000
00000000
,
00010000
00000000
00001000
00000000
,
01000000
00000000
00010000
00000000
,
10000000
00000000
00000000
00000000
,
00010000
00000000
00000000
00000000
,
10000000
00000000
01000000
00000000
,
00010000
00001000
00000100
00000000
,
00000001
00000000
00000000
00000000
,
00001000
00000000
00000001
00000000
,
00000100
00000000
00001000
00000000
,
00010000
00000000
01000000
00000000
,
01000000
00000000
00010000
00000000
,
00001000
00000000
00000100
00000001
,
00000100
00000000
00001000
00000000
,
00010000
00000000
01000000
00000000
,
01000000
00000000
10000000
00000000
,
00010000
00000000
01000000
00100000
,
10010000
00000000
00000000
01000000
,
00001000
00000000
00010000
00000000
,
00011000
00000000
00000000
00000010
,
00000100
00000000
00000000
00000000
;

//---------------dance-double - ----------------
#NOTES:
     dance-double:
     :
     Medium:
     7:
     0.211589,0.238657,0.000000,0.000000,0.028928,128.000000,128.000000,0.000000,0.000000,0.000000,0.000000,0.211589,0.238657,0.000000,0.000000,0.028928,128.000000,128.000000,0.000000,0.000000,0.000000,0.000000:
00000000
00000000
00000000
00000000
,
00000000
00000000
00000000
00000000
,
00000000
00000000
00000000
00000000
,
00010000
00000000
00001000
00010000
,
01000000
00000000
00001000
00000000
,
00010000
00000000
00001000
00010000
,
00000010
00000000
00001000
00000000
,
00010000
00000000
00001000
00010000
,
00100000
00000000
00001000
00000000
,
00000010
00000000
00000001
00000100
,
00001000
00010000
01000000
10000000
,
00010000
00000000
01000000
00100000
,
10000000
00000000
01000000
00100000
,
00001000
00000000
00010000
00000100
,
00010000
00000000
00001000
01000000
,
00010000
00000000
00100000
01000000
,
10000000
00000000
00100000
01000000
,
00001000
00010000
00000010
00001000
00000001
00000000
00000000
00000000
,
00001000
00000100
00010000
00001000
00100000
00000000
00000000
00000000
,
01000000
00000000
10000000
00100000
01000000
00000000
00010000
00100000
,
01000000
00000000
00010000
00000000
00001000
00000000
00000100
00000001
,
00000010
00000000
00000000
00000100
00000000
00000000
00001000
00000000
00000000
00000001
00000000
00000000
00000100
00000000
00000000
00000000
,
00001000
00000000
00010000
00000000
01000000
00000000
00010000
00001000
,
00000100
00000001
00000010
00000000
00000100
00000000
00000100
00000000
,
00001000
00000010
00000100
00000000
00001000
00000000
00001000
00000000
,
00010000
01000000
10000000
00000000
00100000
00000000
00100000
00000000
,
01000000
00010000
10000000
00000000
00010000
10000000
01000000
00000000
,
00010000
00001000
00000100
00000000
00000001
00000000
00000001
00000000
,
00000010
00001000
00010000
00000000
00100000
00000000
00100000
00000000
,
10000000
01000000
00010000
00000000
00001000
00000000
00001000
00000000
,
00000100
00000001
00000010
00000000
00000100
00001000
00000010
00000000
,
00000100
00000000
00000000
00000001
00000000
00000000
00001000
00000000
00000000
00000000
00000000
00000000
00000100
00000000
00000000
00000000
,
00010000
00001000
00100000
00010000
,
10000000
00000000
00000000
00100000
00000000
00000000
01000000
00000000
00000000
00000000
00000000
00000000
00010000
00000000
00000000
00000000
,
00100000
00000000
00000000
00001000
00000000
00000000
00010000
00000000
00000000
00000000
00000000
00000000
00000000
00000000
00000000
00000000
;

//---------------dance-double - ----------------
#NOTES:
     dance-double:
     :
     Hard:
     10:
     0.342179,0.417650,0.000000,0.000000,0.242996,207.000000,207.000000,0.000000,0.000000,0.000000,0.000000,0.342179,0.417650,0.000000,0.000000,0.242996,207.000000,207.000000,0.000000,0.000000,0.000000,0.000000:
00000000
00000000
00000000
00000000
,
00000000
00000000
00000000
00000000
,
00000000
00000000
00000000
00000000
,
00001000
00000000
00000001
00000100
00001000
00000000
00000001
00000010
,
00000100
00000000
00000000
00000000
00001000
00000000
00000010
00000000
00010000
00000000
00001000
00100000
00010000
00100000
00001000
00000000
,
00010000
00000000
00000010
00001000
00000100
00000000
00000010
00000001
,
00000100
00000000
00001000
00010000
01000000
10000000
00010000
01000000
,
00100000
00000000
10000000
00010000
00100000
00000000
01000000
00010000
,
00001000
00000100
00000001
00001000
00000100
00010000
00001000
00100000
,
00010000
00000000
10000000
00100000
,
01000000
00010000
10000000
01000000
,
00010000
00000000
00000000
00001000
00000000
00000000
00000100
00000000
00000000
00000000
00010000
00000000
00001000
00000000
00000000
00000000
,
00001000
00000000
00000000
00010000
00000000
00000000
01000000
00000000
00000000
00000000
00001000
00000000
00010000
00000000
00000000
00000000
,
00000010
00000000
00000000
00000100
00000000
00000000
00000001
00000000
00000000
00000000
00001000
00000000
00000100
00000000
00000000
00000000
,
00010000
00000000
00000000
00001000
00000000
00000000
00100000
00000000
00000000
00000000
00010000
00000000
01000000
00000000
00000000
00000000
,
00001000
00000000
00000000
00010000
00000000
00000000
01000000
00000000
00000000
00000000
00001000
00000000
00010000
00000000
00000000
00000000
,
00010000
00000000
00000000
00001000
00000000
00000000
00000100
00000000
00000000
00000000
00010000
00000000
00001000
00000000
00000000
00000000
,
00100000
00000000
00000000
01000000
00000000
00000000
10000000
00000000
00000000
00000000
00010000
00000000
01000000
00000000
00000000
00000000
,
00001000
00000000
00000000
00010000
00000000
00000000
00000010
00000000
00000000
00000000
00001000
00000000
00000001
00000000
00000000
00000000
,
00000010
00000000
00000100
00000000
00000000
00001000
00000000
00000000
00000001
00000000
00000000
00000100
00000000
00000000
00000010
00000000
,
00001000
00000000
00000100
00000000
00000000
00010000
00000000
00000000
00001000
00000000
00000000
00100000
00000000
00000000
00010000
00000000
,
10000000
00000000
00100000
01000000
00000000
00100000
01000000
00000000
00010000
00000000
10000000
00000000
01000000
00000000
00010000
00000000
,
00001000
00000000
00000100
00000000
00010000
00000000
01000000
10000000
,
00010000
00000000
01000000
00000000
00100000
10000000
00000000
00000000
01000000
00000000
00100000
00010000
00000000
00000000
01000000
00000000
,
00001000
00000000
00010000
00000000
00000000
00000010
00000000
00000000
00001000
00000000
00000001
00000010
00000000
00000000
00000100
00000000
,
00001000
00000000
00000001
00000000
00000100
00000000
00001000
00000000
00010000
00000000
01000000
00010000
00000000
00000000
00001000
00000000
,
00000100
00000000
00001000
00000000
00010000
00001000
00000000
00000000
00100000
00010000
00100000
00010000
00100000
00010000
00100000
00010000
,
00100000
00000000
01000000
00000000
10000000
00010000
00000000
00000000
01000000
00000000
00001000
00010000
00000000
00000000
00000010
00000000
,
00001000
00000000
00000100
00000000
00000000
00010000
00000000
00000000
00001000
00000000
00100000
00010000
00000000
00000000
10000000
00000000
,
01000000
00000000
00010000
00000000
01000000
10000000
00000000
00000000
00010000
00000000
01000000
00001000
00000000
00000000
00010000
00000000
,
00001000
00000000
00000010
00000000
00000001
00000100
00000000
00000000
00000010
00001000
00000010
00001000
00000010
00001000
00000010
00001000
,
00000010
00000000
00000000
00010000
00000000
00000000
00001000
00000000
00000000
00000000
00000010
00000000
00000100
00000000
00000000
00000000
,
00010000
00000000
00001000
00010000
00001000
00000000
00010000
00000000
00000000
00000000
00100000
00000000
01000000
00000000
00000000
00000000
,
00010000
00000000
00000000
10000000
00000000
00000000
01000000
00000000
00000000
00000000
00010000
00000000
00001000
00000000
00000000
00000000
,
00000100
00000000
00000001
00001000
00000000
00000100
00000010
00000000
00000000
00000000
00000000
00000000
00000000
00000000
00000000
00000000
;

//---------------dance-single - ----------------
#NOTES:
     dance-single:
     :
     Challenge:
     13:
     0.550461,0.593533,0.358709,0.439708,0.688490,333.000000,302.000000,31.000000,38.000000,0.000000,0.000000,0.550461,0.593533,0.358709,0.439708,0.688490,333.000000,302.000000,31.000000,38.000000,0.000000,0.000000:
// measure 0
0000
0000
0000
0000
,  // measure 1
0000
0000
0000
0000
,  // measure 2
0000
0000
0000
0000
,  // measure 3
0010
0000
0000
0000
0001
1000
0001
0000
1001
0000
0000
0000
0100
0000
0010
0000
,  // measure 4
1000
0000
0000
0000
1000
0001
0100
0000
0110
0000
0010
1000
0010
0100
0010
0000
,  // measure 5
0022
0000
0033
0000
0100
0001
0100
0000
0101
0000
0000
0000
1000
0000
0100
0000
,  // measure 6
0010
0000
0000
0000
0001
0010
0100
0000
1100
0000
0000
0000
1000
0100
0010
0000
,  // measure 7
0001
0000
0000
0000
0001
0100
0010
0000
1000
0000
0000
0000
1000
0010
0001
0000
,  // measure 8
0100
0000
0010
0000
0001
0100
0001
0100
0010
1000
0010
1000
0100
0010
0100
0010
,  // measure 9
2000
0000
3000
0000
2200
3300
0202
0303
,  // measure 10
0022
0033
2020
3030
0220
0330
2002
3003
,  // measure 11
1001
0000
0000
0101
0000
0000
1100
0000
0000
0000
1000
0100
1000
0100
0010
0001
,  // measure 12
0200
0000
0000
0320
0000
0000
2030
0000
0000
0000
3001
0000
0100
0010
0100
1000
,  // measure 13
0020
0000
0000
0230
0000
0000
0302
0000
0000
0000
1003
0000
0001
0010
0100
0000
,  // measure 14
1100
0000
0000
1010
0000
0000
0011
0000
0000
0000
0001
0010
0001
0010
0100
1000
,  // measure 15
0020
0000
0000
0032
0000
0000
2003
0000
0000
0000
3100
0001
0010
1000
0100
0010
,  // measure 16
0110
0000
0000
0011
0000
0000
1010
0000
0000
0000
1000
0001
1000
0001
0100
0000
,  // measure 17
0001
0100
0001
0100
0001
0100
0001
0100
0000
0000
0200
0000
0310
0001
0100
0000
,  // measure 18
1000
0100
1000
0100
1000
0100
1000
0100
1000
0010
0100
0001
0010
0000
0001
0010
,  // measure 19
0200
0000
1000
0000
1300
0000
1000
0100
0020
0000
0001
0000
0031
0000
0100
0000
,  // measure 20
0110
0000
0100
0010
0000
0010
1000
0000
0100
0001
0000
0001
0100
0000
0010
0001
,  // measure 21
0100
0010
0000
0010
1000
0000
1000
0100
0000
0001
0100
0000
0001
0010
0100
1000
,  // measure 22
0200
0320
2030
3002
,  // measure 23
0103
0001
0100
0010
0100
1000
0100
0010
0100
0001
0100
0010
0000
1000
0100
0010
,  // measure 24
0001
0000
0100
0001
0000
0100
0001
0000
0010
0000
1000
0010
0000
1000
0010
0100
,  // measure 25
0001
0010
0001
0100
0001
1000
0001
0100
0001
0000
0010
0100
0000
0100
0010
1000
,  // measure 26
0100
0000
0010
1000
0000
0010
0100
0000
0001
0000
0100
0010
0000
0001
0100
0001
,  // measure 27
0010
0100
0010
0001
0010
0100
0010
1000
0010
0000
0100
0001
0000
0010
1000
0100
,  // measure 28
0011
0000
0001
0100
0000
0001
0100
0000
0110
0000
0010
1000
0000
0010
1000
0000
,  // measure 29
1000
0100
1000
0010
1000
0001
1000
0100
1000
0000
0010
0001
0000
0100
0010
0001
,  // measure 30
0101
0000
0010
1000
0000
0010
1000
0000
1100
0000
0100
0001
0100
0001
0100
0000
,  // measure 31
1001
0000
0000
0110
0000
0000
2002
0000
0000
0000
3003
0000
0000
0001
1000
0001
,  // measure 32
0000
0001
0100
0001
0010
0001
0100
0001
1000
0100
0010
0001
0200
0000
0300
0000
,  // measure 33
0110
0000
0000
1001
0000
0000
0220
0000
0000
0000
0330
0000
0010
0000
0100
0000
,  // measure 34
0001
0000
0000
0000
0000
0000
0010
0000
0000
1000
0000
0000
0000
0000
0000
0200
0000
0000
0000
0000
0002
0000
0000
0000
0000
0000
0000
0000
0000
0000
0000
0000
0000
0000
0000
0000
0000
0000
0000
0000
0000
0000
0000
0000
0000
0000
0000
0000
,  // measure 35
0000
0000
0000
0303
0000
0000
0000
0000
;
