#VERSION:0.83;
#TITLE:DIVE(more deep & deeper style);
#SUBTITLE:;
#ARTIST:BeForU;
#TITLETRANSLIT:;
#SUBTITLETRANSLIT:;
#ARTISTTRANSLIT:;
#GENRE:;
#ORIGIN:;
#CREDIT:;
#BANNER:DIVE(more deep & deeper style).png;
#BACKGROUND:DIVE(more deep & deeper style)-bg.png;
#PREVIEWVID:;
#JACKET:DIVE(more deep & deeper style)-jacket.png;
#CDIMAGE:;
#DISCIMAGE:;
#LYRICSPATH:;
#CDTITLE:;
#MUSIC:DIVE(more deep & deeper style).ogg;
#OFFSET:0.000000;
#SAMPLESTART:40.174999;
#SAMPLELENGTH:15.000000;
#SELECTABLE:YES;
#DISPLAYBPM:155.000000;
#BPMS:0.000=158.700,
4.000=155.000;
#STOPS:35.500=1.350,
99.000=0.200,
163.979=2.500;
#DELAYS:;
#WARPS:;
#TIMESIGNATURES:0.000=4=4;
#TICKCOUNTS:0.000=4;
#COMBOS:0.000=1;
#SPEEDS:0.000=1.000=0.000=0;
#SCROLLS:0.000=1.000;
#FAKES:;
#LABELS:0.000=Song Start;
#BGCHANGES:;
#KEYSOUNDS:;
#ATTACKS:
;

//---------------dance-single - ----------------
#NOTEDATA:;
#CHARTNAME:;
#STEPSTYPE:dance-single;
#DESCRIPTION:;
#CHARTSTYLE:;
#DIFFICULTY:Beginner;
#METER:2;
#RADARVALUES:0.149231,0.241503,0.010343,0.000000,0.000000,101.000000,100.000000,1.000000,0.000000,0.000000,0.000000,0.000000,0.000000,0.000000,0.149231,0.241503,0.010343,0.000000,0.000000,101.000000,100.000000,1.000000,0.000000,0.000000,0.000000,0.000000,0.000000,0.000000;
#CREDIT:;
#DISPLAYBPM:155.000000;
#NOTES:
0000
0000
0000
0000
,
0000
0000
0000
0000
,
0000
0000
0000
0000
,
0000
0000
0000
0000
,
0000
0000
0000
0000
,
0000
1000
0000
0000
,
0000
0001
0000
0000
,
0000
0001
0000
0100
,
0000
1000
0000
0010
,
0000
0100
0000
0000
0000
0100
0000
0000
,
0000
0100
0000
0000
0000
0100
0000
0000
,
0000
0010
0000
0000
0000
0010
0000
0000
,
0000
0010
0000
0000
0000
0010
0000
0000
,
0000
1000
0000
0000
0000
1000
0000
0000
,
0000
0001
0000
0000
0000
0001
0000
0000
,
0000
0100
0000
0100
0000
0100
0000
0000
,
0000
0010
0000
0010
0000
0010
0000
0010
,
0000
0000
0000
0000
0000
0000
0000
0100
,
0000
0000
0000
0000
0000
0000
0000
0001
,
0000
0000
0000
0000
0000
0000
0000
1000
,
0000
0000
0000
0000
0000
0000
0000
0100
,
0000
0000
0000
0000
0000
0000
0000
0100
,
0000
0000
0000
0000
0000
0000
0000
0001
,
0000
0000
0000
0001
0000
0000
0000
1000
,
0000
0000
0000
0000
,
0010
0010
0010
0010
,
0010
0010
0010
0000
,
1000
0000
1000
0000
,
0001
0000
1000
0000
,
0100
0100
0100
0000
,
0001
0000
1000
0000
,
0001
0000
1000
0000
,
0010
0010
0010
0000
,
0100
0000
0000
0000
,
0100
0000
0000
0000
,
0001
0000
0000
0000
,
1000
0000
0000
0000
,
1000
0000
0000
0000
,
0001
0000
0000
0000
,
1000
0000
0000
0000
,
0001
0000
0000
0000
,
0000
0000
0000
0001
0000
0000
0000
1000
,
0000
0000
0000
1000
0000
0000
0000
0010
,
0000
0000
0000
0100
0000
0000
0000
0001
,
0000
0000
0000
1000
0000
0000
0000
0010
,
0000
0000
0000
0100
0000
0000
0000
0001
,
0000
0001
0000
0001
0000
0000
0000
1000
,
0000
0000
0000
0100
0000
0000
0000
0001
,
0000
0000
0000
0010
0000
0000
0000
1000
,
0000
0000
0000
1000
0000
0000
0000
0001
,
0000
0000
0000
0001
0000
0000
0000
0100
,
0000
0000
0000
0001
0000
0000
0000
1000
,
0000
0000
0000
0010
0000
0000
0000
0100
,
0000
0000
0000
0100
0000
0000
0000
1000
,
0000
1000
0000
1000
0000
1000
0000
1000
,
0000
0000
0000
0001
0000
0000
0000
1000
,
0000
0000
0000
0001
0000
0000
0000
1000
,
0000
0000
0000
0001
0000
0000
0000
1000
,
0000
0000
0000
1001
0000
0000
0000
0000
;

//---------------dance-single - ----------------
#NOTEDATA:;
#CHARTNAME:;
#STEPSTYPE:dance-single;
#DESCRIPTION:;
#CHARTSTYLE:;
#DIFFICULTY:Easy;
#METER:5;
#RADARVALUES:0.226063,0.304465,0.031028,0.000000,0.000000,153.000000,150.000000,3.000000,0.000000,0.000000,0.000000,0.000000,0.000000,0.000000,0.226063,0.304465,0.031028,0.000000,0.000000,153.000000,150.000000,3.000000,0.000000,0.000000,0.000000,0.000000,0.000000,0.000000;
#CREDIT:;
#DISPLAYBPM:155.000000;
#NOTES:
0000
0000
0000
0000
,
0000
0000
0000
0000
,
0000
0000
0000
0000
,
0000
0000
0000
0000
,
0000
0000
0000
0000
,
1000
0001
0100
0000
,
0001
1000
0100
0000
,
0001
0000
0100
0000
,
1000
0000
0010
0000
,
0000
0000
0000
0001
0000
0000
0000
1000
,
0000
0001
0000
0100
0000
0001
0000
0000
,
0000
1000
0000
0000
0000
0001
0000
0000
,
0000
1000
0000
0100
0000
1000
0000
0000
,
0000
0001
0000
1000
0000
0001
0000
0100
,
0000
1000
0000
0001
0000
1000
0000
0100
,
0000
0001
0000
0000
0000
0100
0000
0000
,
0000
0010
0000
0001
0000
0100
0000
0100
,
0000
0010
0000
0000
0000
0000
0000
0000
,
0000
0100
0000
0000
0000
0000
0000
0000
,
0000
0010
0000
0000
0000
0001
0000
0000
,
0000
1000
0000
0000
0000
0000
0000
0000
,
0000
0010
0000
0001
0000
0001
0000
0100
,
0000
0100
0000
1000
0000
1000
0000
0000
,
0000
0010
0000
0000
0000
0001
0000
0000
,
0000
0100
0000
0000
0000
1001
0000
0000
,
0110
0010
0000
0010
,
0000
1000
0001
0100
,
0000
1000
0000
0001
,
0000
1000
0001
1000
,
0100
0010
0000
0100
,
0000
0001
0000
1000
,
0000
0010
0001
0100
,
1000
0001
0001
0001
,
0001
1000
0000
0100
,
0000
0001
0000
0100
,
0000
0001
0000
0100
,
0000
1000
0000
0100
,
0000
1000
0100
0100
,
0000
0001
0100
0100
,
0000
1000
1000
0100
,
0000
0001
0001
0100
,
0000
0000
0000
1000
0000
0000
0000
0001
,
0000
0000
0000
1000
0000
0001
0000
1000
,
0000
0100
0000
0010
0000
0000
0000
0100
,
0000
0000
0000
0001
0000
0000
0000
1000
,
0000
0000
0000
0010
0000
0001
0000
0100
,
0000
1000
0000
0001
0000
0001
0000
0001
,
0000
0001
0000
0010
0000
0000
0000
0010
,
0000
0000
0000
0001
0000
1000
0000
0100
,
0000
0000
0000
0001
0000
0000
0000
1000
,
0000
0000
0000
0001
0000
1000
0000
0001
,
0000
0100
0000
0010
0000
0000
0000
0100
,
0000
0000
0000
1000
0000
0000
0000
0001
,
0000
0000
0000
0010
0000
1000
0000
0100
,
0000
0001
0000
1000
0000
1000
0000
1000
,
0000
1000
0000
1000
0000
0100
0000
0001
,
0000
0100
0000
1000
0000
0100
0000
0001
,
0000
0100
0000
1000
0000
0100
0000
0001
,
0000
0100
0000
1000
0000
0100
0000
1001
;

//---------------dance-single - ----------------
#NOTEDATA:;
#CHARTNAME:;
#STEPSTYPE:dance-single;
#DESCRIPTION:;
#CHARTSTYLE:;
#DIFFICULTY:Medium;
#METER:7;
#RADARVALUES:0.372339,0.364582,0.227541,0.000000,0.000000,252.000000,230.000000,22.000000,0.000000,0.000000,0.000000,0.000000,0.000000,0.000000,0.372339,0.364582,0.227541,0.000000,0.000000,252.000000,230.000000,22.000000,0.000000,0.000000,0.000000,0.000000,0.000000,0.000000;
#CREDIT:;
#DISPLAYBPM:155.000000;
#NOTES:
0000
0000
0000
0000
,
0000
0000
0000
0000
,
0000
0000
0000
0000
,
0000
0000
0000
0000
,
0000
0000
0000
0000
,
0010
0001
1000
0101
,
0010
1000
0001
1100
,
0001
0100
0001
1000
,
0001
0000
1000
0000
0001
1000
0001
0100
,
0000
0001
0000
0110
0000
0100
0000
1001
,
0000
1000
0000
0001
0000
0100
0000
0100
,
0000
0001
1000
0100
0000
0001
0000
0100
,
0000
0001
0000
1000
0000
0100
0000
0100
,
0000
0010
0000
0101
0000
1000
0000
0001
,
0000
0010
0000
1100
0000
0001
0000
1000
,
0000
1000
0001
0100
0000
1000
0000
0100
,
0000
0001
0000
0100
0000
1000
0001
0100
,
0000
0010
0000
0000
0000
0000
0000
0000
,
0000
1001
0000
0000
0000
0100
0000
0000
,
0000
0010
0000
1000
0000
0001
0000
0100
,
0000
1000
0000
0001
0000
1000
0000
0001
,
1000
0100
0000
1000
0000
0001
0000
1100
,
0000
1000
0000
0101
0000
1000
0000
0100
,
0010
0100
0000
0000
1000
0001
0000
0000
,
1000
0000
0001
1000
0001
0000
0100
0000
,
0010
0101
1000
0001
,
0100
0001
1000
0100
,
1000
0001
0100
0000
0001
0000
0100
0000
,
1000
1100
0001
0100
,
1000
0000
1000
0000
0001
0100
0001
0000
,
0010
0001
0100
1100
,
0010
0000
1000
0000
0001
1000
0100
0000
,
0001
0001
0001
0001
,
1001
0010
0001
0001
,
0010
0001
1000
1100
,
0000
0010
1000
1000
,
0010
1000
0001
0101
,
1000
1000
0001
0001
,
0010
0001
1000
1100
,
0010
0010
1000
1000
,
0010
0000
1000
0000
0001
1000
0001
1000
,
0001
1000
0000
0010
0000
0101
0000
1000
,
0000
0001
0000
0100
0000
0001
0000
1000
,
0000
0100
0000
1000
0000
0100
0000
0001
,
0000
0100
0000
1000
0000
1100
0000
0001
,
0000
0100
0000
1000
0000
1000
0000
0001
,
0100
0001
0000
0010
0000
0001
0000
0100
,
0000
1100
0000
0010
0000
1100
0000
0001
,
0000
1000
0000
0100
0000
1000
0000
0001
,
0000
0100
0000
0001
1000
0100
0000
1000
,
0000
0100
0000
0001
0000
0101
0000
1000
,
0000
0100
0000
0001
0000
0001
0000
1000
,
0100
1000
0000
0010
0000
0001
0000
0100
,
0000
1100
0000
0010
0000
1000
0000
0001
,
1000
0100
0000
1000
0000
1000
0001
0000
,
0100
0100
0000
1000
0000
1000
0000
0001
,
0000
0100
0000
1000
0000
0100
0000
0001
,
1000
0100
0000
1000
0000
0100
0000
0001
,
0000
0100
0000
1000
0001
1000
0100
0000
;

//---------------dance-single - ----------------
#NOTEDATA:;
#CHARTNAME:;
#STEPSTYPE:dance-single;
#DESCRIPTION:;
#CHARTSTYLE:;
#DIFFICULTY:Hard;
#METER:10;
#RADARVALUES:0.508273,0.516492,0.310283,0.000000,0.000000,344.000000,314.000000,30.000000,0.000000,0.000000,0.000000,0.000000,0.000000,0.000000,0.508273,0.516492,0.310283,0.000000,0.000000,344.000000,314.000000,30.000000,0.000000,0.000000,0.000000,0.000000,0.000000,0.000000;
#CREDIT:;
#DISPLAYBPM:155.000000;
#NOTES:
0000
0000
0000
0000
,
0000
0000
0000
0000
,
0000
0000
0000
0000
,
0000
0000
0000
0000
,
0000
0000
0000
0000
,
0010
1000
0101
0000
1000
0000
0100
0000
,
0010
0100
1000
0000
0001
0000
1100
0000
,
0001
1000
0100
0000
0001
1000
0100
0000
,
0001
1000
0100
0000
0001
1000
0100
0001
,
0000
0001
0000
0110
0000
0100
0010
1000
,
0000
1000
0000
0001
0000
0100
0010
0100
,
0000
0001
1000
0100
0000
0001
0000
1100
,
0000
0001
0100
1000
0000
0100
0000
0100
,
0000
0010
1000
0101
0000
1000
0000
0001
,
0000
0010
0001
1100
0000
0001
0000
1000
,
0000
1000
0001
0100
0000
0001
1000
0100
,
0000
0001
1000
0100
1000
0010
0100
0001
,
0100
1000
0000
0000
0000
0001
0000
0000
,
0000
1000
0001
1000
0000
0001
0000
0100
,
0000
0010
0001
1000
0000
0001
0000
0100
,
0000
1000
0100
0001
0000
1000
0000
0001
,
1000
0101
0000
1000
0000
0001
0000
1100
,
0000
1000
0000
0101
0000
1000
0000
0100
,
0010
1001
0000
0000
1000
0110
0000
0000
,
1100
0000
0010
1000
0001
0000
0110
0000
,
0010
1000
0100
0000
1000
0000
0001
0000
,
0100
0001
1000
0010
0100
0001
0100
0010
,
1000
0001
1000
0000
1000
0001
1100
0000
,
1000
0001
1000
0100
0010
0100
1000
0010
,
1000
0001
1000
0000
0001
0100
0001
0000
,
0010
0001
1000
0010
0100
0001
1000
0100
,
0010
0001
1000
0000
0001
1000
0100
0000
,
0001
0010
0001
1000
0001
0100
0001
1000
,
0010
1000
0000
0001
0000
0100
0000
1000
,
0010
0001
0000
1000
0000
0100
0000
0001
,
0010
1000
0100
0001
0000
0100
0000
1100
,
0010
0001
0100
1000
0000
0100
0000
1100
,
0010
0001
0100
0000
0010
0100
1000
0000
,
0100
0010
0100
0000
0001
1000
0100
0000
,
0010
0100
1000
0000
1000
0001
0100
0000
,
0010
1000
0001
0000
0001
1000
0001
1000
,
1001
0000
0000
1000
0001
1000
0000
1000
,
0001
1100
0000
1000
0100
1000
0100
0010
,
0001
0100
0010
1000
0001
1000
0000
0001
,
0100
0001
0000
0010
0001
1000
0010
0100
,
0001
1000
0100
0010
0001
1000
0000
0001
,
1000
0100
1000
0001
0010
0100
1000
0010
,
0100
0001
1000
0001
0010
0100
1000
0010
,
0100
0001
0000
0001
0010
0100
1000
0000
,
1001
0000
1000
0001
1000
0100
0010
0100
,
0000
1000
0000
0001
1000
0101
0000
1000
,
0001
0100
0000
0001
1000
0010
0100
0001
,
0100
0001
0000
0010
1000
0001
0000
0100
,
0000
1100
0000
0010
0001
1000
0000
0001
,
1000
0100
0000
1001
0000
1000
0101
0000
,
0001
1100
0000
1001
0000
1000
0000
0001
,
1000
0100
0000
1000
0000
0101
0000
0001
,
1000
0100
0000
1000
0000
0101
0000
0001
,
0000
1100
0000
1000
0001
0101
1100
0000
;

//---------------dance-double - ----------------
#NOTEDATA:;
#CHARTNAME:;
#STEPSTYPE:dance-double;
#DESCRIPTION:;
#CHARTSTYLE:;
#DIFFICULTY:Easy;
#METER:4;
#RADARVALUES:0.208333,0.334911,0.062057,0.000000,0.000000,141.000000,135.000000,6.000000,0.000000,0.000000,0.000000,0.000000,0.000000,0.000000,0.208333,0.334911,0.062057,0.000000,0.000000,141.000000,135.000000,6.000000,0.000000,0.000000,0.000000,0.000000,0.000000,0.000000;
#CREDIT:;
#DISPLAYBPM:155.000000;
#NOTES:
00000000
00000000
00000000
00000000
,
00000000
00000000
00000000
00000000
,
00000000
00000000
00000000
00000000
,
00000000
00000000
00000000
00000000
,
00000000
00000000
00000000
00000000
,
00011000
00010000
00010000
00000000
,
00011000
00001000
00001000
00000000
,
00000010
00000000
00001000
00000000
,
00010000
00000000
01000000
00000000
,
00000000
00010000
00000000
00000000
00000000
01000000
00000000
00010000
,
00000000
01000000
00000000
00010000
00000000
00000000
00000000
01000000
,
00000000
00000000
00000000
00000000
00000000
00000000
00000000
00010000
,
00000000
00001000
00000000
00000010
00000000
00000000
00000000
00000010
,
00000000
00000000
00000000
00000000
00000000
00000000
00000000
00001000
,
00000000
00000010
00000000
00001000
00000000
00000000
00000000
00001000
,
00000000
00000000
00000000
00000100
00000000
00000000
00000000
00000010
,
00000000
00000010
00000000
00001000
00000000
00001000
00000000
00010000
,
00000000
00000000
00000000
00000000
00000000
00000000
00000000
01000000
,
00000000
00000000
00000000
00000000
00000000
00000000
00000000
00100000
,
00000000
00000000
00000000
00000000
00000000
00000000
00000000
00010000
,
00000000
00000000
00000000
00000000
00000000
00000000
00000000
00100000
,
00000000
00010000
00000000
00010000
00000000
00001000
00000000
00001000
,
00000000
00000100
00000000
00000100
00000000
00000000
00000000
00000010
,
00000000
00000000
00000000
00001000
00000000
00000000
00000000
00000100
,
00000000
00000000
00000000
00011000
00000000
00000000
00000000
00000000
,
00001000
00010000
00000100
00000000
,
00001000
00000000
00001000
00000000
,
00001000
00010000
01000000
00000000
,
00010000
00000000
01000000
00000000
,
00010000
00000000
00001000
00000000
,
00000010
00001000
00010000
01000000
,
00010000
00010000
00010000
00010000
,
00001000
00000000
00000000
00000000
,
00000010
00000000
00000000
00000000
,
00001000
00000000
00010000
00000000
,
00001000
00000000
01000000
00000000
,
00100000
00010000
00010000
00000000
,
00001000
00000100
00000100
00000000
,
00001000
00001000
00010000
00000000
,
00010000
00010000
00000100
00001000
,
00010000
00000000
00000000
00000000
,
00000000
00000000
00000000
00000010
00000000
00000000
00000000
00010000
,
00000000
00000000
00000000
00001000
00000000
00010000
00000000
00001000
,
00000000
00010000
00000000
01000000
00000000
00000000
00000000
00000000
,
00000000
00000000
00000000
00010000
00000000
00000000
00000000
00001000
,
00000000
00000000
00000000
00000010
00000000
00000000
00000000
00010000
,
00000000
00010000
00000000
00001000
00000000
00010000
00000000
00001000
,
00000000
00010000
00000000
00000010
00000000
00000000
00000000
00000010
,
00000000
00000000
00000000
00001000
00000000
00010000
00000000
00000100
,
00000000
00000000
00000000
00001000
00000000
00000000
00000000
00001000
,
00000000
00000000
00000000
00001000
00000000
00010000
00000000
01000000
,
00000000
00000000
00000000
00010000
00000000
00000000
00000000
01000000
,
00000000
00000000
00000000
00010000
00000000
00000000
00000000
00001000
,
00000000
00000000
00000000
00000010
00000000
00001000
00000000
00010000
,
00000000
01000000
00000000
00010000
00000000
00010000
00000000
00010000
,
00000000
00010000
00000000
00001000
00000000
00001000
00000000
01000000
,
00000000
00000000
00000000
00001000
00000000
00010000
00000000
00000100
,
00000000
00000000
00000000
00100000
00000000
00010000
00000000
00001000
,
00000000
00000100
00000000
00011000
00000000
00011000
00000000
00011000
;

//---------------dance-double - ----------------
#NOTEDATA:;
#CHARTNAME:;
#STEPSTYPE:dance-double;
#DESCRIPTION:;
#CHARTSTYLE:;
#DIFFICULTY:Medium;
#METER:7;
#RADARVALUES:0.372339,0.425346,0.258569,0.000000,0.000000,252.000000,227.000000,25.000000,0.000000,0.000000,0.000000,0.000000,0.000000,0.000000,0.372339,0.425346,0.258569,0.000000,0.000000,252.000000,227.000000,25.000000,0.000000,0.000000,0.000000,0.000000,0.000000,0.000000;
#CREDIT:;
#DISPLAYBPM:155.000000;
#NOTES:
00000000
00000000
00000000
00000000
,
00000000
00000000
00000000
00000000
,
00000000
00000000
00000000
00000000
,
00000000
00000000
00000000
00000000
,
00000000
00000000
00000000
00000000
,
00100000
10000000
00010000
11000000
,
00010000
00001000
00000100
00000101
,
00001000
00000100
00001000
00000001
,
00000010
00000000
00000100
00000000
00010000
00001000
00010000
00000100
,
00000000
00010000
00000000
00011000
00000000
01000000
00000000
01100000
,
00000000
00010000
00000000
10000000
00000000
01000000
00000000
01000000
,
00000000
10000000
00010000
01000000
00000000
00010000
00000000
10000000
,
00000000
01000000
00000000
00010000
00000000
00001000
00000000
00001000
,
00000000
00010000
00000000
00011000
00000000
00001000
00000000
00000100
,
00000000
00000001
00000000
00001001
00000000
00000010
00000000
00000100
,
00000000
00001000
00000001
00000100
00000000
00000010
00000000
00000100
,
00000000
00000001
00000000
00001000
00000000
00000010
00001000
00000100
,
00000000
00001000
00000000
00000000
00000000
00000000
00000000
00000000
,
00000000
00011000
00000000
00000000
00000000
00000000
00000000
00000000
,
00000000
00100000
00000000
10000000
00000000
00010000
00000000
01000000
,
00000000
10000000
00000000
01000000
00000000
10000000
00000000
00010000
,
10000000
01000000
00000000
00010000
00000000
00001000
00000000
00011000
,
00000000
01000000
00000000
00011000
00000000
00000100
00000000
00000010
,
00000100
00000010
00000000
00000000
00001000
00000001
00000000
00000000
,
00001000
00000000
00000010
00000100
00001000
00000000
00010000
00000000
,
00010000
01010000
01000000
10000000
,
00010000
01000000
10000000
00100000
,
00010000
00001000
00000100
00000000
00000001
00000000
00000010
00000000
,
00000100
00000101
00001000
00001100
,
00001000
00000000
00000010
00000000
00000100
00000001
00000100
00000000
,
00000001
00000100
00001000
00011000
,
00010000
00000000
01000000
00000000
10000000
00010000
01000000
00000000
,
00100000
00010000
00001000
00000100
,
00001001
00000001
00001000
00001000
,
00010000
01000000
10000000
11000000
,
00000000
00100000
10000000
10000000
,
00100000
00010000
00001000
01000000
,
00100000
10000000
01000000
00010000
,
00000010
00001000
00010000
00000100
,
00000010
00000001
00000100
00001000
,
00001000
00000000
00010000
00000000
00001000
00010000
00001000
00010000
,
00001000
00000000
00000000
01000000
00000000
00011000
00000000
00001000
,
00000000
00000100
00000000
00000001
00000000
00000010
00000000
00000100
,
00000000
00001000
00000000
00000010
00000000
00000010
00000000
00001000
,
00000000
00010000
00000000
01000000
00000000
01100000
00000000
10000000
,
00000000
00010000
00000000
01000000
00000000
00010000
00000000
10000000
,
00010000
10000000
00000000
10010000
00000000
01010000
00000000
00001010
,
00000000
00000110
00000000
00000010
00000000
00000100
00000000
00000001
,
00000000
00001000
00000000
00001100
00000000
00000101
00000000
00000001
,
00000000
00000100
00000000
00000010
00000100
00001000
00000000
00010000
,
00000000
01000000
00000000
10000000
00000000
11000000
00000000
00010000
,
00000000
01000000
00000000
00100000
00000000
00100000
00000000
10000000
,
01000000
10000000
00000000
01000000
00000000
00010000
00000000
00001000
,
00000000
00011000
00000000
00001000
00000000
00000100
00000000
00000001
,
00001000
00000100
00000000
00000010
00000000
00001000
00010000
00000000
,
00000100
00010000
00000000
00001000
00000000
00001000
00000000
00010000
,
00000000
01000000
00000000
10000000
00000000
00100000
00000000
00010000
,
00000000
01000000
00000000
10000000
00000000
01000000
00000000
00010000
,
00000000
00001000
00000000
00010000
00001000
00010000
00000100
00000000
;

//---------------dance-double - ----------------
#NOTEDATA:;
#CHARTNAME:;
#STEPSTYPE:dance-double;
#DESCRIPTION:;
#CHARTSTYLE:;
#DIFFICULTY:Hard;
#METER:9;
#RADARVALUES:0.472812,0.486110,0.279254,0.000000,0.000000,320.000000,293.000000,27.000000,0.000000,0.000000,0.000000,0.000000,0.000000,0.000000,0.472812,0.486110,0.279254,0.000000,0.000000,320.000000,293.000000,27.000000,0.000000,0.000000,0.000000,0.000000,0.000000,0.000000;
#CREDIT:;
#DISPLAYBPM:155.000000;
#NOTES:
00000000
00000000
00000000
00000000
,
00000000
00000000
00000000
00000000
,
00000000
00000000
00000000
00000000
,
00000000
00000000
00000000
00000000
,
00000000
00000000
00000000
00000000
,
10000000
01010000
00100000
00001000
,
00100000
00010000
00000000
00000100
00000000
00000000
00000000
00000001
,
00000001
00000010
00000000
00000100
00000100
00001000
00000000
01000000
,
00100000
00010000
00000000
00000100
00010000
00001000
00010000
00000100
,
00000000
00001000
00000000
00000110
00000000
00000001
00000010
00000100
,
00000000
00000001
00000000
00001000
00000000
00000010
00000100
00000010
,
00000000
00001000
00010000
00001000
00000000
00010000
00000000
00001100
,
00000000
00000001
00000000
00001000
00000000
00010000
00000000
01010000
,
00000000
00001000
00010000
01000000
00000000
10000000
00000000
00010000
,
00000000
00100000
00010000
00001000
00000000
00000100
00000000
00000001
,
00000000
00000101
00000000
00001100
00000000
00001000
00000010
00000100
,
00000000
00000001
00000010
00000100
00000000
00010000
00001000
00010000
,
00000100
00000010
00000000
00000000
00000000
00000000
00000000
00000000
,
00000000
00000100
00001000
00000100
00000000
00000001
00000000
00000100
,
00000000
00000010
00000001
00000100
00000000
00001000
00000000
00010000
,
00000000
00001000
00010000
00001000
00000000
01000000
00000000
00010000
,
00100000
01000000
00000000
10000000
00000000
00010000
00000000
11000000
,
00000000
00100000
00000000
00110000
00000000
00001000
00000000
00010000
,
00001000
00010000
00000000
00000000
00000010
00000100
00000000
00000000
,
00000101
00000000
00000010
00000001
00001000
00000000
00000110
00000000
,
00000001
00000100
00001000
00000000
00010000
00000000
01000000
00000000
,
10000000
00010000
01000000
00100000
01000000
00010000
00100000
01000000
,
00010000
00001000
00000100
00000000
00000001
00000000
00001100
00000000
,
00001000
00000000
00001000
00000000
00000010
00000100
00000100
00000100
,
00000001
00000100
00001000
00000000
00000001
00000000
00000100
00000000
,
00000001
00000100
00001000
00100000
01000000
10000000
00010000
00000000
,
01000000
10000000
00100000
00000000
10000000
00000000
01000000
00000000
,
00010000
00001000
00000100
00000001
00001000
00000001
00000100
00000000
,
00000010
00001000
00000001
00000000
00001000
00000000
00000101
00000000
,
00000010
00000001
00001000
00000000
00000001
00000000
00001100
00000000
,
00000010
00001000
00000100
00000000
00010000
00000000
00110000
00000000
,
00100000
00001000
00010000
00000000
10000000
00000000
01100000
00000000
,
10000000
00010000
01000000
00000000
10000000
00100000
10000000
00000000
,
00010000
10000000
01000000
00000000
00010000
00001000
00000100
00000000
,
00000001
00001000
00000001
00000000
00000010
00001000
00000100
00000000
,
00000100
00001000
00000010
00000000
00010000
00001000
00010000
00001000
,
01010000
00000000
00000000
00010000
01000000
00010000
00000000
00100000
,
00010000
01000000
00000000
00010000
00001000
00000010
00000100
00000001
,
00000010
00000100
00001000
00000001
00001000
00000001
00000000
00001000
,
00000100
00001000
00000000
00000010
00000100
00000010
00000100
00001000
,
00010000
01000000
00000000
00100000
00010000
10000000
00000000
00010000
,
10000000
01000000
10000000
00010000
00100000
01000000
10000000
00100000
,
10000000
01010000
00000000
00010000
00000000
00000100
00000000
00000010
,
00000001
00001000
00000000
00000001
00000010
00000100
00001000
00000000
,
00001001
00000000
00000000
00000010
00000100
00001000
00010000
00001000
,
00000000
00010000
00000000
00100000
00000000
00010000
00000000
00100000
,
10000000
01000000
00100000
00010000
00000000
10100000
00000000
01000000
,
00000000
00010000
00000000
10000000
01000000
00010000
00000010
00000100
,
00000001
00001000
00000000
00000010
00001000
00000001
00000000
00000010
,
00001000
00000100
00000000
00001010
00000000
00001000
00011000
00000000
,
00010000
01010000
00000000
00010000
00000000
01000000
00000000
10000000
,
00010000
01000000
00000000
10000000
00000000
01010000
00000000
00010000
,
10000000
01000000
00000000
00010000
00000000
00011000
00000000
00000100
,
00000000
00001100
00000000
00000001
00001000
00001100
00000101
00000000
;

//---------------dance-single - ----------------
#NOTEDATA:;
#CHARTNAME:;
#STEPSTYPE:dance-single;
#DESCRIPTION:;
#CHARTSTYLE:;
#DIFFICULTY:Challenge;
#METER:17;
#RADARVALUES:0.809690,1.006868,0.144799,0.289597,0.894649,548.000000,534.000000,14.000000,28.000000,0.000000,0.000000,0.000000,0.000000,0.000000,0.809690,1.006868,0.144799,0.289597,0.894649,548.000000,534.000000,14.000000,28.000000,0.000000,0.000000,0.000000,0.000000,0.000000;
#CREDIT:;
#DISPLAYBPM:155.000000;
#NOTES:
// measure 0
0000
0000
0000
0000
,  // measure 1
0000
0000
0000
0000
,  // measure 2
0000
0000
0000
0000
,  // measure 3
0000
0000
0000
0000
,  // measure 4
0000
0000
0000
0000
0000
0000
0000
0000
0000
0000
0000
0000
0001
0010
0001
1000
,  // measure 5
0001
0000
0101
0000
1010
0000
1000
0200
,  // measure 6
0000
0000
0010
0000
0000
0000
1300
0000
0010
0000
0100
0000
0001
0000
0010
0001
,  // measure 7
0020
0000
0000
0001
0000
0000
0031
0000
2000
0000
0000
0100
0000
0000
3100
0000
,  // measure 8
0020
0000
0000
0001
0000
0000
0031
0010
0100
0000
0001
0010
0000
0001
0010
0000
,  // measure 9
0000
0000
0011
0000
0001
0000
1000
0100
1000
0000
0001
0000
1000
0010
0100
0000
,  // measure 10
0001
0000
0010
0000
0001
0000
1000
0000
0100
0010
0100
0000
1000
0000
0010
0100
,  // measure 11
0010
0100
0010
0000
1000
0000
0001
0000
0100
0000
0010
0000
1000
0000
1000
0001
,  // measure 12
1000
0000
0001
0000
0010
0000
0100
0000
1000
0100
1000
0000
0100
1000
0010
0000
,  // measure 13
0200
0000
0000
0000
1300
0001
0010
0000
0100
0000
1000
0000
0001
0000
0100
0000
,  // measure 14
0020
0000
0000
0000
0130
0001
0010
0000
0100
0000
1000
0000
1000
0000
0100
1000
,  // measure 15
0010
0100
0001
0000
0010
0001
0010
0000
1000
0000
0100
0000
0010
0001
0010
0000
,  // measure 16
0100
0000
1000
0100
1000
0100
1000
0100
1000
0100
1000
0100
0000
1000
0100
0000
,  // measure 17
1000
0200
0000
0000
0000
0000
0000
0000
,  // measure 18
0300
2000
0000
0000
0000
0000
0000
0000
,  // measure 19
3000
0020
0000
0000
0000
0000
0000
0000
,  // measure 20
0030
0200
0000
0000
0000
0000
0000
0000
,  // measure 21
0301
0010
0001
0000
1000
0000
0010
0000
0100
0000
0001
0000
1000
0000
0100
0000
,  // measure 22
0010
0000
0010
0001
0010
0000
0010
0100
,  // measure 23
0010
0000
0100
0000
0001
0000
0100
0000
0100
0000
0010
0000
0010
0000
0001
0010
,  // measure 24
0001
0000
1001
0001
0011
0000
0101
0000
,  // measure 25
1100
0000
0000
1000
0010
0000
0000
1000
0100
0000
0000
1000
0010
0000
0100
0000
,  // measure 26
0000
0000
0001
0000
0000
0000
0010
0000
0000
0000
0001
0010
0001
0000
1000
0000
,  // measure 27
1010
0000
0000
0100
0001
0000
0000
1000
0010
0000
0000
1000
0100
0000
1000
0000
,  // measure 28
0000
0000
0001
0010
0100
0000
1000
0000
0100
0000
1000
0100
1000
0100
0010
0000
,  // measure 29
0001
0000
0100
0000
1000
0000
0100
0000
0010
0000
0010
0000
0001
0010
0001
0000
,  // measure 30
1000
0000
0010
0000
0001
0000
0010
0000
0000
0000
0100
1000
0100
0000
1000
0000
,  // measure 31
0010
0000
0001
0000
0010
0000
1000
0010
0000
0000
0001
0010
0001
0000
1000
0000
,  // measure 32
0020
0000
0000
0000
0130
0000
0020
0000
0000
0000
0130
0000
0010
0100
0010
0100
,  // measure 33
0001
0010
0001
0010
0100
1000
0100
1000
0001
0010
0100
1000
0001
1000
0100
0000
,  // measure 34
1000
0100
1000
0100
0010
0001
0010
0001
1000
0001
0100
0001
0010
0001
0010
0000
,  // measure 35
0100
1000
0010
1000
0001
1000
0100
1000
0100
1000
0010
1000
0001
1000
0010
0000
,  // measure 36
0100
0001
0100
0001
0100
0001
1000
0001
1000
0001
0100
0001
0010
0001
0100
0000
,  // measure 37
0010
1000
0100
1000
0010
1000
0001
1000
0100
1000
0100
1000
0010
1000
0100
0000
,  // measure 38
0100
1000
0100
1000
0010
0100
0010
0100
0001
0010
0001
0010
0100
1000
0100
0000
,  // measure 39
0010
0001
0010
0001
0100
0010
0100
0010
1000
0100
1000
0100
0010
0001
0010
0000
,  // measure 40
0001
0010
0100
1000
0100
1000
0001
0010
0100
1000
0100
1000
0010
0200
0010
0300
,  // measure 41
2002
0000
3003
0000
1000
0000
0100
0000
0000
1000
0100
0000
0000
1000
0100
0000
,  // measure 42
0010
0001
0010
0000
0100
0000
1000
0000
0100
0000
0001
0000
0100
0000
1000
0000
,  // measure 43
0010
0100
0010
0100
0001
1000
0100
1000
0010
0000
0100
0000
0001
0000
0010
0000
,  // measure 44
0001
0000
1000
0010
1000
0000
0010
0000
0100
0000
0001
0000
0010
0000
0000
0001
,  // measure 45
0010
0001
1000
0000
0002
0000
1000
0000
1000
0000
0100
0000
0100
0000
0013
0000
,  // measure 46
0000
0000
0011
0000
0001
0100
0020
0000
2030
0000
3200
0000
0320
0000
0032
0000
,  // measure 47
0023
0000
0130
1000
0100
1000
0010
0100
0010
0100
0001
0010
0001
0010
0001
1000
,  // measure 48
0001
1000
0100
1000
0100
1000
0010
0100
0010
0100
0001
0010
0001
0010
0001
1000
,  // measure 49
0001
1000
0100
1000
0100
1000
0010
0100
0010
0100
0001
0010
0001
0010
0100
1000
,  // measure 50
0100
1000
0001
0010
0100
1000
0100
0010
0001
0010
0100
1000
0100
0010
0001
1000
,  // measure 51
0001
0000
1000
0000
0001
0000
0010
0100
0010
0100
0001
0010
0001
0100
0010
1000
,  // measure 52
0001
0100
0010
1000
0001
0010
0100
1000
0100
0010
0001
0010
0100
0000
0100
0000
,  // measure 53
0001
0010
0100
0000
1000
0100
0010
0000
0100
0000
1000
0000
0010
0100
0002
0000
,  // measure 54
0013
0001
1000
0020
0000
0130
0001
0000
,  // measure 55
1000
0000
0100
1000
0100
1000
0010
0100
0010
0100
0001
0010
0001
0010
0100
1000
,  // measure 56
0100
0010
0100
1000
0100
0000
0010
0100
1000
0100
0010
0000
0001
0010
0000
0000
,  // measure 57
0100
1000
0100
0000
1000
0000
0020
0000
0000
0000
0130
0000
0002
0000
0000
0000
,  // measure 58
1003
0000
0001
0010
0100
0000
1100
0000
1100
0000
1100
0000
2200
0000
0000
0000
,  // measure 59
3300
0000
0000
0000
;
