#TITLE:DANCING ALL ALONE;
#SUBTITLE:;
#ARTIST:SMiLE.dk;
#TITLETRANSLIT:;
#SUBTITLETRANSLIT:;
#ARTISTTRANSLIT:;
#GENRE:;
#CREDIT:;
#BANNER:DANCING ALL ALONE.png;
#BACKGROUND:DANCING ALL ALONE-bg.png;
#LYRICSPATH:;
#CDTITLE:;
#MUSIC:DANCING ALL ALONE.ogg;
#OFFSET:0.000000;
#SAMPLESTART:44.573002;
#SAMPLELENGTH:15.000000;
#SELECTABLE:YES;
#DISPLAYBPM:140.000000;
#BPMS:0.000000=140.007004
,4.000000=139.990005
;
#STOPS:
;
#BGCHANGES:;
#KEYSOUNDS:;
#ATTACKS:;

//---------------dance-single - ----------------
#NOTES:
     dance-single:
     :
     Easy:
     4:
     0.221431,0.247503,0.087501,0.037500,0.000000,124.000000,117.000000,7.000000,3.000000,0.000000,0.000000,0.221431,0.247503,0.087501,0.037500,0.000000,124.000000,117.000000,7.000000,3.000000,0.000000,0.000000:
0000
0000
0000
0000
,
0000
0000
0000
0000
,
0000
0000
0000
0000
,
0001
0000
1000
0000
,
0010
0001
0001
0001
,
0010
1000
1000
0000
,
1001
0000
0000
0000
,
0001
0000
1000
0000
,
0010
0001
0001
0001
,
0010
1000
1000
0000
,
0001
0000
0001
0001
,
0001
0100
1000
0000
,
0000
1000
0100
1000
,
0001
0100
1000
0100
,
1000
0000
1000
1000
,
1000
0100
0001
0000
,
0000
0001
0100
0001
,
1001
0000
0000
0000
,
0000
0001
0001
0000
,
1000
0001
0100
0000
,
0001
0001
0010
0010
,
1000
0001
0100
0100
,
0000
1000
1000
0000
,
0001
1000
0100
0000
,
1000
1000
0010
0010
,
0001
1000
0000
1001
,
0010
0001
0010
0000
,
0100
0100
0100
0000
,
0010
1000
0010
0001
,
0100
0000
0100
0001
,
0010
1000
0010
0000
,
0100
0100
0100
0000
,
0010
0001
0010
1000
,
0100
0000
0100
1001
,
0000
0001
0100
0100
,
0001
0000
0100
0000
,
1000
1000
0100
0100
,
1000
0000
0110
0000
,
0000
1000
0100
0100
,
1000
0000
0100
0000
,
0001
0001
0100
0100
,
1001
0000
0000
0010
,
0220
0000
0000
0330
,
0200
0000
0000
0000
,
0300
0000
0000
0000
;

//---------------dance-single - ----------------
#NOTES:
     dance-single:
     :
     Medium:
     7:
     0.358933,0.412505,0.387505,0.037500,0.000000,201.000000,170.000000,31.000000,3.000000,0.000000,0.000000,0.358933,0.412505,0.387505,0.037500,0.000000,201.000000,170.000000,31.000000,3.000000,0.000000,0.000000:
0000
0000
0000
0000
,
0000
0000
0000
0000
,
0000
0000
0000
0000
,
1001
0000
0000
0000
,
1001
0000
1000
0100
0010
0000
0100
0010
,
0001
0000
0010
0001
1000
0000
0100
0000
,
1001
0000
0110
0000
,
1000
0100
0010
0000
0001
0100
0010
0000
,
1000
1100
0001
0101
,
1000
0100
0001
0100
1000
0010
0100
0000
,
0101
0000
1010
0000
,
0110
0000
1000
0001
0000
0110
0000
0000
,
0000
0010
0001
0010
0100
0010
0100
1000
,
0100
0000
0010
0100
0000
0101
0000
0000
,
0000
1000
0100
0010
0001
0010
0100
1000
,
0001
0000
0100
0100
0000
1001
0000
0000
,
0000
0100
0010
0100
1000
0010
0100
0010
,
1000
1100
0010
0011
,
0000
0000
0100
0100
0000
0000
0001
0000
,
1000
0000
1000
0000
0000
0001
0100
0001
,
0000
0010
0100
0010
,
0001
0100
0010
1000
,
1100
0000
0001
0001
0000
0000
1000
0000
,
0100
0000
0010
0000
0000
1000
0010
0001
,
0000
0000
0010
0010
0000
0000
1000
0000
,
0100
0010
0001
1000
,
0100
1100
0010
0101
,
0010
0000
0100
1000
0000
0001
0100
0010
,
0000
1000
1100
0100
,
0101
0001
0011
0010
,
1010
0100
0011
0100
,
1000
0000
0010
0100
0000
1000
0100
0010
,
0000
0011
0010
0100
,
1100
0010
0100
0001
,
0110
0000
0110
0000
,
0001
0000
1000
0100
0000
0010
0001
0010
,
0000
0001
0100
1000
,
0100
0001
0100
0010
,
1000
0101
1000
0101
,
0001
1100
0001
1100
,
0001
0010
0100
1000
,
0010
0000
0100
0100
0000
0010
1000
0001
,
2002
0000
0000
3003
,
0200
0000
0000
0000
,
0300
0000
0000
0000
;

//---------------dance-single - ----------------
#NOTES:
     dance-single:
     :
     Hard:
     10:
     0.448220,0.467506,0.462506,0.012500,0.006250,251.000000,214.000000,37.000000,1.000000,0.000000,0.000000,0.448220,0.467506,0.462506,0.012500,0.006250,251.000000,214.000000,37.000000,1.000000,0.000000,0.000000:
0000
0000
0000
0000
,
0000
0000
0000
0000
,
0000
0000
0000
0000
,
0010
0010
1000
1010
,
0010
0100
1000
0001
0100
0010
1000
0001
,
0010
0100
1000
0001
0010
0100
1000
0000
,
1100
0000
0101
0000
,
0010
0011
1100
0100
,
1000
1000
0100
0010
0001
0001
1000
0100
,
0010
0010
0001
1000
0100
0100
0100
0000
,
0000
0010
0010
0001
0100
0001
1000
0001
,
0101
0000
0100
0001
0000
1001
0000
0000
,
0000
0010
0010
0100
1000
1000
0001
0000
,
1000
0100
0010
0001
0000
0011
0000
0000
,
0000
1000
1000
0100
0001
0001
0100
0010
,
0110
0000
0001
1000
0000
0110
0000
0000
,
0000
0001
0001
0100
0010
0010
0100
0000
,
0001
0010
0100
1000
0000
1100
0000
0000
,
0001
0000
0101
0000
1000
0100
1000
0100
,
0010
0100
1000
1001
,
0101
0000
0100
1000
0100
0000
1100
0000
,
0001
0101
0010
1010
,
0100
0000
0100
0000
0001
0100
0010
0100
,
0100
0000
0000
0000
,
1000
0000
0001
1000
0000
0000
0000
0000
0001
0000
0010
0000
0001
0000
0100
0000
,
0001
1001
0101
1100
,
1000
0100
0010
0001
0100
0010
1000
0000
,
0110
0000
0100
1001
0000
0000
0000
0000
,
0010
0010
0100
0001
0010
0100
1000
0000
,
1100
1000
0001
0011
0000
1001
0000
0000
,
1000
0100
0001
0100
1000
0001
0001
0000
,
1001
0000
0010
0110
0000
0000
0000
0000
,
1000
1000
0100
1000
0010
0100
0001
0000
,
0101
0001
1000
1010
0000
1001
0000
0000
,
0000
0001
0010
0100
1000
0001
0100
1000
,
1100
0000
0100
0010
0000
0010
0000
0100
,
0000
1000
1000
0100
0010
0001
0001
0100
,
0110
0000
1000
0001
0000
1001
0000
0000
,
0000
1000
0100
0010
0001
1000
0010
0001
,
0011
0000
0100
0010
0000
1000
0000
0001
,
0000
0010
0100
0010
0001
0001
0001
0000
,
0110
0000
1000
1000
0100
0001
0101
0000
,
1001
0000
0000
0000
,
0200
0000
0000
0000
,
0300
0000
0000
0000
;

//---------------dance-double - ----------------
#NOTES:
     dance-double:
     :
     Easy:
     2:
     0.167859,0.236253,0.062501,0.000000,0.000000,94.000000,89.000000,5.000000,0.000000,0.000000,0.000000,0.167859,0.236253,0.062501,0.000000,0.000000,94.000000,89.000000,5.000000,0.000000,0.000000,0.000000:
00000000
00000000
00000000
00000000
,
00000000
00000000
00000000
00000000
,
00000000
00000000
00000000
00000000
,
10000000
00000000
00000000
00000000
,
00100000
00010000
00010000
00010000
,
00100000
00001000
00001000
00000000
,
00011000
00000000
00000000
00000000
,
00000001
00000000
00000000
00000000
,
00000010
00001000
00001000
00001000
,
00000010
00010000
00010000
00000000
,
00000000
00000000
00000000
00000000
,
00010000
01000000
10000000
00000000
,
10000000
00000000
10000000
00000000
,
10000000
01000000
00010000
00001000
,
00000000
00000000
00000000
00000000
,
00000001
00000100
00001000
00000000
,
00000000
00000000
00000000
00000000
,
00001001
00000000
00000000
00000000
,
00000000
00010000
00010000
00000000
,
10000000
00010000
01000000
00000000
,
00010000
00000000
00001000
00000000
,
00000100
00000000
00000000
00000000
,
00000000
00001000
00001000
00000000
,
00000001
00001000
00000100
00000000
,
00001000
00000000
00010000
00000000
,
01000000
00000000
00000000
00000000
,
00100000
00010000
00100000
00000000
,
01000000
01000000
01000000
00000000
,
00100000
10000000
00100000
00010000
,
00001000
00000000
00000000
00000000
,
00000010
00001000
00000010
00000000
,
00000100
00000100
00000100
00000000
,
00000010
00000001
00000010
00001000
,
00010000
00000000
00000000
01000000
,
00000000
00010000
01000000
00000000
,
00010000
00000000
01000000
00000000
,
00100000
00000000
00010000
00000000
,
00001000
00000000
00000110
00000000
,
00000000
00000001
00000100
00000100
,
00000001
00000000
00000100
00000000
,
00001000
00001000
00010000
00010000
,
01100000
00000000
00000000
00100000
,
10010000
00000000
00000000
00000000
,
00000000
00000000
00000000
00000000
;

//---------------dance-double - ----------------
#NOTES:
     dance-double:
     :
     Medium:
     5:
     0.410719,0.456881,0.362505,0.000000,0.000000,230.000000,201.000000,29.000000,0.000000,0.000000,0.000000,0.410719,0.456881,0.362505,0.000000,0.000000,230.000000,201.000000,29.000000,0.000000,0.000000,0.000000:
00000000
00000000
00000000
00000000
,
00000000
00000000
00000000
00000000
,
00000000
00000000
00000000
00000000
,
00011000
00000000
00000000
00000000
,
00010000
00100000
01000000
00000000
00100000
00010000
00001000
00000000
,
00001000
00000010
00000100
00000000
00000010
00001000
00010000
00000000
,
00011000
00000000
00011000
00000000
,
00001000
00000100
00000010
00000001
00000000
00000000
00000000
00000000
,
00001000
00000001
00000100
00000000
00000010
00001000
00010000
00000000
,
01000000
00100000
10000000
00000000
01000000
00100000
00010000
00000000
,
00000000
01000000
01000000
00100000
01000000
00010000
01000000
00001000
,
00010000
00000000
00000100
00010000
00000000
00010100
00000000
00001100
,
00000000
00000100
00001000
00000001
00000100
00000100
00000010
00000100
,
00001000
00000000
00010000
00001000
00000000
00011000
00000000
00011000
,
00000000
01000000
01000000
01000000
00001000
00010000
00000010
00000010
,
00000010
00000000
00010000
00001000
00000000
00101000
00000000
00110000
,
00000000
00010000
10000000
10000000
10000000
01000000
00100000
00010000
,
00001000
00011000
00001100
00000110
,
00010000
00000000
00010000
00000000
00001000
00000100
00000001
00000100
,
00001000
00000000
00000000
00000000
,
00000000
00000000
00100000
01000000
00010000
00100000
01000000
10000000
,
00010000
00000000
00010000
00001000
00000000
00001100
00000000
00000000
,
00000001
00000010
00000100
00010000
00001000
00100000
01000000
10000000
,
00010000
00000000
00000000
00000000
,
00010000
00000000
00010000
00000000
00100000
00010000
00001000
00000100
,
00000010
00000000
00000001
00000010
00000000
00000110
00000000
00000000
,
00000010
00000010
00001000
00000100
00010000
00001000
01000000
00010000
,
01000000
00000000
00001000
00001000
00000000
00000000
00000000
00000000
,
00100000
01000000
10000000
00010000
00100000
00001000
00010000
00000000
,
01000000
01000000
01000000
01000000
00000000
00011000
00000000
00000000
,
00000010
00000000
00000010
00000000
00001000
00000010
00000001
00000000
,
00000010
00000000
00001010
00000000
00001000
00000000
00000000
00010000
,
01000000
00010000
00001000
00010000
01000000
00000000
10010000
00000000
,
10000000
01000000
00100000
00001000
00000000
00011000
00000000
00000000
,
00000000
00010000
00010000
00000010
00010000
00000000
00001010
00000000
,
00000101
00000000
00000100
00000010
00000000
00010000
00000000
10000000
,
00000000
11000000
00100000
01010000
,
00010000
00001010
00000001
00001100
,
00000000
00010000
00010000
00000100
00001000
00000000
00001001
00000000
,
00000110
00000000
00010000
00001000
00000000
01100000
00000000
01100000
,
00000000
00010000
10000000
01000000
00100000
00010000
01000000
00001000
,
00010000
00000010
00000100
00000001
00001000
00000100
00010000
01000000
,
00100000
00000000
00000000
00000000
,
00011000
00000000
00000000
00000000
,
00000000
00000000
00000000
00000000
;

//---------------dance-double - ----------------
#NOTES:
     dance-double:
     :
     Hard:
     7:
     0.471434,0.456881,0.287504,0.000000,0.000000,264.000000,241.000000,23.000000,0.000000,0.000000,0.000000,0.471434,0.456881,0.287504,0.000000,0.000000,264.000000,241.000000,23.000000,0.000000,0.000000,0.000000:
00000000
00000000
00000000
00000000
,
00000000
00000000
00000000
00000000
,
00000000
00000000
00000000
00000000
,
00100000
00000000
00001000
00011000
00000000
00000000
00000000
00000000
,
00010000
01000000
10000000
01000000
00010000
00001000
00000010
00000001
,
00000010
00001000
00010000
00001000
00100000
00001000
00010000
00000000
,
00100000
01000000
10000000
00010000
01000000
00001000
00010000
00000000
,
00001010
00000000
00000001
00000100
00000000
00000000
00000000
00000000
,
00000010
00000100
00001000
00010000
00100000
01000000
00010000
00100000
,
01000000
10000000
00010000
00001000
00000100
00000010
00000001
00000000
,
00000000
00000100
00000100
00000010
00000001
00000100
00001000
00010000
,
00100000
00000000
01000000
01000000
00000000
01010000
00000000
00011000
,
00000000
00000010
00000001
00001000
00000100
00010000
00001000
00100000
,
00010000
10000000
01000000
01000000
00000000
10010000
00000000
00000000
,
00000000
00100000
00100000
00010000
01000000
00001000
00010000
00000010
,
00001000
00000000
00000100
00000100
00000000
00001100
00000000
00011000
,
00000000
00010000
00001000
00000010
00001000
00010000
00001000
00010000
,
00100000
00010000
00001000
00010000
00000000
00011000
00000000
00000000
,
00000010
00000000
00000010
00000000
00001000
00000001
00000100
00001000
,
00010000
00001000
00000010
00000001
00000100
00001000
00001000
00001000
,
00010000
00000000
01000000
00000000
10000000
00100000
01000000
00010000
,
00001000
00000010
00000100
00000001
00000000
00000110
00000000
00000000
,
00001000
00000000
00001000
00000000
00010000
00100000
10000000
01000000
,
01000000
10000000
00100000
01000000
00100000
00010000
00010000
00010000
,
00001000
00000000
00000100
00000000
00000001
00000010
00000100
00001000
,
00010000
00100000
01000000
10000000
00000000
10010000
00000000
00000000
,
00100000
00100000
00010000
00001000
00010000
01000000
00010000
00010000
,
00011000
00000000
00001000
00000100
00000000
00000000
00000000
00000000
,
00000100
00000010
00001000
00000001
00000010
00000100
00010000
00010000
,
00001000
00100000
00010000
00110000
00000000
11000000
00000000
00000000
,
00100000
00100000
10000000
00010000
01000000
00001000
00010000
00010000
,
00010100
00000000
00000010
00000001
00000000
00000000
00000000
00000100
,
00000100
00000010
00010000
00001000
00010000
01000000
00100000
00100000
,
00010000
10000000
00100000
00110000
00000000
00011000
00000000
00000000
,
00000000
00001000
00001000
00001000
00000010
00010000
00000100
00001000
,
00001001
00001000
00010000
10010000
,
00000000
00010000
00100000
01000000
10000000
10000000
10000000
01000000
,
00001000
00010000
00000010
00000001
00000000
00000101
00000000
00000000
,
00000000
00000010
00000010
00000010
00001000
00010000
00010000
00010000
,
01000000
00000000
10000000
10000000
00000000
00101000
00000000
00010100
,
00000000
00001000
00001000
00000001
00000100
00000100
00000010
00010000
,
00001000
00100000
01000000
10000000
00000000
00010000
00010000
00010000
,
01010000
00000000
00000000
00000000
,
00001100
00000000
00000000
00000000
,
00000000
00000000
00000000
00000000
;

//---------------dance-single - ----------------
#NOTES:
     dance-single:
     :
     Beginner:
     5:
     0.203574,0.440005,0.387505,0.175002,0.000000,114.000000,83.000000,31.000000,14.000000,0.000000,0.000000,0.203574,0.440005,0.387505,0.175002,0.000000,114.000000,83.000000,31.000000,14.000000,0.000000,0.000000:
0000
0000
0000
0000
,
0000
0000
0000
0000
,
0000
0000
0000
0000
,
0020
0000
0030
0000
,
0200
0000
0000
0000
,
0300
0000
0000
0000
,
0000
1000
0000
1000
,
0000
0001
0000
0001
,
0000
1000
0000
1000
,
0000
0001
0000
1001
,
0000
2000
0000
3000
,
0000
0000
0000
0000
,
0000
0200
0300
0000
,
0010
0000
0000
0000
,
0000
0020
0030
0000
,
0100
0000
0000
0000
,
0000
2000
3000
0000
,
0001
0000
0000
0000
,
0001
0001
1000
1000
,
0200
0000
0300
0000
,
0000
0010
0010
1000
,
1000
0000
0200
0300
,
0000
0010
0010
0100
,
0200
0000
0300
0000
,
0010
0100
0010
0100
,
0001
1000
0001
1000
,
0100
0100
1000
0100
,
0010
1000
0001
0000
,
0010
0100
0001
0000
,
2000
0000
3000
0000
,
1001
0000
0000
0000
,
0001
0000
0010
0000
,
0001
0000
0000
0000
,
1001
0000
0000
0000
,
0000
0110
0110
0110
,
0110
0110
0110
0000
,
0000
1001
1001
1001
,
1001
1001
1001
1001
,
0000
0110
0110
0110
,
0110
0110
0110
0000
,
0000
1001
1001
1001
,
1001
1001
1001
1001
,
2002
0000
3003
0000
,
0220
0000
0000
0000
,
0330
0000
0000
0000
;

//---------------dance-single - ----------------
#NOTES:
     dance-single:
     :
     Challenge:
     14:
     0.696437,0.825010,1.062513,0.512506,0.200002,390.000000,305.000000,85.000000,41.000000,0.000000,0.000000,0.696437,0.825010,1.062513,0.512506,0.200002,390.000000,305.000000,85.000000,41.000000,0.000000,0.000000:
// measure 0
0000
0000
0000
0000
,  // measure 1
0000
0000
0000
0000
,  // measure 2
0000
0000
0000
0000
,  // measure 3
0001
0000
0000
0010
0200
0000
1000
0000
0000
0000
1000
0000
0000
0000
1300
0000
,  // measure 4
0002
0010
0000
0010
0000
0010
0000
0013
,  // measure 5
2000
0100
0000
0010
0000
0100
0000
3010
,  // measure 6
1010
1000
0001
1000
0100
0010
0001
1000
,  // measure 7
1001
0001
0100
0010
1000
0100
0010
0001
,  // measure 8
0011
0001
0100
0010
1000
0001
0100
0010
,  // measure 9
1010
0000
1000
0000
1001
0000
0001
0000
0100
0000
0001
1000
0100
0000
0000
0000
,  // measure 10
1100
0000
1000
0000
0001
0000
1000
0000
1001
0000
0001
1000
0010
0000
0010
0000
,  // measure 11
0110
0000
0000
0100
0001
0000
2000
0000
0000
0000
3001
0000
1000
0000
0100
0000
,  // measure 12
0110
0000
0010
0000
0001
0000
1000
0000
1001
0000
0001
0010
0100
0000
1000
0000
,  // measure 13
1010
0000
1000
0000
0002
0000
1000
0000
0000
0000
0103
0000
0001
1000
0001
0000
,  // measure 14
1001
0000
1000
0000
0001
0000
0010
0000
0110
0000
0100
1000
0010
0000
0100
0000
,  // measure 15
0001
0000
0000
0010
0001
0000
2000
0000
0000
0000
3100
0000
1000
0000
0001
0000
,  // measure 16
0101
0000
0100
0000
0010
0000
1000
0000
1010
0000
1000
0001
0010
0000
0001
0000
,  // measure 17
2000
0000
0000
0000
3000
1001
1001
1001
,  // measure 18
1001
0000
0001
0010
0100
0000
0010
0100
1000
0100
0010
0000
0001
1000
0100
0000
,  // measure 19
0010
0001
0100
0010
1000
0001
0200
0320
,  // measure 20
1030
0000
0001
1000
0100
0000
0001
0010
0100
1000
0001
0000
1000
0100
0010
0000
,  // measure 21
0001
0000
0000
1000
0001
0000
2000
0000
0000
0000
0001
0000
3001
0000
1000
0001
,  // measure 22
0100
0000
1000
0000
0001
0000
0010
0000
0100
0000
1000
0000
0001
0100
0010
0000
,  // measure 23
2000
0001
0000
0001
0000
0001
3001
0001
,  // measure 24
1000
0001
0010
0100
1000
0000
0000
0000
1100
0000
1100
0000
0011
0000
0011
0000
,  // measure 25
1001
0000
0000
0001
1000
0000
0002
0000
0000
0000
1000
0000
1003
0000
0000
0000
,  // measure 26
1001
0000
1001
0000
0101
0000
0101
0000
0011
0000
0001
0010
0100
0000
1000
0000
,  // measure 27
1001
0000
0000
0001
1000
0000
0020
0000
0000
0000
0100
0000
0130
0000
0001
1000
,  // measure 28
0100
0000
0010
0000
0100
0000
0010
0000
0001
0010
0001
0000
0100
0000
1000
0000
,  // measure 29
1001
0000
0000
0001
1000
0000
0200
0000
0000
0000
0310
0000
0110
0000
0010
0001
,  // measure 30
0010
0000
0011
0000
1010
0000
1010
0000
1001
0000
0001
0010
0100
0000
1000
0000
,  // measure 31
1001
0000
1001
0000
0011
0000
0011
0000
1010
0000
1000
0100
0010
0000
0100
0010
,  // measure 32
0002
0023
0230
2300
3002
0203
2300
3200
,  // measure 33
0320
0032
0203
0320
0030
2002
3003
0000
,  // measure 34
0000
1100
1100
1100
1100
1100
1100
1100
,  // measure 35
1100
1100
1100
1100
2000
3200
0320
0032
,  // measure 36
0003
0101
0101
0101
0101
0101
0101
0101
,  // measure 37
0101
0101
0101
0101
0000
0202
0000
0303
,  // measure 38
0000
0011
0011
0011
0011
0011
0011
0011
,  // measure 39
0011
0011
0011
0011
0002
0023
0230
2300
,  // measure 40
3000
1010
1010
1001
1001
1010
1010
1001
,  // measure 41
2001
0001
0001
0001
0001
0001
0001
0001
,  // measure 42
3001
0000
0000
0000
,  // measure 43
0220
0000
0000
0000
,  // measure 44
0330
0000
0000
0000
;
