#VERSION:0.83;
#TITLE:DAM DARIRAM;
#SUBTITLE:;
#ARTIST:JOGA;
#TITLETRANSLIT:;
#SUBTITLETRANSLIT:;
#ARTISTTRANSLIT:;
#GENRE:;
#ORIGIN:;
#CREDIT:;
#BANNER:DAM DARIRAM.png;
#BACKGROUND:DAM DARIRAM-bg.png;
#PREVIEWVID:;
#JACKET:DAM DARIRAM-jacket.png;
#CDIMAGE:;
#DISCIMAGE:;
#LYRICSPATH:;
#CDTITLE:;
#MUSIC:DAM DARIRAM.ogg;
#OFFSET:0.000000;
#SAMPLESTART:63.419998;
#SAMPLELENGTH:15.000000;
#SELECTABLE:YES;
#BPMS:0.000=142.300,
4.000=142.370;
#STOPS:;
#DELAYS:;
#WARPS:;
#TIMESIGNATURES:0.000=4=4;
#TICKCOUNTS:0.000=4;
#COMBOS:0.000=1;
#SPEEDS:0.000=1.000=0.000=0;
#SCROLLS:0.000=1.000;
#FAKES:;
#LABELS:0.000=Song Start;
#BGCHANGES:;
#KEYSOUNDS:;
#ATTACKS:
;

//---------------dance-single - ----------------
#NOTEDATA:;
#CHARTNAME:;
#STEPSTYPE:dance-single;
#DESCRIPTION:;
#CHARTSTYLE:;
#DIFFICULTY:Beginner;
#METER:2;
#RADARVALUES:0.134739,0.166271,0.106958,0.000000,0.000000,97.000000,86.000000,11.000000,0.000000,0.000000,0.000000,0.000000,0.000000,0.000000,0.134739,0.166271,0.106958,0.000000,0.000000,97.000000,86.000000,11.000000,0.000000,0.000000,0.000000,0.000000,0.000000,0.000000;
#CREDIT:;
#NOTES:
0000
0000
0000
0000
,
0000
0000
0000
0000
,
0000
0000
0000
0000
,
0000
0000
0000
0000
,
0000
0000
0000
0000
,
0000
0000
0000
0000
,
0000
1000
0000
1000
,
0000
1000
0000
1000
,
0000
0001
0000
0001
,
0000
0001
0000
0001
,
0000
1000
0000
1000
,
0000
1000
0000
1000
,
0000
0001
0000
0001
,
0001
0000
0000
0000
,
0001
0001
0001
0000
,
0001
0001
0000
0000
,
0001
0000
0000
0000
,
0100
0000
0000
0000
,
1000
1000
1000
0000
,
1000
1000
0000
0000
,
1000
0000
0000
0000
,
0100
0000
0000
0000
,
1001
0000
0000
0000
,
1000
0000
0001
0000
,
1001
0000
0000
0000
,
1000
0000
0001
0000
,
1001
0000
0000
0000
,
1000
0000
0001
0000
,
1001
0000
0000
0000
,
1000
0000
0001
0000
,
0110
0000
0000
0000
,
0110
0000
0000
0000
,
0110
0000
0000
0000
,
0010
0000
0100
0000
,
0110
0000
0000
0000
,
0110
0000
0000
0000
,
0110
0000
0000
0000
,
1001
0000
0000
0000
,
1000
0000
0001
0000
,
1000
0000
0001
0000
,
1000
1000
1000
0000
,
0001
0000
1000
0000
,
0001
0000
1000
0000
,
0001
0000
1000
0000
,
0001
0001
0001
0000
,
1000
0000
0001
0000
,
0001
0001
0001
0000
,
0001
0001
0000
0000
,
0001
0000
0000
0000
,
0100
0000
0000
0000
,
1000
1000
1000
0000
,
1000
1000
0000
0000
,
1000
0000
0000
0000
,
0100
0000
0000
0000
,
1000
0000
0000
0000
,
0100
0000
0000
0000
,
0010
0000
0000
0000
,
0001
0000
0000
0000
,
0000
0000
0000
0000
;

//---------------dance-single - ----------------
#NOTEDATA:;
#CHARTNAME:;
#STEPSTYPE:dance-single;
#DESCRIPTION:;
#CHARTSTYLE:;
#DIFFICULTY:Easy;
#METER:5;
#RADARVALUES:0.227807,0.393071,0.223640,0.194469,0.000000,164.000000,141.000000,23.000000,20.000000,0.000000,0.000000,0.000000,0.000000,0.000000,0.227807,0.393071,0.223640,0.194469,0.000000,164.000000,141.000000,23.000000,20.000000,0.000000,0.000000,0.000000,0.000000,0.000000;
#CREDIT:;
#NOTES:
0000
0000
0000
0000
,
0000
0000
0000
0000
,
0000
0000
0000
0000
,
0000
0000
0000
0000
,
0000
0000
0000
0000
,
0000
0000
0000
0000
,
0000
1000
0000
1000
,
0000
0001
0000
0001
,
0000
1000
0000
1000
,
0000
0001
0000
0001
,
0000
0100
0000
0100
,
0000
0010
0000
0010
,
0000
0100
0000
0100
,
0000
0000
0000
0000
,
1000
0001
1000
0001
,
0100
1000
0100
1000
,
0001
1000
0001
1000
,
0100
0001
0100
0001
,
1000
0001
1000
0001
,
0100
1000
0100
1000
,
0001
1000
0001
1000
,
0100
0001
0100
0001
,
0220
0000
0330
0000
,
1000
0100
0010
0001
,
1000
0100
0001
0100
,
0010
1000
0100
0001
,
2002
0000
3003
0000
,
0100
0010
0001
1000
,
0010
0001
1000
0100
,
0010
0001
0100
1000
,
1002
0000
0000
0003
,
2001
0000
0000
3000
,
2002
0000
0000
3003
,
0010
0010
0100
0100
,
1002
0000
0000
0003
,
2001
0000
0000
3000
,
2002
0000
0000
3003
,
0110
0000
0000
0000
,
1001
1001
1100
1100
,
0001
0100
1000
0100
,
1001
0000
1001
0000
,
0220
0000
0330
0000
,
1001
1001
0101
0101
,
1000
0100
0010
0001
,
1001
0000
1001
0000
,
0220
0000
0330
0000
,
1000
0001
1000
0001
,
0100
1000
0100
1000
,
0001
1000
0001
1000
,
0100
0001
0100
0001
,
1000
0001
1000
0001
,
0100
1000
0100
1000
,
0001
1000
0001
1000
,
0100
0001
0100
0001
,
2000
0000
0000
3000
,
0200
0000
0000
0300
,
0020
0000
0000
0030
,
0002
0000
0000
0003
,
0000
0000
0000
0000
;

//---------------dance-single - ----------------
#NOTEDATA:;
#CHARTNAME:;
#STEPSTYPE:dance-single;
#DESCRIPTION:;
#CHARTSTYLE:;
#DIFFICULTY:Medium;
#METER:8;
#RADARVALUES:0.377826,0.449224,0.369492,0.145852,0.000000,272.000000,234.000000,38.000000,15.000000,0.000000,0.000000,0.000000,0.000000,0.000000,0.377826,0.449224,0.369492,0.145852,0.000000,272.000000,234.000000,38.000000,15.000000,0.000000,0.000000,0.000000,0.000000,0.000000;
#CREDIT:;
#NOTES:
0000
0000
0000
0000
,
0000
0000
0000
0000
,
0000
0000
0000
0000
,
0000
0000
0000
0000
,
0000
0000
0000
0000
,
0000
0000
0000
0000
,
0010
0010
0010
0010
,
0100
0100
0100
0100
,
0010
0010
0010
0010
,
0100
0100
0100
0000
,
1000
1000
1000
1000
,
0001
0001
0001
0001
,
1000
1000
1000
1000
,
0220
0000
0000
0330
,
1001
0000
1001
0000
0100
0010
0100
0000
,
1001
0000
1001
0000
0010
0100
0010
0000
,
1100
0000
1100
0000
0001
0010
0001
0000
,
1100
0000
1100
0000
0010
0001
0010
0000
,
0110
0000
0110
0000
1000
0001
1000
0000
,
0110
0000
0110
0000
0001
1000
0001
0000
,
0101
0000
0101
0000
1000
0010
1000
0000
,
0101
0000
0101
0000
0010
1000
0010
0000
,
2000
0000
0000
3100
0010
0100
0000
0000
,
2000
0000
0000
3010
0100
0010
0000
0000
,
2000
0000
0000
3001
0100
0010
0000
0000
,
2000
0000
0000
3100
0010
0001
0000
0000
,
0002
0000
0000
0103
0010
0100
0000
0000
,
0002
0000
0000
0013
0100
0010
0000
0000
,
0002
0000
0000
1003
0100
0010
0000
0000
,
0002
0000
0000
0103
0010
1000
0000
0000
,
1000
0000
0100
0010
0001
0100
0010
0000
,
1000
0000
0100
0010
0001
0100
0010
0000
,
1000
0000
0100
0010
0001
0100
0010
0000
,
1000
0100
0001
0100
,
0010
0000
1000
0100
0010
0001
0100
0000
,
0010
0000
1000
0100
0010
0001
0100
0000
,
0010
0000
1000
0100
0010
0001
0100
0000
,
1010
0000
0000
0000
,
0110
0000
0001
1000
0001
0000
0001
1000
,
0001
0000
0001
1000
0100
0010
0001
1000
,
0100
0000
1000
0001
0100
0010
0000
2002
,
0000
0000
3003
0000
,
0110
0000
1000
0001
1000
0000
1000
0001
,
1000
0000
1000
0001
0100
0010
1000
0001
,
0100
0000
0001
1000
0100
0010
0000
2002
,
0000
0000
3003
0000
,
1001
0000
1001
0000
0100
0010
0100
0000
,
1001
0000
1001
0000
0010
0100
0010
0000
,
1001
0000
1100
0000
0001
0010
0001
0000
,
1001
0000
1100
0000
0010
0001
0010
0000
,
1001
0000
0110
0000
1000
0001
1000
0000
,
0110
0000
1001
0000
0010
0100
0010
0000
,
0101
0000
1001
0000
0010
0100
0010
0000
,
1001
0000
1100
0000
0010
0001
0010
0000
,
0001
0001
0001
0001
,
0100
0100
0100
0100
,
0010
0010
0010
0010
,
1000
1000
2000
3000
,
0000
0000
0000
0000
;

//---------------dance-single - ----------------
#NOTEDATA:;
#CHARTNAME:;
#STEPSTYPE:dance-single;
#DESCRIPTION:;
#CHARTSTYLE:;
#DIFFICULTY:Hard;
#METER:11;
#RADARVALUES:0.490340,0.617683,0.165299,0.155575,0.325736,353.000000,336.000000,17.000000,16.000000,0.000000,0.000000,0.000000,0.000000,0.000000,0.490340,0.617683,0.165299,0.155575,0.325736,353.000000,336.000000,17.000000,16.000000,0.000000,0.000000,0.000000,0.000000,0.000000;
#CREDIT:;
#NOTES:
0000
0000
0000
0000
,
0000
0000
0000
0000
,
0000
0000
0000
0000
,
0000
0000
0000
0000
,
0000
0000
0000
0000
,
0000
0000
0000
0000
,
1000
0001
0000
1000
0001
0000
1000
0001
0000
1000
0001
0000
1000
0000
0001
0000
,
1000
0001
0000
1000
0001
0000
0010
0100
0000
0010
0100
0000
1000
0000
0001
0000
,
1000
0100
0000
0010
0001
0000
0100
0010
0000
1000
0100
0000
0010
0000
0001
0000
,
1000
0001
0000
1000
0001
0000
0100
0010
0000
0100
0010
0000
0000
0000
0000
0000
,
0001
1000
0000
0001
1000
0000
0001
1000
0000
0001
1000
0000
0001
0000
1000
0000
,
0001
1000
0000
0001
1000
0000
0010
0100
0000
0010
0100
0000
0001
0000
1000
0000
,
0001
0100
0000
0010
1000
0000
0100
0010
0000
0001
0100
0000
0010
0000
1000
0000
,
1001
0000
0000
0100
0100
0100
0000
0000
,
1000
0000
0000
0001
0000
0000
1000
0000
0000
0001
0000
0000
0010
0000
0100
0000
,
1000
0000
0000
0001
0000
0000
1000
0000
0000
0001
0000
0000
0100
0000
0010
0000
,
1000
0000
0000
0001
0000
0000
1000
0000
0000
0001
0000
0000
0010
0000
0100
0000
,
1000
0000
0000
0001
0000
0000
1000
0000
0000
0001
0000
0000
0100
0000
0010
0000
,
1000
0000
0000
0100
0000
0000
0010
0000
0000
0001
0000
0000
0100
0000
0010
0000
,
1000
0000
0000
0100
0000
0000
0010
0000
0000
0001
0000
0000
0100
0000
0010
0000
,
1000
0000
0000
0100
0000
0000
0010
0000
0000
0001
0000
0000
0100
0000
0010
0000
,
1000
0000
0000
0100
0000
0000
0010
0000
0000
0001
0000
0000
0100
0000
0010
0000
,
1000
0100
0001
0100
1000
0100
0001
0100
,
1000
0010
0001
0100
1000
0010
0001
0100
,
0010
0100
0001
0100
0010
0100
0001
0100
,
1000
0010
0100
0001
1000
0010
0100
0001
,
1000
0100
0010
0001
0100
0010
1000
0001
,
0100
0010
1000
0100
0010
0001
0100
0010
,
1000
0001
0100
0010
1000
0001
0100
0010
,
1000
0100
0010
0001
1000
0100
0010
0000
,
1001
0000
0100
0001
1000
0100
0010
1001
,
0000
0000
0100
0001
1000
0100
0010
1001
,
0000
0000
0020
0100
0000
1000
0000
0031
,
0000
0100
0020
0000
0000
0000
0030
0000
,
1001
0000
0100
0001
1000
0100
0010
1001
,
0000
0000
0100
0001
1000
0100
0010
1001
,
0000
0020
0000
0100
0000
0001
0000
1030
,
0000
0001
0100
0000
0000
0010
1000
0100
,
0110
0000
0001
0100
0110
0000
1000
0100
,
0110
0000
0001
0100
0010
1000
0100
0010
,
0011
0000
1000
0100
0010
0001
0000
2200
,
0000
0000
0000
3300
0000
0001
0100
0010
,
1001
0000
0100
0010
1001
0000
0100
0010
,
1001
0000
0100
0010
1000
0100
0010
0001
,
1001
0000
0100
0010
1000
0001
0000
0220
,
0000
0000
0000
0330
,
1000
0000
0000
0001
0000
0000
1000
0000
0000
0001
0000
0000
0010
0000
0100
0000
,
1000
0000
0000
0001
0000
0000
1000
0000
0000
0001
0000
0000
0100
0000
0010
0000
,
1000
0000
0000
0001
0000
0000
1000
0000
0000
0001
0000
0000
0010
0000
0100
0000
,
1000
0000
0000
0001
0000
0000
1000
0000
0000
0001
0000
0000
0100
0000
0010
0000
,
2000
0000
0000
3100
0000
0000
0020
0000
0000
0031
0000
0000
0100
0000
0010
0000
,
2000
0000
0000
3001
0000
0000
0200
0000
0000
0310
0000
0000
1000
0000
0100
0000
,
0020
0000
0000
0031
0000
0000
0200
0000
0000
0310
0000
0000
1000
0000
0100
0000
,
0020
0000
0000
0031
0000
0000
2000
0000
0000
3010
0000
0000
0100
0000
0001
0000
,
1000
0100
0000
0010
0001
0000
0100
0010
0000
1000
0100
0000
0010
0000
0001
0000
,
1000
0001
0000
0000
0000
0000
0010
0100
0000
0000
0000
0000
1000
0000
0001
0000
,
1000
0001
0000
0000
0000
0000
1000
0000
0000
0000
0000
0000
1000
0000
0001
0000
,
2000
0000
3000
1000
,
0000
0000
0000
0000
;

//---------------dance-single - ----------------
#NOTEDATA:;
#CHARTNAME:;
#STEPSTYPE:dance-single;
#DESCRIPTION:;
#CHARTSTYLE:;
#DIFFICULTY:Challenge;
#METER:5;
#RADARVALUES:0.198636,0.280765,0.184746,0.194469,0.000000,143.000000,124.000000,19.000000,20.000000,80.000000,0.000000,0.000000,0.000000,0.000000,0.198636,0.280765,0.184746,0.194469,0.000000,143.000000,124.000000,19.000000,20.000000,80.000000,0.000000,0.000000,0.000000,0.000000;
#CREDIT:;
#NOTES:
0000
0000
0000
0000
,
0000
0000
0000
0000
,
0000
0000
0000
0000
,
0000
0000
0000
0000
,
0000
0000
0000
0000
,
0000
0000
0000
0000
,
0000
1000
0000
1000
,
0000
0001
0000
0001
,
0000
1000
0000
1000
,
0000
0001
0000
0001
,
0000
0100
0000
0100
,
0000
0010
0000
0010
,
0000
0100
0000
0100
,
MMMM
0000
0000
0000
,
1000
0001
1000
0001
,
0100
1000
0100
1000
,
0001
1000
0001
1000
,
0100
0001
0100
MMMM
,
1000
0001
1000
0001
,
0100
1000
0100
1000
,
0001
1000
0001
1000
,
0100
0001
0100
MMMM
,
0220
0000
0330
0000
,
1000
0100
0010
0001
,
1000
0100
0001
0100
,
0010
1000
0100
MMMM
,
2002
0000
3003
0000
,
0100
0010
0001
1000
,
0010
0001
1000
0100
,
0010
0001
0100
MMMM
,
1002
0000
0000
0003
,
2001
0000
0000
3000
,
2002
0000
0000
3003
,
0010
0010
0100
MMMM
,
1002
0000
0000
0003
,
2001
0000
0000
3000
,
2002
0000
0000
3003
,
0110
0000
0000
0000
,
1001
MMMM
1100
MMMM
,
0001
0100
1000
0100
,
1001
MMMM
1001
0000
,
0220
0000
0330
0000
,
1001
MMMM
0101
MMMM
,
1000
0100
0010
0001
,
1001
MMMM
1001
0000
,
0220
0000
0330
0000
,
1000
0001
1000
MMMM
,
0100
1000
0100
MMMM
,
0001
1000
0001
MMMM
,
0100
0001
0100
MMMM
,
1000
0001
1000
MMMM
,
0100
1000
0100
MMMM
,
0001
1000
0001
MMMM
,
0100
0001
0100
MMMM
,
2000
0000
0000
3000
,
0200
0000
0000
0300
,
0020
0000
0000
0030
,
0002
0000
0000
0003
,
0000
0000
0000
0000
;

//---------------dance-double - ----------------
#NOTEDATA:;
#CHARTNAME:;
#STEPSTYPE:dance-double;
#DESCRIPTION:;
#CHARTSTYLE:;
#DIFFICULTY:Easy;
#METER:6;
#RADARVALUES:0.301427,0.336918,0.194469,0.126405,0.000000,217.000000,197.000000,20.000000,13.000000,0.000000,0.000000,0.000000,0.000000,0.000000,0.301427,0.336918,0.194469,0.126405,0.000000,217.000000,197.000000,20.000000,13.000000,0.000000,0.000000,0.000000,0.000000,0.000000;
#CREDIT:;
#NOTES:
00000000
00000000
00000000
00000000
,
00000000
00000000
00000000
00000000
,
00000000
00000000
00000000
00000000
,
00000000
00000000
00000000
00000000
,
00000000
00000000
00000000
00000000
,
00000000
00000000
00000000
00000000
,
00002000
00000000
00000000
00003000
,
00020000
00000000
00000000
00030000
,
00200000
00000000
00000000
00300000
,
02000000
00000000
03100000
00000000
,
10000000
10000000
10000000
10000000
,
01000000
01000000
10000000
01000000
,
00010000
00010000
00010000
00010000
,
01000000
01000000
00010000
01000000
,
10010000
01000000
00010000
01000000
,
00010000
10000000
00100000
00010000
,
00001000
00001000
00000100
00000010
,
00000100
00001000
00000001
00000100
,
00001001
00000100
00001000
00000100
,
00001000
00000001
00000010
00001000
,
00010000
00010000
01000000
00100000
,
01000000
00010000
10000000
01000000
,
10010000
00100000
00010000
01000000
,
10000000
01000000
00010000
00001000
,
00000100
00000001
00000100
00001000
,
00000010
00001000
00000010
00000001
,
00000110
00001000
00000010
00000001
,
00000100
00001000
00010000
01000000
,
01100000
00010000
01100000
10000000
,
00010000
01000000
10000000
10000000
,
10020000
00100000
00130000
00100000
,
02100000
00100000
03100000
00100000
,
00010000
00001000
00000100
00010000
,
01000000
00001000
00000100
00010000
,
00020100
00031000
01000000
00001000
,
01002000
00013000
00000100
00010000
,
00000100
00000100
00000001
00000010
,
00000100
00000100
00000100
00000100
,
00002001
00003100
00000001
00000001
,
00000100
00001001
00000100
00000100
,
00001000
00010000
01000000
10000000
,
00100000
00100000
00100000
00100000
,
10020000
01030000
10000000
10000000
,
01000000
10010000
01000000
01000000
,
00010000
00001000
00000100
00000001
,
00000100
00000100
00000100
00000100
,
00000010
00000001
00000100
00001000
,
00010000
01000000
10000000
10010000
,
10000000
10010000
10000000
10000000
,
01100000
10000000
01000000
00010000
,
00100000
10000000
01000000
00010000
,
00001000
00000100
00000001
00001001
,
00000001
00001001
00000001
00000001
,
00000110
00000001
00000100
00001000
,
00000001
00000001
00000002
00000103
,
00001000
00001000
00002000
00013000
,
01000000
01000000
02000000
13000000
,
00100000
00100000
00100000
00100000
,
00000000
00000000
00000000
00000000
;

//---------------dance-double - ----------------
#NOTEDATA:;
#CHARTNAME:;
#STEPSTYPE:dance-double;
#DESCRIPTION:;
#CHARTSTYLE:;
#DIFFICULTY:Medium;
#METER:7;
#RADARVALUES:0.325042,0.364995,0.301427,0.116682,0.000000,234.000000,203.000000,31.000000,12.000000,0.000000,0.000000,0.000000,0.000000,0.000000,0.325042,0.364995,0.301427,0.116682,0.000000,234.000000,203.000000,31.000000,12.000000,0.000000,0.000000,0.000000,0.000000,0.000000;
#CREDIT:;
#NOTES:
00000000
00000000
00000000
00000000
,
00000000
00000000
00000000
00000000
,
00000000
00000000
00000000
00000000
,
00000000
00000000
00000000
00000000
,
00000000
00000000
00000000
00000000
,
00000000
00000000
00000000
00000000
,
00000000
00100000
00000000
00100000
,
00000000
00010000
00000000
00010000
,
00000000
00001000
00000000
00001000
,
00000000
00000100
00000100
00000000
,
00000010
00000001
00000100
00000100
,
00001000
00010000
00000100
00000100
,
00010000
00010000
01000000
00010000
,
00001000
00000100
00010000
00000100
,
00000110
00001000
00000101
00001000
,
01000000
10000000
10000000
00010000
,
00001000
00000100
00000001
00000001
,
00001000
01000000
10000000
00100000
,
01010000
10000000
11000000
00100000
,
00010000
00001000
00000100
00000100
,
00010000
01000000
00001000
00000100
,
00000001
00001100
00000101
00001000
,
00000020
00001000
00010030
00001000
,
00000100
00000001
00001100
00000001
,
00000010
00001000
00000010
00001000
,
00000110
00001000
00010000
01100000
,
00020000
01000000
10030000
00010000
,
10100000
00010000
01000000
10100000
,
01000000
00010000
00100000
10000000
,
01100000
00010000
00001000
00000110
,
00000102
00001003
00000100
00001000
,
00002100
00003001
00000100
00001000
,
01000000
10000000
00010000
01000000
,
00100000
10000000
01000000
00010000
,
21000000
30010000
01000000
00010000
,
01020000
10030000
01000000
00010000
,
00000100
00000001
00001000
00000100
,
00000010
00000001
00000100
00001000
,
00001002
00000103
00002001
00003100
,
00001001
01000000
00010000
00001000
,
01000000
10000000
00010000
00010000
,
00100000
00010000
01000000
10000000
,
10020000
01030000
20010000
31000000
,
10010000
00000100
00001000
00010000
,
00000100
00000001
00001000
00001000
,
00000010
00001000
00000100
00000001
,
00000110
00000001
00000110
00001000
,
00001001
01000000
10000000
00010000
,
00100000
00010000
00100000
10000000
,
10010000
00000100
00000001
00001000
,
00001100
00000001
00000110
00000001
,
00001001
01000000
10000000
00010000
,
01000000
10000000
01000000
00010000
,
10010000
00000100
00000001
00001000
,
00000002
00000000
00000103
00000000
00001000
00000000
00000010
00001000
,
00010000
00000000
01000000
00000000
10000000
00000000
00010000
10000000
,
02000000
00000000
03100000
00000000
00010000
00000000
00001000
00000100
,
00001000
00010000
01000000
10000000
,
00000000
00000000
00000000
00000000
;

//---------------dance-double - ----------------
#NOTEDATA:;
#CHARTNAME:;
#STEPSTYPE:dance-double;
#DESCRIPTION:;
#CHARTSTYLE:;
#DIFFICULTY:Hard;
#METER:11;
#RADARVALUES:0.412553,0.449224,0.000000,0.048617,0.000000,297.000000,297.000000,0.000000,5.000000,0.000000,0.000000,0.000000,0.000000,0.000000,0.412553,0.449224,0.000000,0.048617,0.000000,297.000000,297.000000,0.000000,5.000000,0.000000,0.000000,0.000000,0.000000,0.000000;
#CREDIT:;
#NOTES:
00000000
00000000
00000000
00000000
,
00000000
00000000
00000000
00000000
,
00000000
00000000
00000000
00000000
,
00000000
00000000
00000000
00000000
,
00000000
00000000
00000000
00000000
,
00000000
00000000
00000000
00000000
,
02000000
00100000
00100000
03100000
,
20000000
00010000
00010000
30010000
,
00200000
00010000
00010000
00310000
,
00001000
00001000
00010000
00000000
,
00001000
00000000
00001000
00000000
00001000
00000000
00001000
00000100
,
00000001
00001000
00010000
01000000
,
00010000
00000000
00010000
00000000
00010000
00000000
10000000
00010000
,
02000000
03010000
00000200
00000301
,
00000100
00000001
00000000
00001000
00000100
00000000
00000001
00001000
,
01000000
10000000
00000000
00010000
01000000
00000000
10000000
00010000
,
00000100
00000001
00000000
00001000
00000100
00000000
00000001
00001000
,
01000000
10000000
00000000
00010000
01000000
00000000
10000000
00010000
,
00000100
00000010
00000000
00001000
00000100
00000000
00000001
00001000
,
01000000
00100000
00000000
00010000
01000000
00000000
10000000
00010000
,
00000100
00000010
00000000
00001000
00000100
00000000
00000001
00001000
,
01000000
00100000
00000000
00010000
01000000
00000000
10000000
00010000
,
10000000
00010000
01000000
00000000
00000100
00000000
00000001
00000000
,
00000010
00001000
00001000
00000000
00000001
00000001
00000100
00000000
,
00000010
00000001
00001000
00000000
01000000
00000000
10000000
00000000
,
00100000
00010000
01000000
00000000
00100000
10000000
01000000
00000000
,
00100000
00010000
01000000
00000000
00000100
00000000
00000001
00000000
,
00000010
00000100
00000010
00000000
00000100
00001000
00000100
00000000
,
00000100
00001000
00000001
00000000
01000000
00000000
10000000
00000000
,
00100000
01000000
00010000
00000000
10000000
00100000
01000000
00000000
,
10000000
01000000
00010000
01000000
00010000
00001000
00000100
00001000
,
00000100
00000001
00000010
00000001
00000010
00001000
00001000
00000000
,
00000001
00000100
00001000
00000100
00001000
00010000
01000000
00010000
,
01000000
10000000
00100000
10000000
00100000
00010000
00010000
00000000
,
10000000
00100000
00010000
00100000
00010000
00001000
00000010
00001000
,
00000010
00000001
00000100
00000001
00000100
00001000
00001000
00000000
,
00000001
00000010
00001000
00000010
00001000
00010000
00100000
00010000
,
00100000
10000000
01000000
10000000
01000000
00010000
00010000
00000000
,
10000000
00010000
01000000
00000000
00010000
10000000
01000000
00000000
,
00010000
00001000
00000100
00001000
00000100
00000001
00000100
00000000
,
00001000
01000000
10000000
00010000
,
00000100
00000001
00001000
00000100
,
00000001
00001000
00000100
00000000
00001000
00000001
00000100
00000000
,
00001000
00010000
01000000
00010000
01000000
10000000
01000000
00000000
,
00010000
00000100
00000001
00001000
,
01000000
10000000
00010000
01000000
,
00100000
10000000
01000000
00000000
00010000
01000000
10000000
00000000
,
00010000
00001000
00000100
00000001
00000010
00000100
00001000
00000000
,
00000010
00010000
10000000
01000000
,
00010000
00000100
00000001
00000010
,
00000010
00000001
00000100
00000000
00001000
00000100
00000001
00000000
,
00001000
00010000
01000000
10000000
00100000
01000000
00010000
00000000
,
00100000
00001000
00000001
00000100
,
00001000
01000000
10000000
00100000
,
10000000
01000000
00010000
01000000
00010000
00001000
00000100
00000000
,
00000001
00000100
00001000
00000100
00001000
00010000
01000000
00000000
,
10000000
01000000
00010000
01000000
00010000
00001000
00000100
00000000
,
00000001
00000100
00001000
00000100
00001000
00010000
01000000
00000000
,
00000000
00000000
00000000
00000000
;

//---------------dance-double - ----------------
#NOTEDATA:;
#CHARTNAME:;
#STEPSTYPE:dance-double;
#DESCRIPTION:;
#CHARTSTYLE:;
#DIFFICULTY:Challenge;
#METER:6;
#RADARVALUES:0.265312,0.308842,0.097235,0.126405,0.000000,191.000000,181.000000,10.000000,13.000000,128.000000,0.000000,0.000000,0.000000,0.000000,0.265312,0.308842,0.097235,0.126405,0.000000,191.000000,181.000000,10.000000,13.000000,128.000000,0.000000,0.000000,0.000000,0.000000;
#CREDIT:;
#NOTES:
00000000
00000000
00000000
00000000
,
00000000
00000000
00000000
00000000
,
00000000
00000000
00000000
00000000
,
00000000
00000000
00000000
00000000
,
00000000
00000000
00000000
00000000
,
00000000
00000000
00000000
00000000
,
00002000
00000000
00000000
00003000
,
00020000
00000000
00000000
00030000
,
00200000
00000000
00000000
00300000
,
02000000
00000000
03100000
00000000
,
10000000
10000000
10000000
10000000
,
01000000
01000000
10000000
01000000
,
00010000
00010000
00010000
00010000
,
MMMMMMMM
01000000
00010000
01000000
,
MMMMMMMM
01000000
00010000
01000000
,
00010000
10000000
00100000
00010000
,
00001000
00001000
00000100
00000010
,
00000100
00001000
00000001
00000100
,
MMMMMMMM
00000100
00001000
00000100
,
00001000
00000001
00000010
00001000
,
00010000
00010000
01000000
00100000
,
01000000
00010000
10000000
01000000
,
MMMMMMMM
00100000
00010000
01000000
,
10000000
01000000
00010000
00001000
,
00000100
00000001
00000100
00001000
,
00000010
00001000
00000010
00000001
,
MMMMMMMM
00001000
00000010
00000001
,
00000100
00001000
00010000
01000000
,
01100000
00010000
01100000
10000000
,
00010000
01000000
10000000
MMMMMMMM
,
10020000
00100000
00130000
00100000
,
02100000
00100000
03100000
00100000
,
00010000
00001000
00000100
00010000
,
01000000
00001000
00000100
MMMMMMMM
,
00020100
00031000
01000000
00001000
,
01002000
00013000
00000100
00010000
,
00000100
00000100
00000001
00000010
,
00000100
00000100
00000100
00000100
,
00002001
00003100
00000001
00000001
,
00000100
MMMMMMMM
00000100
00000100
,
00001000
00010000
01000000
10000000
,
00100000
00100000
00100000
MMMMMMMM
,
10020000
01030000
10000000
10000000
,
01000000
MMMMMMMM
01000000
01000000
,
00010000
00001000
00000100
00000001
,
00000100
00000100
00000100
MMMMMMMM
,
00000010
00000001
00000100
00001000
,
00010000
01000000
10000000
MMMMMMMM
,
10000000
10010000
10000000
10000000
,
MMMMMMMM
10000000
01000000
00010000
,
00100000
10000000
01000000
00010000
,
00001000
00000100
00000001
MMMMMMMM
,
00000001
00001001
00000001
00000001
,
MMMMMMMM
00000001
00000100
00001000
,
00000001
00000001
00000002
00000103
,
00001000
00001000
00002000
00013000
,
01000000
01000000
02000000
13000000
,
00100000
00100000
MMMMMMMM
00100000
,
00000000
00000000
00000000
00000000
;

//---------------dance-single - Edit----------------
#NOTEDATA:;
#CHARTNAME:;
#STEPSTYPE:dance-single;
#DESCRIPTION:Edit;
#CHARTSTYLE:;
#DIFFICULTY:Edit;
#METER:16;
#RADARVALUES:0.833440,0.821268,0.175022,0.165299,1.161954,600.000000,582.000000,18.000000,17.000000,0.000000,0.000000,0.000000,0.000000,0.000000,0.833440,0.821268,0.175022,0.165299,1.161954,600.000000,582.000000,18.000000,17.000000,0.000000,0.000000,0.000000,0.000000,0.000000;
#CREDIT:;
#NOTES:
// measure 0
0000
0000
0000
0000
,  // measure 1
0000
0000
0000
0000
,  // measure 2
0000
0000
0000
0000
,  // measure 3
0000
0000
0000
0000
,  // measure 4
0000
0000
0000
0000
,  // measure 5
0000
0000
0000
0000
,  // measure 6
0001
0010
0000
0010
0100
0000
0100
1000
0000
1000
0010
0000
0100
1000
0001
1000
,  // measure 7
0001
0010
0000
0010
1000
0000
1000
0100
0000
0100
0010
0000
0010
0001
1000
0001
,  // measure 8
0100
0010
0000
0010
1000
0000
1000
0100
0000
0100
0010
0000
0001
0010
0100
0010
,  // measure 9
1000
0001
0000
0001
0010
0000
0010
0100
0000
0100
0001
0000
0001
0010
1000
0010
,  // measure 10
0001
0100
0000
0100
1000
0000
1000
0100
0000
0100
0001
0000
0100
1000
0010
0100
,  // measure 11
0010
0001
0000
0100
0001
0000
1000
0001
0000
0010
0001
0000
0010
0100
1000
0001
,  // measure 12
1000
0001
0000
0100
1000
0000
0001
1000
0000
0100
1000
0000
1000
0100
0010
0001
,  // measure 13
0200
0000
0000
0010
0301
0101
0000
0000
,  // measure 14
1000
0000
0010
0001
0000
1000
0100
0000
0010
0001
0000
0100
1000
0010
0001
0100
,  // measure 15
1000
0000
0100
0010
0000
0100
0010
0000
0001
0010
0000
0001
0010
0100
1000
0100
,  // measure 16
0010
0000
1000
0010
0000
1000
0010
0000
0100
0001
0000
0100
0001
1000
0100
0010
,  // measure 17
0001
0000
0010
0001
0000
0010
0001
0000
0100
0010
0000
0100
0010
0001
0100
0001
,  // measure 18
1000
0000
0100
0001
0000
1000
0100
0000
0010
1000
0000
0001
0010
0001
1000
0001
,  // measure 19
0100
0000
0010
1000
0000
0001
0010
0000
1000
0100
0000
0001
0100
0010
1000
0100
,  // measure 20
0010
0000
0001
0010
0000
0100
0010
0000
1000
0100
0000
0010
0001
1000
0010
0001
,  // measure 21
0100
0000
0010
0100
0000
0001
1000
0000
0100
0010
0000
1000
0001
0100
0010
1000
,  // measure 22
0100
0000
0010
0001
0010
0000
0100
0000
1000
0000
0010
1000
0010
0000
0100
0000
,  // measure 23
0001
0000
0010
0001
0010
0000
0100
0010
0100
0000
1000
0100
1000
0000
0010
1000
,  // measure 24
0010
1000
0010
0100
0010
0000
0001
0000
1000
0000
0100
0010
0100
0000
0010
0000
,  // measure 25
0001
0000
1000
0100
1000
0000
0010
0001
0010
0000
0100
0010
0100
0000
0001
0010
,  // measure 26
0001
0010
0100
0010
1000
0000
0100
0000
1000
0000
0010
0100
0010
0000
0001
0000
,  // measure 27
1000
0000
0100
1000
0100
0000
0010
0100
0010
0000
0001
0010
0001
0010
1000
0100
,  // measure 28
0010
0001
0100
0000
0001
0000
1000
0000
0001
0010
0100
1000
0010
0000
0100
0000
,  // measure 29
0001
0000
1000
0100
0010
0001
0100
0000
0010
1000
0100
0010
1001
0000
0000
0000
,  // measure 30
0201
0000
0000
0000
0310
1000
0001
1000
0100
0000
0101
0000
0100
0010
0001
0000
,  // measure 31
0021
0000
0000
0000
1030
0100
0010
0001
1000
0000
1001
0000
0001
0010
0100
0000
,  // measure 32
2100
0000
0000
0000
3010
0001
2000
0000
0000
0000
0010
0000
0000
0000
0001
0000
,  // measure 33
0000
0000
3100
0000
1100
0000
1010
0000
0010
0000
1000
0100
0010
0001
0100
0000
,  // measure 34
0102
0000
0000
0000
0013
0001
1000
0010
0100
0000
0110
0000
0010
1000
0001
0000
,  // measure 35
1200
0000
0000
0000
0301
0010
1000
0100
0010
0000
0011
0000
0010
0001
1000
0010
,  // measure 36
0100
0000
0001
1000
0100
0000
0010
1000
0001
0000
0100
0010
1000
0100
0010
0002
,  // measure 37
2000
0000
0000
0000
3000
1003
0010
0001
,  // measure 38
0100
0000
0101
0000
1000
0100
0010
0001
0100
0000
1100
0000
1000
0100
0010
0001
,  // measure 39
1000
0000
1001
0000
0001
0010
0100
1000
0010
0000
1000
0010
0100
0000
0010
0001
,  // measure 40
1000
0100
0010
0000
0001
0100
0010
1000
0100
0000
1100
0000
1000
0010
0100
0001
,  // measure 41
0020
0000
0001
0000
1000
0000
0001
0000
0130
0000
0010
1000
0001
1000
0100
0010
,  // measure 42
0002
0000
0103
0000
0001
0010
0100
1000
0020
0000
1030
0000
0010
0001
0100
0010
,  // measure 43
2000
0000
3100
0000
0010
1000
0001
0010
0200
0000
0310
0001
0100
0000
0010
1000
,  // measure 44
0100
1000
0010
0000
0100
0001
1000
0100
0020
0000
0031
0000
0001
0010
0100
1000
,  // measure 45
0010
0000
0000
0010
0001
0000
1000
0000
2100
0000
0100
0000
0010
0000
3001
0000
,  // measure 46
1000
0010
0000
0001
0010
0000
1000
0100
0000
0001
0100
0000
0010
0100
0001
1000
,  // measure 47
0100
0010
0000
1000
0100
0000
0010
0001
0000
1000
0010
0000
0100
0001
1000
0100
,  // measure 48
0010
0001
0000
0100
0001
0000
1000
0100
0000
1000
0010
0000
0100
0001
1000
0100
,  // measure 49
0010
1000
0000
0010
0100
0000
0001
0010
0000
0100
0010
0000
1000
0010
0100
0001
,  // measure 50
1000
0100
0000
1000
0100
0000
0010
0001
0000
0010
0001
0000
0100
0010
1000
0001
,  // measure 51
0010
0100
0000
0010
0100
0000
1000
0001
0000
1000
0001
0000
0010
0001
0100
0010
,  // measure 52
1000
0010
0000
0001
0010
0000
1000
0100
0000
0001
0100
0000
1000
0010
0100
0001
,  // measure 53
0010
0001
0000
0100
0001
0000
1000
0100
0000
0010
0001
0000
0100
0010
1000
0001
,  // measure 54
0010
0001
0000
0001
0100
0000
0001
0100
0000
0001
0100
0000
1000
0100
0010
0001
,  // measure 55
1000
0001
0000
0001
1000
0000
1000
0100
0000
0100
1000
0000
1000
0010
0100
0001
,  // measure 56
0010
0100
0000
0100
0010
0000
0010
0001
0000
0001
0100
0000
0100
0001
1000
0100
,  // measure 57
0001
0010
0000
0010
1000
0000
1000
0010
0000
0010
0001
0000
0200
0000
0000
0000
,  // measure 58
0000
0300
0000
0000
;
