#VERSION:0.83;
#TITLE:DAFT PUNK IS PLAYING AT MY HOUSE;
#SUBTITLE:;
#ARTIST:LCD Soundsystem;
#TITLETRANSLIT:;
#SUBTITLETRANSLIT:;
#ARTISTTRANSLIT:;
#GENRE:;
#ORIGIN:;
#CREDIT:;
#BANNER:DAFT PUNK IS PLAYING AT MY HOUSE.png;
#BACKGROUND:DAFT PUNK IS PLAYING AT MY HOUSE-bg.png;
#PREVIEWVID:;
#JACKET:DAFT PUNK IS PLAYING AT MY HOUSE-jacket.png;
#CDIMAGE:;
#DISCIMAGE:;
#LYRICSPATH:;
#CDTITLE:;
#MUSIC:DAFT PUNK IS PLAYING AT MY HOUSE.ogg;
#OFFSET:0.000000;
#SAMPLESTART:78.320000;
#SAMPLELENGTH:15.000000;
#SELECTABLE:YES;
#BPMS:0.000=136.000;
#STOPS:;
#DELAYS:;
#WARPS:;
#TIMESIGNATURES:0.000=4=4;
#TICKCOUNTS:0.000=4;
#COMBOS:0.000=1;
#SPEEDS:0.000=1.000=0.000=0;
#SCROLLS:0.000=1.000;
#FAKES:;
#LABELS:0.000=Song Start;
#BGCHANGES:0.000=DAFT PUNK IS PLAYING AT MY HOUSE.avi=1.000=0=0=0=StretchNoLoop====,
99999=-nosongbg-=1.000=0=0=0 // don't automatically add -songbackground-
;
#KEYSOUNDS:;
#ATTACKS:
;

//---------------dance-single - ----------------
#NOTEDATA:;
#CHARTNAME:;
#STEPSTYPE:dance-single;
#DESCRIPTION:;
#CHARTSTYLE:;
#DIFFICULTY:Beginner;
#METER:3;
#RADARVALUES:0.107703,0.134628,0.000000,0.000000,0.000000,84.000000,84.000000,0.000000,0.000000,0.000000,0.000000,0.000000,0.000000,0.000000,0.107703,0.134628,0.000000,0.000000,0.000000,84.000000,84.000000,0.000000,0.000000,0.000000,0.000000,0.000000,0.000000,0.000000;
#CREDIT:;
#NOTES:
0000
0000
0000
0000
,
0000
0000
0000
0000
,
0000
0000
0000
0000
,
0000
0000
0000
0000
,
0000
0000
0000
0000
,
1000
0000
0000
0000
,
1000
0000
0000
0000
,
0001
0000
0000
0000
,
0001
0000
0000
0000
,
1000
0000
0000
0000
,
1000
0000
0000
0000
,
0001
0000
0000
0000
,
0001
0000
0000
0000
,
1000
0000
1000
0000
,
1000
0000
1000
0000
,
0001
0000
0001
0000
,
0001
0000
0001
0000
,
1000
0000
1000
0000
,
1000
0000
1000
0000
,
0001
0000
0001
0000
,
0001
0000
0001
0000
,
1000
0000
0000
0000
,
0010
0000
0010
0000
,
0000
0000
0001
0000
,
0000
0000
1000
0000
,
1000
0000
0000
0000
,
0010
0000
0010
0000
,
0000
0000
0001
0000
,
0000
0000
1000
0000
,
0001
0000
0000
0000
,
0010
0000
0010
0000
,
0000
0000
1000
0000
,
0000
0000
0001
0000
,
0001
0000
0000
0000
,
0010
0000
0010
0000
,
0000
0000
1000
0000
,
0000
0000
0001
0000
,
1000
1000
0000
0000
,
1000
1000
0000
0000
,
0001
0001
0000
0000
,
0001
0001
0000
0000
,
0010
0000
0000
0000
,
0010
0000
0000
0000
,
0010
0000
0000
0000
,
0010
0000
0000
0000
,
1000
0000
0010
0000
,
1000
0000
0001
0000
,
1000
0000
1000
0000
,
0010
0000
0000
0000
,
1000
0000
0010
0000
,
1000
0000
0001
0000
,
1000
0000
1000
0000
,
0010
0000
0000
0000
,
0001
0000
0010
0000
,
0001
0000
1000
0000
,
0001
0000
0001
0000
,
0010
0000
0000
0000
,
0001
0000
0010
0000
,
0001
0000
1000
0000
,
0001
0000
0001
0000
,
0010
0000
0000
0000
,
0000
0000
0000
0000
;

//---------------dance-single - ----------------
#NOTEDATA:;
#CHARTNAME:;
#STEPSTYPE:dance-single;
#DESCRIPTION:;
#CHARTSTYLE:;
#DIFFICULTY:Easy;
#METER:5;
#RADARVALUES:0.171811,0.244350,0.000000,0.233355,0.000000,134.000000,134.000000,0.000000,26.000000,0.000000,0.000000,0.000000,0.000000,0.000000,0.171811,0.244350,0.000000,0.233355,0.000000,134.000000,134.000000,0.000000,26.000000,0.000000,0.000000,0.000000,0.000000,0.000000;
#CREDIT:;
#NOTES:
0000
0000
0000
0000
,
0000
0000
0000
0000
,
0000
0000
0000
0000
,
0000
0000
0000
0000
,
0000
0000
0000
0000
,
1000
0000
0001
0000
,
1000
0000
0010
0000
,
0100
0000
0000
0000
,
0001
0000
0001
0000
,
0001
0000
1000
0000
,
0001
0000
0010
0000
,
0100
0000
0000
0000
,
1000
0000
1000
0000
,
1000
0000
0001
0000
,
1000
0000
0010
0000
,
0100
0000
0000
0000
,
0001
0000
0001
0000
,
0001
0000
1000
0000
,
0001
0000
0010
0000
,
0100
0000
0000
0000
,
1000
0000
1000
0000
,
0010
0010
0010
0000
,
1000
1000
0100
0000
,
0002
0003
0020
0030
,
0200
0300
2000
3000
,
0010
0010
0010
0000
,
1000
1000
0100
0000
,
0002
0003
0020
0030
,
0200
0300
2000
3000
,
0010
0010
0010
0000
,
0001
0001
0100
0000
,
2000
3000
0020
0030
,
0200
0300
0002
0003
,
0010
0010
0010
0000
,
0001
0001
0100
0000
,
2000
3000
0020
0030
,
0200
0300
0002
0003
,
1000
0000
1000
0010
,
1000
0000
0100
0000
,
0001
0000
0001
0010
,
0001
0000
0100
0000
,
0002
0000
0000
0000
,
1003
0000
0001
0001
,
2000
0000
0000
0000
,
3001
0000
0001
0001
,
1000
1000
0001
0001
,
1000
0100
0010
0000
,
0002
0003
0002
0003
,
0001
1000
0001
0000
,
1000
1000
0001
0001
,
1000
0100
0010
0000
,
0002
0003
0002
0003
,
0001
1000
0001
0000
,
0001
0001
1000
1000
,
0001
0100
0010
0000
,
2000
3000
2000
3000
,
1000
0001
1000
0000
,
0001
0001
1000
1000
,
0001
0100
0010
0000
,
2000
3000
2000
3000
,
1000
0001
1000
0000
,
0000
0000
0000
0000
;

//---------------dance-single - ----------------
#NOTEDATA:;
#CHARTNAME:;
#STEPSTYPE:dance-single;
#DESCRIPTION:;
#CHARTSTYLE:;
#DIFFICULTY:Medium;
#METER:7;
#RADARVALUES:0.305157,0.354409,0.053851,0.215405,0.000000,238.000000,232.000000,6.000000,24.000000,0.000000,0.000000,0.000000,0.000000,0.000000,0.305157,0.354409,0.053851,0.215405,0.000000,238.000000,232.000000,6.000000,24.000000,0.000000,0.000000,0.000000,0.000000,0.000000;
#CREDIT:;
#NOTES:
0000
0000
0000
0000
,
0000
0000
0000
0000
,
0000
0000
0000
0000
,
0000
0000
0000
0000
,
0000
0000
0000
0000
,
0001
0000
0000
1000
0000
0000
0100
0000
,
0000
1000
0000
0010
0200
0000
0310
0000
,
1000
0000
0001
1000
0000
0000
1000
0000
,
0010
0100
0010
0000
1000
0000
0100
0000
,
1000
0000
0000
0001
0000
0000
0100
0000
,
0000
0001
0000
0010
0200
0000
0310
0000
,
0001
0000
1000
0001
0000
0000
0001
0000
,
0010
0100
0010
0000
0001
0000
1000
0000
,
1000
0000
0000
0001
0000
0000
0100
0000
,
0000
0001
0000
0010
0200
0000
0310
0000
,
0001
0000
1000
0001
0000
0000
0001
0000
,
0010
0100
0010
0000
0001
0000
0100
0000
,
0001
0000
0000
1000
0000
0000
0100
0000
,
0000
1000
0000
0010
0200
0000
0310
0000
,
1000
0000
0001
1000
0000
0000
1000
0000
,
0010
0100
0010
0000
1000
0000
0001
0000
,
0020
0100
0100
0130
,
2000
3010
0002
0103
,
0010
0000
1000
0000
0100
0010
0001
0000
,
0100
0001
0100
0001
0010
0000
0100
0000
,
0020
0100
0100
0130
,
0002
0013
2000
3100
,
0010
0000
0001
0000
0100
0010
1000
0000
,
0100
1000
0100
1000
0010
0000
0100
0000
,
0020
0100
1000
0130
,
2000
3010
0002
1003
,
0010
0000
1000
0000
0001
0010
0001
0000
,
0100
0001
0100
0001
1000
0000
0100
0000
,
0020
0100
0001
0130
,
0002
0013
2000
3001
,
0010
0000
0001
0000
1000
0010
1000
0000
,
0100
1000
0100
1000
0001
0000
0100
0000
,
0001
0000
0000
0001
0000
0000
0001
0000
,
0000
0010
0000
0000
0010
0000
0100
0000
,
1000
0000
0000
1000
0000
0000
1000
0000
,
0000
0010
0000
0000
1000
0000
0100
0000
,
2000
0000
0000
0001
0000
0000
0010
0000
,
0000
3100
0000
0000
0001
0000
0100
0000
,
0002
0000
0000
0100
0000
0000
1000
0000
,
0000
0013
0000
0000
0100
0000
0100
0000
,
1000
0100
0010
0001
,
0100
0010
1000
0100
,
1000
0010
0100
0000
0010
0000
0100
0000
,
0001
0011
0001
0100
,
2000
3100
0020
0031
,
0100
0020
1000
0130
,
1000
0010
0100
0000
0001
0000
0100
0000
,
0001
1001
0001
0100
,
0001
0100
0010
1000
,
0100
0010
0001
0100
,
0001
0010
0100
0000
0010
0000
0100
0000
,
1000
1010
1000
0100
,
0001
0200
0310
2000
,
3200
0310
0001
0100
,
0001
0010
0100
0000
1000
0000
0110
0000
,
1000
1010
1001
0100
,
0000
0000
0000
0000
;

//---------------dance-single - ----------------
#NOTEDATA:;
#CHARTNAME:;
#STEPSTYPE:dance-single;
#DESCRIPTION:;
#CHARTSTYLE:;
#DIFFICULTY:Hard;
#METER:10;
#RADARVALUES:0.397474,0.436195,0.071802,0.287207,0.000000,310.000000,302.000000,8.000000,32.000000,0.000000,0.000000,0.000000,0.000000,0.000000,0.397474,0.436195,0.071802,0.287207,0.000000,310.000000,302.000000,8.000000,32.000000,0.000000,0.000000,0.000000,0.000000,0.000000;
#CREDIT:;
#NOTES:
0000
0000
0000
0000
,
0000
0000
0000
0000
,
0000
0000
0000
0000
,
0000
0000
0000
0000
,
0000
0000
0000
0000
,
1000
0000
0010
1000
0000
0001
0100
0010
,
1000
0000
0100
0010
0200
0000
1300
0000
,
0010
0000
1000
0001
0000
1000
0010
0000
,
1000
0010
0001
0000
0010
0000
0100
0000
,
1000
0000
0010
1000
0000
0001
0100
0010
,
1000
0000
0100
0010
0200
0000
1300
0000
,
0010
0000
1000
0001
0000
1000
0010
0000
,
1000
0010
0001
0000
0011
0000
0110
0000
,
0001
0000
0010
0001
0000
1000
0100
0010
,
0001
0000
0100
0010
0200
0000
0301
0000
,
0010
0000
0001
1000
0000
0001
0010
0000
,
0001
0010
1000
0000
0010
0000
0100
0000
,
0001
0000
0010
0001
0000
1000
0100
0010
,
0001
0000
0100
0010
0200
0000
0301
0000
,
0010
0000
0001
1000
0000
0001
0010
0000
,
0001
0010
1000
0000
1010
0000
0110
0000
,
0002
0100
0023
0100
,
0032
2003
3002
0103
,
0010
1000
0001
0100
0010
1000
0001
0100
,
0010
1000
0100
1000
0010
1000
0001
0000
,
2000
0100
3020
0100
,
2030
3002
2003
3100
,
0010
0001
1000
0100
0010
0001
1000
0100
,
0010
0001
0100
0001
0010
0001
1000
0000
,
0002
0100
0023
1000
,
0032
2003
3020
0130
,
0010
1000
0001
1000
0010
1000
0001
0100
,
0010
1000
0100
1000
0010
0100
0001
0000
,
2000
0100
3020
0001
,
2030
3002
0023
0130
,
0010
0001
1000
0001
0010
0001
1000
0100
,
0010
0001
0100
0001
0010
0100
1000
0000
,
0001
0000
0000
0100
0000
0000
1000
0000
,
0000
0010
0000
0001
0100
0000
0100
0000
,
1000
0000
0000
0100
0000
0000
0001
0000
,
0000
0010
0000
1000
0010
0000
0100
0000
,
0021
0000
0000
0100
0000
0000
1000
0000
,
0000
0100
0030
1000
0010
0000
1000
0000
,
0102
0000
0000
0100
0000
0000
0010
0000
,
0000
0100
0000
1003
0010
0000
0100
0000
,
0010
1000
0100
0000
0010
0001
0100
0000
,
0010
1000
0000
1000
0001
0010
0100
0000
,
0001
0100
0000
0100
0010
0001
0100
0000
,
0010
0100
0010
0100
0001
0000
1000
0000
,
0010
2000
0100
3000
0010
0002
0100
0003
,
0020
1000
0000
1030
0001
0010
0100
0000
,
0002
0100
0000
0103
0010
0001
0100
0000
,
0010
0100
0010
0100
0001
0000
1100
0000
,
0010
0001
0100
0000
0010
1000
0100
0000
,
0010
0001
0000
0001
1000
0010
0100
0000
,
1000
0100
0000
0100
0010
1000
0100
0000
,
0010
0100
0010
0100
1000
0000
0001
0000
,
0010
0001
0200
0000
0310
1000
0200
0000
,
0310
0001
0010
0001
1000
0010
0100
0000
,
1000
0100
0001
0100
0010
1000
0100
0000
,
0010
0100
0010
0001
1000
0000
0101
0000
,
0000
0000
0000
0000
;

//---------------dance-single - ----------------
#NOTEDATA:;
#CHARTNAME:;
#STEPSTYPE:dance-single;
#DESCRIPTION:;
#CHARTSTYLE:;
#DIFFICULTY:Challenge;
#METER:7;
#RADARVALUES:0.271821,0.327146,0.053851,0.215405,0.000000,212.000000,206.000000,6.000000,24.000000,104.000000,0.000000,0.000000,0.000000,0.000000,0.271821,0.327146,0.053851,0.215405,0.000000,212.000000,206.000000,6.000000,24.000000,104.000000,0.000000,0.000000,0.000000,0.000000;
#CREDIT:;
#NOTES:
0000
0000
0000
0000
,
0000
0000
0000
0000
,
0000
0000
0000
0000
,
0000
0000
0000
0000
,
0000
0000
0000
0000
,
0001
0000
0000
1000
0000
0000
0100
0000
,
0000
1000
0000
0010
0200
0000
0310
0000
,
1000
0000
0001
1000
0000
0000
MMMM
0000
,
0010
0100
0010
0000
1000
0000
MMMM
0000
,
1000
0000
0000
0001
0000
0000
0100
0000
,
0000
0001
0000
0010
0200
0000
0310
0000
,
0001
0000
1000
0001
0000
0000
MMMM
0000
,
0010
0100
0010
0000
0001
0000
MMMM
0000
,
1000
0000
0000
0001
0000
0000
0100
0000
,
0000
0001
0000
0010
0200
0000
0310
0000
,
0001
0000
1000
0001
0000
0000
MMMM
0000
,
0010
0100
0010
0000
0001
0000
MMMM
0000
,
0001
0000
0000
1000
0000
0000
0100
0000
,
0000
1000
0000
0010
0200
0000
0310
0000
,
1000
0000
0001
1000
0000
0000
MMMM
0000
,
0010
0100
0010
0000
1000
0000
MMMM
0000
,
0020
0100
0100
0130
,
2000
3010
0002
0103
,
0010
0000
1000
0000
0100
0010
0001
0000
,
0100
0001
0100
0001
0010
0000
MMMM
0000
,
0020
0100
0100
0130
,
0002
0013
2000
3100
,
0010
0000
0001
0000
0100
0010
1000
0000
,
0100
1000
0100
1000
0010
0000
MMMM
0000
,
0020
0100
1000
0130
,
2000
3010
0002
1003
,
0010
0000
1000
0000
0001
0010
0001
0000
,
0100
0001
0100
0001
1000
0000
MMMM
0000
,
0020
0100
0001
0130
,
0002
0013
2000
3001
,
0010
0000
0001
0000
1000
0010
1000
0000
,
0100
1000
0100
1000
0001
0000
MMMM
0000
,
0001
0000
0000
0001
0000
0000
0001
0000
,
0000
0010
0000
0000
0010
0000
MMMM
0000
,
1000
0000
0000
1000
0000
0000
1000
0000
,
0000
0010
0000
0000
1000
0000
MMMM
0000
,
2000
0000
0000
0001
0000
0000
0010
0000
,
0000
3100
0000
0000
0001
0000
MMMM
0000
,
0002
0000
0000
0100
0000
0000
1000
0000
,
0000
0013
0000
0000
0100
0000
0100
0000
,
1000
0100
0010
MMMM
,
0100
0010
1000
MMMM
,
1000
0010
0100
0000
0010
0000
MMMM
0000
,
0001
0011
0001
MMMM
,
2000
3100
0020
0031
,
0100
0020
1000
0130
,
1000
0010
0100
0000
0001
0000
MMMM
0000
,
0001
1001
0001
MMMM
,
0001
0100
0010
MMMM
,
0100
0010
0001
MMMM
,
0001
0010
0100
0000
0010
0000
MMMM
0000
,
1000
1010
1000
MMMM
,
0001
0200
0310
2000
,
3200
0310
0001
0100
,
0001
0010
0100
0000
1000
0000
0110
0000
,
MMMM
1010
1001
0100
,
0000
0000
0000
0000
;

//---------------dance-double - ----------------
#NOTEDATA:;
#CHARTNAME:;
#STEPSTYPE:dance-double;
#DESCRIPTION:;
#CHARTSTYLE:;
#DIFFICULTY:Easy;
#METER:5;
#RADARVALUES:0.193608,0.245360,0.008975,0.071802,0.000000,151.000000,150.000000,1.000000,8.000000,0.000000,0.000000,0.000000,0.000000,0.000000,0.193608,0.245360,0.008975,0.071802,0.000000,151.000000,150.000000,1.000000,8.000000,0.000000,0.000000,0.000000,0.000000,0.000000;
#CREDIT:;
#NOTES:
00000000
00000000
00000000
00000000
,
00000000
00000000
00000000
00000000
,
00000000
00000000
00000000
00000000
,
00000000
00000000
00000000
00000000
,
00000000
00000000
00000000
00000000
,
10000000
00000000
00010000
00000000
,
01000000
01000000
00010000
00000000
,
00100000
00000000
00001000
00000000
,
00010000
00000010
00000100
00000000
,
00000001
00000000
00001000
00000000
,
00000100
00000100
00001000
00000000
,
00000010
00000000
00010000
00000000
,
00001000
00100000
02000000
03000000
,
10000000
00000000
00010000
00000000
,
01000000
01000000
00010000
00000000
,
00100000
00000000
00001000
00000000
,
00010000
00000010
00000100
00000000
,
00000001
00000000
00001000
00000000
,
00000100
00000100
00001000
00000000
,
00000010
00000000
00010000
00000000
,
00001000
00100000
02000000
03000000
,
10000000
00010000
10000000
00010000
,
00100000
00000000
00001000
00001000
,
00010000
00000000
00010000
00000000
,
00000010
00000000
00000100
00000000
,
00000001
00001000
00000001
00001000
,
00000010
00000000
00010000
00010000
,
00001000
00000000
00001000
00000000
,
00100000
00000000
01000000
00000000
,
10000000
00010000
00100000
00010000
,
00100000
00000000
00001000
00000000
,
00010000
00000000
00001000
00000000
,
00000010
00000000
00000010
00000000
,
00000001
00001000
00000010
00001000
,
00000010
00000000
00010000
00000000
,
00001000
00000000
00010000
00000000
,
00100000
00000000
00100000
00000000
,
02000000
03000000
00002000
00003000
,
00020000
00000000
00030000
00000000
,
00000200
00000300
00002000
00003000
,
00020000
00000000
00030000
00000000
,
00000010
00000000
00000010
00001000
,
00000001
00000000
00001000
00000000
,
00000100
00000000
00010000
00010000
,
00001000
00000000
01000000
01000000
,
00010000
01000000
00010000
00000000
,
00100000
00001000
00100000
00000000
,
00001000
00010000
00001000
00000000
,
00000010
00000100
00000010
00000000
,
00001000
00000100
00001000
00000000
,
00000010
00010000
00000010
00000000
,
00010000
00001000
00010000
00000000
,
00100000
01000000
00100000
00000000
,
00010000
01000000
00010000
00000000
,
00100000
00001000
00100000
00000000
,
00001000
00010000
00001000
00000000
,
00000010
00000100
00000010
00000000
,
00001000
00000100
00001000
00001000
,
00000010
00010000
00000010
00000000
,
00010000
00001000
00010000
00010000
,
00100000
01000000
00100000
01100000
,
00000000
00000000
00000000
00000000
;

//---------------dance-double - ----------------
#NOTEDATA:;
#CHARTNAME:;
#STEPSTYPE:dance-double;
#DESCRIPTION:;
#CHARTSTYLE:;
#DIFFICULTY:Medium;
#METER:7;
#RADARVALUES:0.303875,0.354409,0.098727,0.125653,0.000000,237.000000,226.000000,11.000000,14.000000,0.000000,0.000000,0.000000,0.000000,0.000000,0.303875,0.354409,0.098727,0.125653,0.000000,237.000000,226.000000,11.000000,14.000000,0.000000,0.000000,0.000000,0.000000,0.000000;
#CREDIT:;
#NOTES:
00000000
00000000
00000000
00000000
,
00000000
00000000
00000000
00000000
,
00000000
00000000
00000000
00000000
,
00000000
00000000
00000000
00000000
,
00000000
00000000
00000000
00000000
,
00000001
00000000
00000000
00000100
00000000
00000000
00001000
00000000
,
00010000
00001000
00000000
00001000
00100000
00000000
01000000
00000000
,
10000000
00100000
00010000
00000000
,
00001000
00010000
01000000
01000000
,
10000000
00000000
00000000
01000000
00000000
00000000
00010000
00000000
,
00001000
00010000
00000000
00010000
00000010
00000000
00000100
00000000
,
00000001
00000010
00001000
00000000
,
00010000
00001000
00000100
00000110
,
00000001
00000000
00000000
00000010
00000000
00000000
00001000
00000000
,
00010000
00001000
00000000
00001000
01000000
00000000
00100000
00000000
,
10000000
01000000
00010000
00000000
,
00001000
00010000
00100000
00100000
,
10000000
00000000
00000000
00100000
00000000
00000000
00010000
00000000
,
00001000
00010000
00000000
00010000
00000100
00000000
00000010
00000000
,
00000001
00000100
00001000
00000000
,
00010000
00001000
00000010
00000110
,
00000001
00000010
00000001
00000000
00001000
00000000
00000100
00000000
,
00020000
00000010
00001000
00031000
,
01000000
00100000
00010000
00001000
,
00000010
00001000
00010000
01000000
,
10000000
00100000
10000000
00000000
00010000
00000000
01000000
00000000
,
00002000
00100000
00010000
00013000
,
00000100
00000010
00001000
00010000
,
00100000
00010000
00001000
00000100
,
00000001
00000010
00000000
00000001
00001000
00000000
00000100
00000000
,
00020000
00000010
00000100
00031000
,
01000000
00100000
00010000
00001000
,
00000010
00000000
00010000
01000000
,
10000000
00100000
00000000
10000000
00010000
00000000
01000000
00000000
,
00002000
00100000
01000000
00013000
,
00000100
00000010
00001000
00010000
,
00100000
00000000
00001000
00000100
,
00000001
00000000
00000000
00000010
00000000
00000100
00000010
00000000
,
00000100
00010000
00010000
01000000
,
10000000
00000000
00000000
00100000
00000000
01000000
00100000
00000000
,
01000000
00001000
00000100
00000100
,
00000002
00000000
00000000
00002003
00000000
00000000
00003200
00000000
,
00000000
00020300
00000000
00000000
00031000
00000000
01000000
00000000
,
00200000
00000000
00000000
20300000
00000000
00000000
32000000
00000000
,
00000000
03020000
00000000
00000000
00031000
00000000
00000100
00000000
,
00000001
00000010
00000100
00010000
,
00001000
00010000
00001000
00000000
01000000
00000000
01000000
00000000
,
10000000
00000000
00010000
00000000
00100000
00001000
00100000
00000000
,
00001000
00010000
00000100
00001001
,
00000001
00000010
00000100
00011000
,
00001000
00010000
00001000
00000000
01000000
00000000
01100000
00000000
,
20000000
00000000
30010000
00000000
00100000
00001000
00100000
00000000
,
00002000
00010000
00003100
00001001
,
00000001
00000100
00000010
00010000
,
00001000
00010000
00001000
00000000
00100000
00000000
00100000
00000000
,
10000000
00000000
00010000
00000000
01000000
00001000
01000000
00000000
,
00001000
00010000
00000010
00001001
,
00001000
00000010
00000100
00010000
,
00001000
00010000
00011000
00000000
01000000
00000000
01000000
00000000
,
10000000
00000000
00010000
00000000
00100000
00001000
00101000
00000000
,
00001000
00010000
00010100
00001001
,
00000000
00000000
00000000
00000000
;

//---------------dance-double - ----------------
#NOTEDATA:;
#CHARTNAME:;
#STEPSTYPE:dance-double;
#DESCRIPTION:;
#CHARTSTYLE:;
#DIFFICULTY:Hard;
#METER:9;
#RADARVALUES:0.361573,0.381671,0.053851,0.215405,0.000000,282.000000,276.000000,6.000000,24.000000,0.000000,0.000000,0.000000,0.000000,0.000000,0.361573,0.381671,0.053851,0.215405,0.000000,282.000000,276.000000,6.000000,24.000000,0.000000,0.000000,0.000000,0.000000,0.000000;
#CREDIT:;
#NOTES:
00000000
00000000
00000000
00000000
,
00000000
00000000
00000000
00000000
,
00000000
00000000
00000000
00000000
,
00000000
00000000
00000000
00000000
,
00000000
00000000
00000000
00000000
,
10000000
00000000
00010000
00100000
00000000
00001000
01000000
00000000
,
00100000
00010000
00000000
00001000
00100000
00000000
00001000
00000000
,
00100000
00000000
01000000
00000000
10000000
00100000
00010000
00000000
,
00001000
00000010
00000100
00000100
,
00000001
00000000
00001000
00000010
00000000
00010000
00000100
00000000
,
00000010
00001000
00000000
00010000
00000010
00000000
00010000
00000000
,
00000010
00000000
00000100
00000000
00000001
00000010
00001000
00000000
,
00010000
00100000
01000000
01100000
,
10000000
00000000
00010000
01000000
00000000
00001000
00100000
00000000
,
01000000
00010000
00000000
00001000
01000000
00000000
00001000
00000000
,
01000000
00000000
00100000
00000000
10000000
01000000
00010000
00000000
,
00001000
00000100
00000010
00000010
,
00000001
00000000
00001000
00000100
00000000
00010000
00000010
00000000
,
00000100
00001000
00000000
00010000
00000100
00000000
00010000
00000000
,
00000100
00000000
00000010
00000000
00000001
00000100
00001000
00000000
,
00010000
01000000
00100000
01100000
,
00001000
00010000
01000000
00000000
00001000
00010000
01000000
00010000
,
00002000
00100000
00010000
00013000
,
00000200
00000310
00000002
00001003
,
00000020
00001000
00000100
00000130
,
00010000
00001000
00000100
00000000
00010000
00001000
00000100
00001000
,
00020000
00000010
00001000
00031000
,
02000000
03100000
20000000
30010000
,
00200000
00010000
01000000
01300000
,
00001000
00010000
01000000
00000000
00001000
00010000
00100000
00010000
,
00002000
00000010
00010000
00013000
,
00000200
00000010
00000302
00001000
,
00000023
00000001
00000100
00000130
,
00010000
00001000
00000100
00000000
00010000
00001000
00000010
00001000
,
00020000
00100000
00001000
00031000
,
02000000
00100000
23000000
00010000
,
30200000
10000000
01000000
01300000
,
00010000
00000000
10000000
00100000
00000000
00100000
00010000
00001000
,
00010000
00000010
00000100
00000001
,
00001000
00000000
00000001
00000010
00000000
00000010
00001000
00010000
,
00001000
00100000
01000000
10010000
,
01000000
00000000
00010000
01000000
00000000
00001000
00010000
00000000
,
00000010
00000100
00000000
00000001
00001000
00000000
00000100
00000000
,
00000010
00000000
00010000
00000100
00000000
00001000
00000010
00000000
,
00000010
00010000
00000000
00001000
00100000
00000000
01100000
00000000
,
10000000
00000000
00010000
00000000
01000000
00100000
00010000
00000000
,
00010000
00001000
00000100
00000000
00000001
00000010
00000001
00000000
,
00000020
00000000
00000001
00000000
00000130
00010000
00001000
00000000
,
02000000
00010000
00100000
03010000
,
10000000
00100000
00010000
00000000
01000000
00100000
00010000
00000000
,
00010000
00001000
00000100
00000000
00000001
00000010
00000011
00000000
,
00000020
00000000
00000001
00000000
00000130
00010000
00001000
00100000
,
02000000
00010000
00100000
13000000
,
10000000
00000000
00010000
00000000
01000000
00100000
00010000
00000000
,
00010000
00001000
00000100
00000000
00000001
00000010
00000001
00000000
,
00000020
00000000
00000001
00000000
00000130
00010000
00001000
00000000
,
02000000
00010000
00100000
03010000
,
10000000
00000000
00010000
00000000
01000000
00100000
00010000
00001000
,
00010000
00001000
00000100
00000000
00000001
00001000
00000001
00000000
,
00000020
00000000
00000001
00000000
00000130
00010000
00001000
00010000
,
02000000
00010000
03100000
01010000
,
00000000
00000000
00000000
00000000
;

//---------------dance-double - ----------------
#NOTEDATA:;
#CHARTNAME:;
#STEPSTYPE:dance-double;
#DESCRIPTION:;
#CHARTSTYLE:;
#DIFFICULTY:Challenge;
#METER:7;
#RADARVALUES:0.271821,0.354409,0.053851,0.125653,0.000000,212.000000,206.000000,6.000000,14.000000,192.000000,0.000000,0.000000,0.000000,0.000000,0.271821,0.354409,0.053851,0.125653,0.000000,212.000000,206.000000,6.000000,14.000000,192.000000,0.000000,0.000000,0.000000,0.000000;
#CREDIT:;
#NOTES:
00000000
00000000
00000000
00000000
,
00000000
00000000
00000000
00000000
,
00000000
00000000
00000000
00000000
,
00000000
00000000
00000000
00000000
,
00000000
00000000
00000000
00000000
,
00000001
00000000
00000000
00000100
00000000
00000000
00001000
00000000
,
00010000
00001000
00000000
00001000
00100000
00000000
01000000
00000000
,
10000000
00100000
00010000
MMMMMMMM
,
00001000
00010000
01000000
MMMMMMMM
,
10000000
00000000
00000000
01000000
00000000
00000000
00010000
00000000
,
00001000
00010000
00000000
00010000
00000010
00000000
00000100
00000000
,
00000001
00000010
00001000
MMMMMMMM
,
00010000
00001000
00000100
MMMMMMMM
,
00000001
00000000
00000000
00000010
00000000
00000000
00001000
00000000
,
00010000
00001000
00000000
00001000
01000000
00000000
00100000
00000000
,
10000000
01000000
00010000
MMMMMMMM
,
00001000
00010000
00100000
MMMMMMMM
,
10000000
00000000
00000000
00100000
00000000
00000000
00010000
00000000
,
00001000
00010000
00000000
00010000
00000100
00000000
00000010
00000000
,
00000001
00000100
00001000
MMMMMMMM
,
00010000
00001000
00000010
MMMMMMMM
,
00000001
00000010
00000001
00000000
00001000
00000000
00000100
00000000
,
00020000
00000010
00001000
00031000
,
01000000
00100000
00010000
MMMMMMMM
,
00000010
00001000
00010000
MMMMMMMM
,
10000000
00100000
10000000
00000000
00010000
00000000
01000000
00000000
,
00002000
00100000
00010000
00013000
,
00000100
00000010
00001000
MMMMMMMM
,
00100000
00010000
00001000
MMMMMMMM
,
00000001
00000010
00000000
00000001
00001000
00000000
00000100
00000000
,
00020000
00000010
00000100
00031000
,
01000000
00100000
00010000
MMMMMMMM
,
00000010
00000000
00010000
MMMMMMMM
,
10000000
00100000
00000000
10000000
00010000
00000000
01000000
00000000
,
00002000
00100000
01000000
00013000
,
00000100
00000010
00001000
MMMMMMMM
,
00100000
00000000
00001000
MMMMMMMM
,
00000001
00000000
00000000
00000010
00000000
00000100
00000010
00000000
,
00000100
00010000
00010000
01000000
,
10000000
00000000
00000000
00100000
00000000
01000000
00100000
00000000
,
01000000
00001000
00000100
00000100
,
00000002
00000000
00000000
00002003
00000000
00000000
00003200
00000000
,
00000000
00020300
00000000
00000000
00031000
00000000
MMMMMMMM
00000000
,
00200000
00000000
00000000
20300000
00000000
00000000
32000000
00000000
,
00000000
03020000
00000000
00000000
00031000
00000000
MMMMMMMM
00000000
,
00000001
00000010
00000100
00010000
,
00001000
00010000
00001000
00000000
01000000
00000000
01000000
00000000
,
10000000
00000000
00010000
00000000
00100000
00001000
00100000
00000000
,
00001000
00010000
00000100
MMMMMMMM
,
00000001
00000010
00000100
00011000
,
00001000
00010000
00001000
00000000
01000000
00000000
01100000
00000000
,
20000000
00000000
30010000
00000000
00100000
00001000
00100000
00000000
,
00002000
00010000
00003100
MMMMMMMM
,
00000001
00000100
00000010
MMMMMMMM
,
00001000
00010000
00001000
00000000
00100000
00000000
00100000
00000000
,
10000000
00000000
00010000
00000000
01000000
00001000
01000000
00000000
,
00001000
00010000
00000010
MMMMMMMM
,
00001000
00000010
00000100
MMMMMMMM
,
00001000
00010000
00011000
00000000
01000000
00000000
01000000
00000000
,
10000000
00000000
00010000
00000000
00100000
00001000
00101000
00000000
,
00001000
MMMMMMMM
00010100
00001001
,
00000000
00000000
00000000
00000000
;

//---------------dance-single - Edit----------------
#NOTEDATA:;
#CHARTNAME:;
#STEPSTYPE:dance-single;
#DESCRIPTION:Edit;
#CHARTSTYLE:;
#DIFFICULTY:Edit;
#METER:16;
#RADARVALUES:0.888546,0.903355,0.798794,0.816744,0.839182,693.000000,604.000000,89.000000,91.000000,0.000000,0.000000,0.000000,0.000000,0.000000,0.888546,0.903355,0.798794,0.816744,0.839182,693.000000,604.000000,89.000000,91.000000,0.000000,0.000000,0.000000,0.000000,0.000000;
#CREDIT:;
#NOTES:
// measure 0
0000
0000
0000
0000
,  // measure 1
0000
0000
0000
0000
,  // measure 2
0000
0000
0000
0000
,  // measure 3
0000
0000
0000
0000
,  // measure 4
0000
0000
0000
0000
0000
0000
0000
1100
,  // measure 5
1020
0000
0000
0000
0130
0001
1000
0100
0010
0000
0011
0000
0001
0010
0100
1000
,  // measure 6
0020
0000
1000
0000
0031
0000
0100
0010
1000
0010
0100
0000
0001
0010
0100
1000
,  // measure 7
0020
1000
0031
0200
0000
1300
0200
0000
,  // measure 8
0310
0000
1000
0000
0001
0000
0000
0000
1000
0001
0100
0000
1100
0000
1000
0010
,  // measure 9
0100
0001
0010
0001
0100
0000
0010
1000
0000
1000
0100
0010
0001
0000
0100
0010
,  // measure 10
1000
0010
0100
0000
0101
0000
0001
0010
0100
1000
0010
0100
0001
1000
0100
0010
,  // measure 11
0002
0100
1003
0020
0000
0031
0020
0000
,  // measure 12
1030
0000
0001
0000
0010
0000
0000
0000
0100
0001
0010
0000
0001
0010
0100
0000
,  // measure 13
1100
0000
0100
1000
0010
1000
0100
0000
0110
0000
0010
0001
1000
0010
0100
0001
,  // measure 14
0010
0000
1010
0000
0110
0000
0100
0001
1000
0000
1001
0000
0001
0010
0100
1000
,  // measure 15
0200
0001
1300
0002
0000
1003
0002
0010
,  // measure 16
0103
0001
1000
0000
1001
0000
0001
0000
0010
0001
0100
0000
1100
0000
1000
0100
,  // measure 17
0010
0001
0100
0001
0010
0000
1000
0010
0000
0010
0001
0100
0010
1000
0001
0010
,  // measure 18
2000
0000
0010
0000
3001
1000
0100
0010
0001
0000
0011
0000
0001
0010
1000
0100
,  // measure 19
0020
0100
0031
2000
0000
3010
2000
0100
,  // measure 20
3001
0010
0100
0000
1100
0000
1010
0000
0010
0100
0001
0000
0101
0000
1000
0001
,  // measure 21
0200
0001
0310
0001
0200
0010
0301
0010
0200
0001
0310
0001
0200
0010
0301
0010
,  // measure 22
2000
0001
3100
0001
2000
0001
3010
0001
2000
0001
3100
0001
2000
0001
3010
0001
,  // measure 23
0020
0100
1030
0100
0020
1000
0130
1000
0020
0100
1030
0100
0020
1000
0130
1000
,  // measure 24
0002
0010
0103
0010
0002
1000
0103
1000
0002
0010
0103
0010
0002
1000
0103
1000
,  // measure 25
0010
0001
1000
0001
0010
0000
0110
0000
0101
0000
0001
1000
0100
0000
1100
0000
,  // measure 26
1010
0000
0100
0010
0001
0000
0101
0000
0001
0010
0100
1000
0010
0100
0001
1000
,  // measure 27
0100
0000
0110
0000
1010
0000
1001
0000
0011
0000
1001
0000
1100
0000
0100
0010
,  // measure 28
0001
0000
0011
0000
0110
0000
0010
0100
1000
0000
1000
0100
0010
0001
0100
0010
,  // measure 29
1000
0000
1010
0000
0110
0000
0100
0001
1000
0100
0010
0000
0011
0000
0001
0010
,  // measure 30
0100
1000
0010
0100
0001
0000
1001
0000
0011
0000
0010
0001
0100
0010
0001
0000
,  // measure 31
1001
0000
1100
0000
1010
0000
1001
0000
0011
0000
0110
0000
1010
0000
0010
0001
,  // measure 32
0100
0000
0101
0000
1001
0000
1000
0100
0010
0000
0001
0100
0010
1000
0100
0000
,  // measure 33
0110
0000
1000
0010
0001
0010
1000
0000
1010
0000
0010
0001
1000
0001
0010
0000
,  // measure 34
0011
0000
0101
0000
0110
0000
1100
0000
0001
0010
0100
1000
0010
0100
0001
1000
,  // measure 35
0100
0000
1100
0000
1010
0000
0110
0000
0101
0000
0011
0000
1001
0000
0001
0010
,  // measure 36
0100
0000
1100
0000
1010
0000
0010
1000
0001
0000
0001
0010
0100
1000
0100
0010
,  // measure 37
0001
0100
0010
0000
0000
0000
2020
0000
0000
0000
3030
0000
0202
0000
0000
0000
,  // measure 38
0303
0000
0220
0000
0000
0000
0330
0000
1000
0010
0100
0000
1000
0010
0100
0001
,  // measure 39
1000
0010
0100
0000
0000
0000
2200
0000
0000
0000
3300
0000
0022
0000
0000
0000
,  // measure 40
0033
0000
2002
0000
0000
0000
3003
0000
0001
0010
0100
0000
1000
0100
0010
0001
,  // measure 41
0200
0000
0310
0000
1000
0100
0010
0001
0020
0000
0130
0000
0101
0000
0001
0010
,  // measure 42
0100
1000
0010
0100
0001
1000
0100
0010
0002
0000
0103
0000
1000
0010
0100
0001
,  // measure 43
0020
0000
0130
0000
1000
0100
0010
0001
2000
0000
3010
0000
1010
0000
1000
0100
,  // measure 44
0010
0001
0100
0010
1000
0001
0100
0010
2000
0000
3200
0000
0320
0000
0032
0000
,  // measure 45
0103
0000
0001
0100
0000
0100
1000
0000
1100
0000
1000
0100
0010
0001
0100
0000
,  // measure 46
0101
0000
0001
0010
0100
0000
1100
0000
2000
0000
3020
0000
0032
0000
0203
0000
,  // measure 47
0310
0000
0001
0010
0000
0010
0100
0000
1100
0000
1000
0010
0001
0100
0010
0000
,  // measure 48
0110
0000
1000
0010
0100
0000
0101
0000
0002
0000
0023
0000
0230
0000
2300
0000
,  // measure 49
3010
0000
0001
0010
0000
0010
1000
0000
1010
0000
0010
0100
0001
1000
0100
0000
,  // measure 50
0101
0000
0001
0010
1000
0000
1010
0000
0020
0000
2030
0000
3002
0000
0203
0000
,  // measure 51
0310
0000
1000
0001
0010
0000
0011
0000
0101
0000
0100
0010
1000
0000
1100
0000
,  // measure 52
1001
0000
0001
0010
0100
0000
1100
0000
1010
0000
1000
0010
0100
0000
0101
0000
,  // measure 53
0002
0000
0000
0000
0013
0000
0200
0300
0000
0000
0200
0300
2000
0000
0000
0000
3020
0000
0000
0000
0130
0000
0001
0000
1000
0000
0100
0000
0020
0000
0000
0000
,  // measure 54
0031
0000
0100
0001
1000
0000
0010
1000
0200
0000
0320
0000
2030
0000
3002
0000
,  // measure 55
0023
0000
0000
0000
0031
0000
0200
0300
0000
0000
0200
0300
2000
0000
0000
0000
3002
0000
0000
0000
0013
0000
0100
0000
1000
0000
0100
0000
0010
0000
0001
0000
,  // measure 56
0200
0000
0310
1000
0001
0000
0100
1000
0200
0000
0320
0000
2030
0000
3002
0000
,  // measure 57
0013
0000
0000
0000
0001
0000
0020
0030
0000
0000
0020
0030
0100
0000
0000
0000
1100
0000
0000
0000
1000
0000
0010
0000
0100
0000
0001
0000
0010
0000
0001
0000
,  // measure 58
0100
0000
0101
0000
0001
0010
0100
1000
0010
0000
1010
0000
1000
0100
0010
0001
,  // measure 59
0100
0000
0101
0000
1100
0000
0100
1000
0001
0000
0101
0000
0110
0000
0100
1000
,  // measure 60
0020
0000
0130
0001
2000
0000
3100
0010
0002
0000
1003
0000
2002
0000
0000
0000
,  // measure 61
3003
0000
0000
0000
;
