#TITLE:DA CAPO;
#SUBTITLE:;
#ARTIST:ACE OF BASE;
#TITLETRANSLIT:;
#SUBTITLETRANSLIT:;
#ARTISTTRANSLIT:;
#GENRE:;
#CREDIT:;
#BANNER:DA CAPO.png;
#BACKGROUND:DA CAPO-bg.png;
#LYRICSPATH:;
#CDTITLE:;
#MUSIC:DA CAPO.ogg;
#OFFSET:0.000000;
#SAMPLESTART:51.290001;
#SAMPLELENGTH:15.000000;
#SELECTABLE:YES;
#DISPLAYBPM:138.000000;
#BPMS:0.000000=137.800003
,4.000000=138.000000
;
#STOPS:
;
#BGCHANGES:;
#KEYSOUNDS:;
#ATTACKS:;

//---------------dance-single - ----------------
#NOTES:
     dance-single:
     :
     Beginner:
     4:
     0.140316,0.164401,0.011978,0.000000,0.000000,82.000000,81.000000,1.000000,0.000000,0.000000,0.000000,0.140316,0.164401,0.011978,0.000000,0.000000,82.000000,81.000000,1.000000,0.000000,0.000000,0.000000:
0000
0000
0000
0000
,
0000
0000
0000
0000
,
0000
0000
0000
0000
,
0000
0000
0000
0000
,
0000
0000
0000
0000
,
0000
0000
0000
0000
,
0010
0000
0010
0000
,
1000
0000
1000
0000
,
0010
0000
0010
0000
,
0001
0000
0001
0000
,
0100
0000
0100
0000
,
0010
0000
0010
0000
,
0100
0000
0100
0000
,
0010
0000
0010
0000
,
1000
0000
0100
0000
,
1000
0000
0001
0000
,
0001
0000
0100
0000
,
0001
0000
1000
0000
,
1000
0000
0010
0000
,
1000
0000
0001
0000
,
0001
0000
0010
0000
,
0001
0000
1000
0000
,
0100
0100
0000
0000
,
0100
0100
0000
0000
,
0100
0100
0000
0000
,
0100
0100
0000
0100
,
0000
0100
0000
0000
,
1000
0000
1000
0000
,
0100
0000
0100
0000
,
0110
0000
0100
0000
,
0100
0000
0100
0000
,
0000
0100
0000
0100
,
0100
0000
0100
0000
,
0000
0100
0000
0100
,
0000
0010
0010
0000
,
0000
0010
0000
0010
,
0010
0000
0010
0000
,
0100
0000
0001
0000
,
0100
0000
0001
0000
,
0100
0000
1000
1000
,
0000
0000
0010
0000
,
0010
0000
0001
0001
,
0000
0000
1000
0000
,
0100
0000
0001
0001
,
0000
0000
0100
0000
,
0010
0000
1000
1000
;

//---------------dance-single - ----------------
#NOTES:
     dance-single:
     :
     Easy:
     5:
     0.219030,0.309636,0.155717,0.023956,0.000000,128.000000,115.000000,13.000000,2.000000,0.000000,0.000000,0.219030,0.309636,0.155717,0.023956,0.000000,128.000000,115.000000,13.000000,2.000000,0.000000,0.000000:
0000
0000
0000
0000
,
0000
0000
0000
0000
,
0000
0000
0000
0000
,
0000
0000
0000
0000
,
0000
0000
0000
0000
,
0000
0000
0000
0000
,
0010
0000
0010
0000
,
1000
0000
1000
0000
,
0010
0000
0010
0000
,
0001
0000
0001
1001
,
0100
0000
0100
0000
,
0010
0000
0010
1000
,
0100
0000
0100
0000
,
0010
0000
0010
0001
,
1000
0000
0100
0000
,
1000
0000
0001
0010
,
0001
0000
0100
0000
,
0001
0000
1000
0100
,
1000
0000
0010
0000
,
1000
0000
0001
0100
,
0001
0000
0010
0000
,
0001
0000
1000
0010
,
0100
0100
0001
0000
,
0100
0100
1000
0000
,
0100
0100
0010
0000
,
0100
0100
0010
0100
,
0001
0100
0001
0000
,
1000
0100
1000
0000
,
0100
0000
0100
0010
,
0110
0000
0100
1001
,
0100
1100
0100
0001
,
0000
0100
0000
0100
,
0100
0101
0100
1000
,
0000
0100
0000
0100
,
0010
1010
0010
0001
,
0000
0010
0000
0010
,
0010
0011
0010
1000
,
0100
0010
0001
1001
,
0100
0000
0101
0000
,
0100
1000
1000
1000
,
0010
0000
1010
0000
,
0010
0001
0001
0001
,
0100
0000
1100
0000
,
0100
0001
0001
0001
,
0010
0000
0011
0000
,
0010
1000
1000
1000
,
2002
0000
0000
0000
,
3003
0000
0000
0000
;

//---------------dance-single - ----------------
#NOTES:
     dance-single:
     :
     Medium:
     7:
     0.383302,0.422232,0.598910,0.023956,0.000000,224.000000,174.000000,50.000000,2.000000,0.000000,0.000000,0.383302,0.422232,0.598910,0.023956,0.000000,224.000000,174.000000,50.000000,2.000000,0.000000,0.000000:
0000
0000
0000
0000
,
0000
0000
0000
0000
,
0000
0000
0000
0000
,
0000
0000
0000
0000
,
0000
0000
0000
0000
,
0000
0000
0000
0000
,
0010
0000
1000
0000
0010
0000
1000
0100
,
0000
0010
0000
0010
,
0001
0100
0001
0000
1000
0000
0001
0100
,
0000
0000
0010
1010
,
0101
0100
0101
0100
,
0110
0000
0100
0000
0010
1000
0010
0000
,
1100
0100
1100
0100
,
0110
0000
0100
0000
0010
0001
0010
0000
,
0100
1100
0000
0000
0010
0011
0000
0000
,
0100
0101
0000
0000
0100
0000
1001
0000
,
0100
0101
0000
0000
0010
1010
0000
0000
,
0100
1100
0000
0100
0000
0010
0011
0000
,
0010
1010
0000
0000
0100
0101
0000
0000
,
0010
0011
0000
0000
0010
0000
1001
0000
,
0010
0011
0000
0000
0100
1100
0000
0000
,
0010
1010
0000
0010
0000
0100
0101
0000
,
0010
0000
1000
0000
0001
0100
0001
0000
,
0010
0000
0001
0000
1000
0100
1000
0000
,
0010
0000
0100
0000
0001
1000
0100
0000
,
0010
0000
0100
0000
0001
1000
0100
0000
,
0100
0000
1000
0000
0001
0010
0001
0000
,
0100
0000
0001
0000
1000
0010
1000
0000
,
0100
0000
0010
0000
0001
1000
0010
0000
,
0100
0000
1010
1001
,
0100
0000
1100
0000
0010
0001
0000
0100
,
0000
0010
1001
0100
,
0010
0000
1000
0000
0100
0010
0000
0001
,
0000
0100
1010
1001
,
0100
0000
0101
0000
0010
1000
0000
0100
,
0000
0010
1001
0100
,
0010
0000
0001
0000
0100
0010
0000
1000
,
0000
0100
0011
1001
,
0100
0000
1100
0000
0100
0000
0010
0011
,
0000
0100
0010
0000
0101
0000
1010
0000
,
0100
0000
0101
0000
0100
0000
0010
0011
,
0000
0100
0010
0000
1100
0000
1010
0000
,
0010
0000
1010
0000
0010
0000
0100
0101
,
0000
0010
0100
0000
0011
0000
1100
0000
,
0010
0000
0011
0000
0010
0000
0100
0101
,
0000
0010
0100
0000
1010
0000
1100
0000
,
2002
0000
0000
0000
,
3003
0000
0000
0000
;

//---------------dance-single - ----------------
#NOTES:
     dance-single:
     :
     Hard:
     10:
     0.479128,0.534827,0.586932,0.023956,0.071869,280.000000,231.000000,49.000000,2.000000,0.000000,0.000000,0.479128,0.534827,0.586932,0.023956,0.071869,280.000000,231.000000,49.000000,2.000000,0.000000,0.000000:
0000
0000
0000
0000
,
0000
0000
0000
0000
,
0000
0000
0000
0000
,
0000
0000
0000
0000
,
0000
0000
0000
0000
,
0000
0000
0000
0000
,
0010
0000
0001
0000
0010
0000
0001
0100
,
0010
1000
0010
1000
,
0001
0100
0001
0000
0010
0000
0100
1000
,
0100
0000
1010
0011
,
0100
0001
0000
0001
0100
0010
0000
0010
,
0100
1000
0000
1000
0100
0010
0100
0001
,
0010
1000
0000
1000
0010
0100
0000
0100
,
0010
0001
0000
0001
0000
1000
1001
0000
,
0100
0101
0000
0010
0100
1100
0000
0010
,
0100
0101
0000
0010
0100
1100
1001
0000
,
1000
0101
0000
0010
1000
1100
0000
0010
,
1000
1001
0000
0100
0000
0101
1001
0000
,
0010
1010
0000
0100
0010
0011
0000
0100
,
0010
1010
0000
0100
0010
0011
1001
0000
,
0001
1010
0000
0100
0001
0011
0000
0100
,
0001
1001
0000
0010
0000
1010
1001
0000
,
0100
0000
0110
0000
0001
0100
0001
1000
,
0100
0000
0110
0000
1000
0100
1000
0001
,
0010
0000
0110
0000
0001
0010
0001
1000
,
0010
0000
0110
0000
1000
0010
1000
0001
,
0100
0000
1010
0000
0001
0100
0010
1000
,
0100
0000
0101
0000
1000
0100
0010
0001
,
0100
0000
1010
0000
0001
0010
0100
1000
,
1001
0000
1100
0011
,
0100
0000
1010
0000
0001
0010
1000
0010
,
0000
0001
0100
0000
0011
0000
1100
0000
,
0100
0000
0011
0000
1000
0010
0001
0010
,
0000
1000
0100
0000
1010
0000
0101
0000
,
0010
0000
1100
0000
0001
0100
1000
0100
,
0000
0001
0010
0000
0101
0000
1010
0000
,
0010
0000
0101
0000
1000
0100
0001
0100
,
0000
1000
0010
0000
1100
0000
0011
0000
,
0100
0010
0000
0000
0000
0000
0000
0000
0100
1000
0000
0000
0000
0000
0000
0000
0100
0001
0000
0000
0000
0000
0000
0000
0100
0000
0000
0000
1000
0000
0000
0000
,
0000
0001
0100
1000
0100
0001
1001
0000
,
0100
0010
0000
0000
0000
0000
0000
0000
0100
0001
0000
0000
0000
0000
0000
0000
0100
1000
0000
0000
0000
0000
0000
0000
0100
0000
0000
0000
0001
0000
0000
0000
,
0000
1000
0100
0001
0100
1000
1001
0000
,
0010
0100
0000
0000
0000
0000
0000
0000
0010
1000
0000
0000
0000
0000
0000
0000
0010
0001
0000
0000
0000
0000
0000
0000
0010
0000
0000
0000
1000
0000
0000
0000
,
0000
0001
0010
1000
0010
0001
1001
0000
,
0010
0100
0000
0000
0000
0000
0000
0000
0010
0001
0000
0000
0000
0000
0000
0000
0010
1000
0000
0000
0000
0000
0000
0000
0010
0000
0000
0000
0001
0000
0000
0000
,
0000
1000
0010
0001
0010
1000
1001
0000
,
0200
0020
0000
0000
,
0330
0000
0000
0000
;

//---------------dance-double - ----------------
#NOTES:
     dance-double:
     :
     Easy:
     5:
     0.224163,0.281488,0.203629,0.023956,0.000000,131.000000,114.000000,17.000000,2.000000,0.000000,0.000000,0.224163,0.281488,0.203629,0.023956,0.000000,131.000000,114.000000,17.000000,2.000000,0.000000,0.000000:
00000000
00000000
00000000
00000000
,
00000000
00000000
00000000
00000000
,
00000000
00000000
00000000
00000000
,
00000000
00000000
00000000
00000000
,
00000000
00000000
00000000
00000000
,
00000000
00000000
00000000
00000000
,
10000000
00000000
10000000
00000000
,
01000000
00000000
01000000
00000000
,
00010000
00000000
00010000
00000000
,
00001000
00000000
00001000
00011000
,
00000010
00000000
00000010
00000000
,
00000001
00000000
00000001
00000100
,
00001000
00000000
00001000
00000000
,
00010000
00000000
00010000
00011000
,
00100000
00000000
00100000
00000000
,
10000000
00000000
10000000
01000000
,
00010000
00000000
00010000
00000000
,
00001000
00000000
00001000
00011000
,
00000100
00000000
00000001
00000000
,
00000100
00000000
00001000
00010000
,
01000000
00000000
10000000
00000000
,
01000000
00000000
00010000
00011000
,
00000100
00000100
00000001
00000000
,
00000100
00000100
00001000
00000000
,
00010000
00010000
01000000
00000000
,
00010000
00010000
00001000
00011000
,
00000010
00000010
00000001
00000000
,
00000010
00000010
00001000
00000000
,
00010000
00010000
00100000
00000000
,
01100000
00000000
00001000
00011000
,
00000010
00000110
00000001
00000100
,
00000000
00001000
00000000
00010000
,
00100000
01100000
10000000
01000000
,
00000000
00010000
00000000
00001000
,
00000100
00000110
00000001
00000010
,
00000000
00001000
00000000
00010000
,
01000000
01100000
10000000
00100000
,
00000000
00010000
00001000
00011000
,
01000000
00000000
01010000
00000000
,
00001000
00000100
00000100
00001000
,
00000100
00000000
00001100
00000000
,
00010000
01000000
01000000
00010000
,
00100000
00000000
00110000
00000000
,
00001000
00000010
00000010
00001000
,
00000010
00000000
00001010
00000000
,
00010000
00100000
00100000
00010000
,
20020000
00000000
00000000
00000000
,
30030000
00000000
00000000
00000000
;

//---------------dance-double - ----------------
#NOTES:
     dance-double:
     :
     Medium:
     7:
     0.340523,0.394083,0.299455,0.023956,0.000000,199.000000,174.000000,25.000000,2.000000,0.000000,0.000000,0.340523,0.394083,0.299455,0.023956,0.000000,199.000000,174.000000,25.000000,2.000000,0.000000,0.000000:
00000000
00000000
00000000
00000000
,
00000000
00000000
00000000
00000000
,
00000000
00000000
00000000
00000000
,
00000000
00000000
00000000
00000000
,
00000000
00000000
00000000
00000000
,
00000000
00000000
00000000
00000000
,
10000000
00000000
01000000
00000000
10000000
00000000
01000000
00010000
,
00000000
00001000
00000000
00001000
,
00000100
00000010
00000100
00000000
00000010
00000000
00010000
00001000
,
00000000
00000000
00010000
00011000
,
01000000
10000000
01000000
00010000
,
00001000
00000000
00000100
00000000
00000001
00000100
00000001
00000000
,
00000100
00001000
00010000
00001000
,
00000100
00000000
00000001
00000000
00000010
00001000
00000010
00000000
,
00000001
00000100
00000000
00000000
00000100
00001000
00000000
00000000
,
00010000
00001000
00000000
00000000
01000000
00000000
10100000
00000000
,
10000000
00100000
00000000
00000000
00100000
00010000
00000000
00000000
,
00001000
00010000
00000000
00000100
00000000
00000010
00000011
00000000
,
00000001
00000010
00000000
00000000
00000010
00001000
00000000
00000000
,
00010000
00001000
00000000
00000000
00100000
00000000
11000000
00000000
,
10000000
01000000
00000000
00000000
01000000
00010000
00000000
00000000
,
00001000
00010000
00000000
00000010
00000000
00000100
00000101
00000000
,
00000010
00000000
00001000
00000000
00010000
00001000
01000000
00000000
,
00100000
00000000
00010000
00000000
00001000
00010000
00000100
00000000
,
00000010
00000000
00001000
00000000
00010000
00001000
01000000
00000000
,
00100000
00000000
00010000
00000000
00001000
00010000
00010100
00000000
,
00000100
00000000
00001000
00000000
00010000
00001000
00100000
00000000
,
01000000
00000000
00010000
00000000
00001000
00010000
00000010
00000000
,
00000100
00000000
00001000
00000000
00010000
00001000
00100000
00000000
,
01100000
00000000
00010000
00011000
,
00000100
00000000
00000110
00000000
00000001
00000100
00000000
00000010
,
00000000
00001000
00010000
01000000
,
10000000
00000000
00100000
00000000
01000000
00001000
00000000
00010000
,
00000000
00000100
00010000
00011000
,
01000000
00000000
01100000
00000000
10000000
01000000
00000000
00100000
,
00000000
00010000
00001000
00000100
,
00000001
00000000
00000010
00000000
00000100
00010000
00000000
00001000
,
00000000
01000000
00001000
00011000
,
01000000
00000000
10100000
00000000
01000000
00000000
00010000
01010000
,
00000000
00001000
00010000
00000000
00000100
00000000
00000110
00000000
,
00000100
00000000
00000011
00000000
00000100
00000000
00001000
00001100
,
00000000
00010000
00001000
00000000
01000000
00000000
01100000
00000000
,
00100000
00000000
11000000
00000000
00100000
00000000
00010000
00110000
,
00000000
00001000
00010000
00000000
00000010
00000000
00000110
00000000
,
00000010
00000000
00000101
00000000
00000010
00000000
00001000
00001010
,
00000000
00010000
00001000
00000000
00100000
00000000
01100000
00000000
,
20020000
00000000
00000000
00000000
,
30030000
00000000
00000000
00000000
;

//---------------dance-double - ----------------
#NOTES:
     dance-double:
     :
     Hard:
     11:
     0.468861,0.506678,0.515063,0.023956,0.071869,274.000000,231.000000,43.000000,2.000000,0.000000,0.000000,0.468861,0.506678,0.515063,0.023956,0.071869,274.000000,231.000000,43.000000,2.000000,0.000000,0.000000:
00000000
00000000
00000000
00000000
,
00000000
00000000
00000000
00000000
,
00000000
00000000
00000000
00000000
,
00000000
00000000
00000000
00000000
,
00000000
00000000
00000000
00000000
,
00000000
00000000
00000000
00000000
,
00100000
00000000
10000000
00000000
00100000
00000000
10000000
01000000
,
00010000
00001000
00010000
00001000
,
00000010
00000001
00000010
00000000
00000100
00000000
00001000
00000100
,
00001000
00000000
00001010
00011000
,
01000000
00010000
00000000
00010000
00001000
00000100
00000000
00000100
,
00001000
00010000
00000000
00010000
00100000
00010000
00001000
00000100
,
00000010
00001000
00000000
00001000
00000100
00010000
00000000
00010000
,
00001000
00100000
00000000
00100000
00000000
00001000
00011000
00000000
,
01000000
01100000
00000000
00010000
01000000
01001000
00000000
00010000
,
00000010
00000110
00000000
00001000
00000100
00010000
00011000
00000000
,
00100000
01100000
00000000
10000000
01000000
01010000
00000000
00001000
,
00010000
00010100
00000000
00000110
00000000
00010000
00011000
00000000
,
00000100
00000110
00000000
00001000
00000100
00010100
00000000
00001000
,
00100000
01100000
00000000
00010000
01000000
00001000
00011000
00000000
,
00000010
00000110
00000000
00000001
00000100
00001100
00000000
00010000
,
00001000
01001000
00000000
01100000
00000000
00001000
00011000
00000000
,
01000000
00000000
01010000
00000000
00100000
01000000
00010000
00001000
,
00010000
00000000
00010100
00000000
00000010
00000001
00000100
00001000
,
00000100
00000000
00001100
00000000
00000010
00000100
00001000
00010000
,
00001000
00000000
01001000
00000000
00100000
10000000
01000000
00010000
,
01000000
00000000
01010000
00000000
00100000
01000000
00010000
00001000
,
00010000
00000000
00010100
00000000
00000010
00000001
00000100
00001000
,
00000100
00000000
00001100
00000000
00000010
00000100
00001000
00010000
,
00011000
00000000
01001000
01100000
,
10000000
00000000
11000000
00000000
01000000
00010000
00001000
00010000
,
00000000
00100000
00010000
00000000
00001000
00000000
00011000
00000000
,
00000100
00000000
00001010
00000000
00000001
00000100
00001000
00010000
,
00000000
00001000
00000100
00000000
00000001
00000000
00001010
00000000
,
00000001
00000000
00000101
00000000
00000100
00001000
00010000
00001000
,
00000000
00000010
00001000
00000000
00010000
00000000
00011000
00000000
,
01000000
00000000
00110000
00000000
10000000
01000000
00010000
00001000
,
00000000
00010000
01000000
00000000
10000000
00000000
00110000
00000000
,
01000000
00100000
00000000
00000000
00000000
00000000
00000000
00000000
01000000
10000000
00000000
00000000
00000000
00000000
00000000
00000000
01000000
00010000
00000000
00000000
00000000
00000000
00000000
00000000
00001000
00000000
00000000
00000000
00010000
00000000
00000000
00000000
,
00000000
00001000
00000100
00000001
00000010
00000001
00001001
00000000
,
00000100
00000010
00000000
00000000
00000000
00000000
00000000
00000000
00000100
00000001
00000000
00000000
00000000
00000000
00000000
00000000
00000100
00001000
00000000
00000000
00000000
00000000
00000000
00000000
00010000
00000000
00000000
00000000
00001000
00000000
00000000
00000000
,
00000000
00010000
01000000
10000000
00100000
10000000
10010000
00000000
,
00100000
01000000
00000000
00000000
00000000
00000000
00000000
00000000
00100000
10000000
00000000
00000000
00000000
00000000
00000000
00000000
00100000
00010000
00000000
00000000
00000000
00000000
00000000
00000000
00001000
00000000
00000000
00000000
00010000
00000000
00000000
00000000
,
00000000
00001000
00000010
00000001
00000100
00000001
00001001
00000000
,
00000010
00000100
00000000
00000000
00000000
00000000
00000000
00000000
00000010
00000001
00000000
00000000
00000000
00000000
00000000
00000000
00000010
00001000
00000000
00000000
00000000
00000000
00000000
00000000
00010000
00000000
00000000
00000000
00001000
00000000
00000000
00000000
,
00000000
00010000
00100000
10000000
01000000
10000000
10010000
00000000
,
02000000
00200000
00000000
00000000
,
03300000
00000000
00000000
00000000
;

//---------------dance-single - ----------------
#NOTES:
     dance-single:
     :
     Challenge:
     14:
     0.694736,0.788166,0.694736,0.131760,0.479128,406.000000,348.000000,58.000000,11.000000,0.000000,0.000000,0.694736,0.788166,0.694736,0.131760,0.479128,406.000000,348.000000,58.000000,11.000000,0.000000,0.000000:
// measure 0
0000
0000
0000
0000
,  // measure 1
0000
0000
0000
0000
,  // measure 2
0000
0000
0000
0000
,  // measure 3
0000
0000
0000
0000
,  // measure 4
1000
0100
0000
0000
0000
0000
0000
0000
0100
0001
0000
0000
0000
0000
0000
0000
0001
0100
0000
0000
0000
0000
0000
0000
0010
0000
0000
0000
0020
0000
0000
0000
,  // measure 5
0000
0000
1030
0000
0100
0001
0000
0001
,  // measure 6
0100
0010
0000
0000
0000
0000
0000
0000
0001
0010
0000
0000
0000
0000
0000
0000
1000
0010
0000
0000
0000
0000
0000
0000
0100
0000
0000
0000
0200
0000
0000
0000
,  // measure 7
0000
0000
1300
0000
0010
0001
0010
0100
,  // measure 8
0010
1000
0000
0000
0100
0010
0000
0000
0001
0010
0000
0000
0100
0001
0000
0000
1000
0000
0000
0000
0000
0000
0000
0000
0010
0000
0000
0000
0110
0000
0000
0000
,  // measure 9
0000
1000
1001
0000
1100
0000
0110
0000
,  // measure 10
0101
0001
0100
0001
1001
0100
1000
0100
,  // measure 11
0011
0001
0010
0001
1001
0110
1010
0110
,  // measure 12
1100
1000
0100
1000
1010
0010
1000
0010
,  // measure 13
0101
0100
0001
0100
0110
0010
0100
0010
,  // measure 14
0100
1100
0000
0100
0101
0110
0000
1000
,  // measure 15
1001
1100
0000
0010
0011
0101
0110
0100
,  // measure 16
1100
0101
0000
0010
0110
1010
0000
1000
,  // measure 17
1000
0000
0010
0000
0000
0000
0001
0000
0010
0000
0100
0010
0100
0000
0001
0000
,  // measure 18
1000
0010
1000
0010
0000
0000
0001
0100
0001
0100
0010
0000
0000
0000
1000
0100
,  // measure 19
1000
0100
0010
0000
0000
0000
0001
0100
0001
0000
1000
0100
1000
0000
0010
0000
,  // measure 20
0110
0101
0000
0010
1010
1100
0000
1000
,  // measure 21
1010
0011
0000
0101
0000
1100
1001
0000
,  // measure 22
1000
0000
0100
0001
0100
0000
0010
0000
0001
0000
0100
0000
1000
0000
0010
0000
,  // measure 23
0001
0000
0010
1000
0010
0000
1000
0000
0100
0000
0001
0000
0010
0000
0100
0000
,  // measure 24
2000
0000
0100
0000
3010
0001
0010
0100
,  // measure 25
0000
0000
1100
0000
0100
0000
0101
0000
0000
0000
0100
0001
0000
0100
0001
0000
,  // measure 26
0200
0000
0310
1000
0100
0001
0010
1000
,  // measure 27
0000
1100
0000
0110
0000
0011
0000
2002
,  // measure 28
0000
0000
0000
0000
3003
0000
0000
0000
0000
0000
1010
0000
0000
0101
0000
0000
,  // measure 29
0220
0000
0000
0000
0000
0000
0330
0000
0000
0000
0000
0000
1000
0001
0000
0000
0000
0000
0100
0001
0000
0000
0000
0000
,  // measure 30
1000
0000
0100
1000
0100
0000
0010
0000
0001
0000
0100
1000
0100
0000
0010
0001
,  // measure 31
0010
0100
0010
1000
0010
0100
0010
0001
0010
0100
0010
1000
0010
0000
1000
0000
,  // measure 32
1001
0000
0001
0000
0100
0000
1000
0000
1100
0000
0000
0101
0000
0000
1001
0000
,  // measure 33
0000
0000
0000
0000
1001
0000
0000
0000
1010
0000
0000
0000
0000
0000
0000
0000
1000
0100
0000
0000
0010
0001
0000
0000
0100
0010
0000
0000
0001
0100
0000
0000
,  // measure 34
0001
0000
0100
0001
0100
0000
0010
0000
1000
0000
0100
0001
0100
0000
1000
0100
,  // measure 35
1000
0010
1000
0001
1000
0010
1000
0100
1000
0010
1000
0001
1000
0000
0010
0000
,  // measure 36
0001
0010
0001
0000
0010
0100
0010
0000
1010
0000
0000
0000
1100
0000
0020
0000
,  // measure 37
0000
0000
0000
0000
1030
0000
0000
0000
0001
0000
0000
0000
0000
0000
0000
0000
1000
0001
0000
0000
0000
0000
0000
0000
0100
0010
0000
0000
0000
0000
0000
0000
,  // measure 38
1000
0100
0000
0000
0010
0001
0000
0000
0100
0010
0000
0000
0100
0000
0000
0000
0010
0001
0000
0000
0100
0010
0000
0000
1000
0100
0000
0000
0010
0000
0000
0000
,  // measure 39
0000
0001
0010
0100
1000
0010
0001
0100
,  // measure 40
1000
0010
0000
0000
0100
0001
0000
0000
0010
0100
0000
0000
0010
0000
0000
0000
1000
0100
0000
0000
0001
0010
0000
0000
0100
1000
0000
0000
0100
0010
0000
0000
,  // measure 41
0000
0010
0001
0100
1000
0010
0001
0100
,  // measure 42
1000
0100
0000
0000
0010
0001
0000
0000
1000
0010
0000
0000
0100
0000
0000
0000
0010
0001
0000
0000
0100
0010
0000
0000
1000
0100
0000
0000
1000
0000
0000
0000
,  // measure 43
0000
0000
0000
0000
1000
0000
0100
0000
1000
0000
0000
0000
0010
0000
0000
0000
0001
0000
0000
0000
0100
0000
0000
0000
0010
0000
0000
0000
1000
0010
0000
0000
,  // measure 44
0100
0001
0100
0010
0100
1000
0100
0010
0100
0001
0100
0010
0100
0000
0010
0000
,  // measure 45
0100
0110
1001
0110
,  // measure 46
0011
2020
0000
0000
,  // measure 47
3030
0000
0000
0000
;
