#VERSION:0.83;
#TITLE:Crazy Control;
#SUBTITLE:;
#ARTIST:D-crew with VAL TIATIA;
#TITLETRANSLIT:;
#SUBTITLETRANSLIT:;
#ARTISTTRANSLIT:;
#GENRE:;
#ORIGIN:;
#CREDIT:;
#BANNER:Crazy Control.png;
#BACKGROUND:Crazy Control-bg.png;
#PREVIEWVID:;
#JACKET:Crazy Control-jacket.png;
#CDIMAGE:;
#DISCIMAGE:;
#LYRICSPATH:;
#CDTITLE:;
#MUSIC:Crazy Control.ogg;
#OFFSET:0.000000;
#SAMPLESTART:59.160000;
#SAMPLELENGTH:15.000000;
#SELECTABLE:YES;
#BPMS:0.000=105.000;
#STOPS:;
#DELAYS:;
#WARPS:;
#TIMESIGNATURES:0.000=4=4;
#TICKCOUNTS:0.000=4;
#COMBOS:0.000=1;
#SPEEDS:0.000=1.000=0.000=0;
#SCROLLS:0.000=1.000;
#FAKES:;
#LABELS:0.000=Song Start;
#BGCHANGES:;
#KEYSOUNDS:;
#ATTACKS:
;

//---------------dance-single - ----------------
#NOTEDATA:;
#CHARTNAME:;
#STEPSTYPE:dance-single;
#DESCRIPTION:;
#CHARTSTYLE:;
#DIFFICULTY:Beginner;
#METER:1;
#RADARVALUES:0.078125,0.124538,0.019886,0.000000,0.000000,55.000000,53.000000,2.000000,0.000000,0.000000,0.000000,0.000000,0.000000,0.000000,0.078125,0.124538,0.019886,0.000000,0.000000,55.000000,53.000000,2.000000,0.000000,0.000000,0.000000,0.000000,0.000000,0.000000;
#CREDIT:;
#NOTES:
0000
0000
0000
0000
,
0000
0000
0000
0000
,
0000
0000
0000
0000
,
0000
0000
0000
0000
,
0000
0000
0000
0000
,
0001
0000
0000
0000
,
1000
0000
0000
0000
,
0001
0000
0000
0000
,
0000
0000
0000
0000
,
1000
1000
0000
0000
,
0001
0001
0000
0000
,
1000
1000
0000
0000
,
0010
0010
0010
0000
,
0001
0001
0000
0000
,
1000
1000
0000
0000
,
0001
0001
0000
0000
,
0010
0010
0010
0000
,
1000
0000
0000
0000
,
0000
0000
0000
0000
,
0010
0000
0000
0000
,
0000
0000
0000
0000
,
0001
0000
0000
0000
,
0000
0000
0000
0000
,
0100
0000
0000
0000
,
0000
0000
0000
0000
,
0000
0000
0000
0000
,
1000
0000
0000
0001
,
0001
0001
0000
0000
,
1000
0000
0000
0001
,
0001
0001
0000
0000
,
0001
0001
0000
0000
,
1000
1000
1000
0000
,
0001
0001
0000
0000
,
1000
1000
1000
0000
,
0001
0000
0000
0000
,
0001
0000
0000
0000
,
1000
0000
0000
0000
,
1000
0000
0000
0000
,
0010
0000
0000
0000
,
1001
0000
0000
0000
,
0010
0000
0000
0000
,
1001
0000
0100
0100
,
0000
0000
0000
0000
;

//---------------dance-single - ----------------
#NOTEDATA:;
#CHARTNAME:;
#STEPSTYPE:dance-single;
#DESCRIPTION:;
#CHARTSTYLE:;
#DIFFICULTY:Easy;
#METER:4;
#RADARVALUES:0.144886,0.228319,0.109374,0.000000,0.000000,102.000000,91.000000,11.000000,0.000000,0.000000,0.000000,0.000000,0.000000,0.000000,0.144886,0.228319,0.109374,0.000000,0.000000,102.000000,91.000000,11.000000,0.000000,0.000000,0.000000,0.000000,0.000000,0.000000;
#CREDIT:;
#NOTES:
0000
0000
0000
0000
,
0000
0000
0000
0000
,
0000
0000
0000
0000
,
0000
0000
0000
0000
,
0000
0000
0000
0000
,
0001
0000
0000
1000
,
1000
0000
0000
0001
,
0001
0000
0000
1000
,
1000
0000
0000
0001
,
1001
1000
0000
0000
,
1001
0001
0000
0000
,
1001
1000
0000
0000
,
1001
0001
0001
0000
,
0001
0100
0001
0000
,
1001
1000
1000
0000
,
1000
0100
1000
0000
,
1000
0001
1000
1001
,
0001
0000
0100
0000
,
0100
0000
0100
0000
,
0010
0000
1000
0000
,
0001
0000
0001
0000
,
0001
0000
1000
0000
,
0001
0000
1000
0001
,
1000
0000
0001
0000
,
1000
0100
0010
0001
,
0000
0000
0000
0000
,
0010
1000
0000
0010
,
0000
0010
0000
0001
,
0010
0001
0000
0010
,
0000
0010
0000
1000
,
0001
0000
1000
0000
,
1000
0000
0001
0000
,
1000
0000
0001
0000
,
0001
0000
1000
0000
,
0001
0100
1000
0000
,
0001
0010
1000
0000
,
1000
0100
0001
0000
,
1000
0010
1000
0100
,
0001
0100
0000
0100
,
0000
0110
0000
0110
,
0001
0100
0000
0100
,
0000
0110
0110
1001
,
0000
0000
0000
0000
;

//---------------dance-single - ----------------
#NOTEDATA:;
#CHARTNAME:;
#STEPSTYPE:dance-single;
#DESCRIPTION:;
#CHARTSTYLE:;
#DIFFICULTY:Medium;
#METER:6;
#RADARVALUES:0.237215,0.332100,0.159090,0.000000,0.000000,167.000000,151.000000,16.000000,0.000000,0.000000,0.000000,0.000000,0.000000,0.000000,0.237215,0.332100,0.159090,0.000000,0.000000,167.000000,151.000000,16.000000,0.000000,0.000000,0.000000,0.000000,0.000000,0.000000;
#CREDIT:;
#NOTES:
0000
0000
0000
0000
,
0000
0000
0000
0000
,
0000
0000
0000
0000
,
0000
0000
0000
0000
,
0000
0000
0000
0000
,
1000
0000
0000
1000
,
0100
0000
0000
0001
,
0100
0000
0000
1000
,
0100
0000
0000
0001
,
0101
0100
0100
0010
,
1100
0100
0100
0010
,
0101
0100
0100
0010
,
1010
0000
0010
0000
0010
0100
0001
0000
,
0101
0100
0101
0000
,
0011
0000
0010
0000
0010
0100
1000
0000
,
1100
0100
1100
0000
,
1000
0001
0100
1001
,
0001
1000
0100
0000
,
0100
1000
0100
0000
,
0010
0001
1000
0000
,
0001
0010
0001
0000
,
0001
0100
1000
0000
,
0001
0100
1000
0001
,
1000
0100
0001
0000
,
1000
0000
0100
0000
0001
1000
0001
0000
,
0000
0000
0000
0000
,
0010
1000
0001
0010
,
1000
0001
0010
0000
1000
0000
0001
0000
,
0010
0001
1000
0010
,
0001
1000
0010
0000
0001
0000
1000
0000
,
0001
0000
1000
0000
1000
1000
0100
0000
,
1000
0000
0100
0100
0001
0000
0100
0000
,
1000
0000
0001
0000
0001
0001
0100
0000
,
0001
0000
0100
0100
1000
0000
0100
0000
,
0001
1000
0100
0000
1000
0100
0010
0000
,
0001
0100
0010
0000
1000
0100
0010
0000
,
1000
0001
0100
0000
0001
0100
0010
0000
,
1000
0010
0010
1000
1000
0100
0100
1000
,
0001
0100
1000
0100
,
0001
1000
1100
0000
1000
0001
0101
0000
,
0001
0100
1000
0100
,
0001
1000
1100
0000
0110
0110
1001
0000
,
0000
0000
0000
0000
;

//---------------dance-single - ----------------
#NOTEDATA:;
#CHARTNAME:;
#STEPSTYPE:dance-single;
#DESCRIPTION:;
#CHARTSTYLE:;
#DIFFICULTY:Hard;
#METER:9;
#RADARVALUES:0.384941,0.498151,0.278408,0.000000,0.263493,271.000000,243.000000,28.000000,0.000000,0.000000,0.000000,0.000000,0.000000,0.000000,0.384941,0.498151,0.278408,0.000000,0.263493,271.000000,243.000000,28.000000,0.000000,0.000000,0.000000,0.000000,0.000000,0.000000;
#CREDIT:;
#NOTES:
0000
0000
0000
0000
,
0000
0000
0000
0000
,
0000
0000
0000
0000
,
0000
0000
0000
0000
,
0000
0000
0000
0000
,
0010
0000
0000
0000
0000
0000
0001
0010
,
0100
0000
0000
0000
0000
0000
1000
0010
,
0100
0000
0000
0000
0000
0000
0001
0010
,
0100
0000
0000
0000
0000
0000
1000
0010
,
1100
0000
0000
0000
1100
0000
0000
0000
0100
1000
0100
0000
0010
0000
0010
0000
,
0101
0000
0000
0000
0101
0000
0000
0000
0100
0001
0100
0000
0010
0000
0010
0000
,
1100
0000
0000
0000
1100
0000
0000
0000
0100
1000
0100
0000
0010
0000
0010
0000
,
0011
0000
0000
0000
0011
0000
0000
0001
0000
0010
0100
0000
1000
0000
0001
0000
,
1100
0000
0000
0000
0110
0000
0000
1010
0000
0000
0000
0000
0000
0000
0000
0000
,
1010
0000
0000
0000
1010
0000
0000
1000
0000
0010
0100
0000
0001
0000
1000
0000
,
0101
0000
0000
0000
0110
0000
0000
0011
0000
0000
0000
0000
0000
0000
0000
0000
,
0001
0000
0000
1000
0100
0000
0001
0010
0100
0010
0001
0000
0101
0000
1001
0000
,
1000
0000
0001
0000
0100
0000
0100
0010
,
1000
0000
0001
0010
0100
0000
0100
1000
,
0010
0000
1000
0000
0001
0000
0001
0100
,
0010
0000
1000
0100
0010
0000
0010
0001
,
1000
0000
0100
0000
0100
0010
0001
0100
,
1000
0000
0100
0010
0100
1000
0001
0100
,
0001
0000
0100
0000
0100
0010
1000
0100
,
0001
0000
0000
0000
0100
0000
0010
0000
0100
0000
0001
0000
1000
0010
0100
0000
,
0000
0000
0000
0000
,
0010
0100
0000
0100
0001
0000
0000
0000
1000
0100
0000
0100
0010
0000
0000
0000
,
0001
0000
1000
0000
0010
0000
0100
0000
0001
0100
0000
0001
1000
0000
0000
0000
,
0010
0100
0000
0100
1000
0000
0000
0000
0001
0100
0000
0100
0010
0000
0000
0000
,
1000
0000
0001
0000
0010
0000
0100
0000
1000
0100
0000
1000
0001
0000
0000
0000
,
1000
0010
0000
0010
0001
0000
0000
0000
0001
1000
0001
0000
0100
0000
0000
0000
,
0001
0000
0001
0000
0100
0010
0100
0000
1000
0100
0000
0001
0100
0000
0000
0000
,
0001
0010
0000
0010
1000
0000
0000
0000
1000
0001
1000
0000
0100
0000
0000
0000
,
1000
0000
1000
0000
0100
0010
0100
0000
0001
0100
0000
1000
0100
0000
0000
0000
,
1000
0000
0001
0000
0100
0000
0001
0010
0001
0000
0100
0000
0010
0000
1000
0010
,
1000
0000
0100
0000
0010
0000
0001
0010
0001
0000
0100
0000
0010
0000
1000
0000
,
0001
0000
1000
0000
0100
0000
1000
0010
1000
0000
0100
0000
0010
0000
0001
0010
,
0001
0000
0010
1000
0010
0000
0001
0010
0001
1000
0100
0010
0100
1000
0001
0000
,
1000
1100
0001
0101
,
1000
0001
0100
0101
0000
0000
0001
1000
0100
1100
0000
0000
,
1000
1100
0001
0101
,
1000
0000
0001
0000
0100
0000
0101
0000
0000
0000
0000
0000
0011
0000
0000
1100
0000
0000
1001
0000
0000
0000
0000
0000
,
0000
0000
0000
0000
;

//---------------dance-single - ----------------
#NOTEDATA:;
#CHARTNAME:;
#STEPSTYPE:dance-single;
#DESCRIPTION:;
#CHARTSTYLE:;
#DIFFICULTY:Challenge;
#METER:12;
#RADARVALUES:0.436077,0.581176,0.328123,0.000000,0.402697,307.000000,274.000000,33.000000,0.000000,0.000000,0.000000,0.000000,0.000000,0.000000,0.436077,0.581176,0.328123,0.000000,0.402697,307.000000,274.000000,33.000000,0.000000,0.000000,0.000000,0.000000,0.000000,0.000000;
#CREDIT:;
#NOTES:
0000
0000
0000
0000
,
0000
0000
0000
0000
,
0000
0000
0000
0000
,
0000
0000
0000
0000
,
0000
0000
0000
0000
,
0011
0001
0000
0000
,
0110
0100
0000
0000
,
1100
0100
0000
0000
,
0110
0010
0000
0000
,
1100
0000
0000
0000
1100
0000
0000
0000
1000
0100
0010
0001
0100
0000
0100
0000
,
0101
0000
0000
0000
0101
0000
0000
0000
0001
0100
0010
1000
0100
0000
0100
0000
,
1100
0000
0000
0000
1100
0000
0000
0000
1000
0100
0010
0001
0100
0000
0100
0000
,
0101
0000
0000
0000
0101
0000
0000
0001
0000
1000
0100
0000
0010
0000
0010
0000
,
0011
0000
0000
0000
1100
0000
0000
1001
0000
0000
0000
0000
0000
0000
0000
0000
,
1100
0000
0000
0000
1100
0000
0000
1000
0000
0001
0100
0000
0010
0000
0010
0000
,
1010
0000
0000
0000
0101
0000
0000
1001
0000
0000
0000
0000
0000
0000
0000
0000
,
0101
0000
0000
0100
0001
0000
0000
0010
1000
0010
1000
0000
0110
0000
1001
0000
,
1000
0000
0000
0000
0100
0000
0000
0000
0010
0000
0000
0001
0100
0000
0010
0000
,
1000
0100
0010
0000
0001
1000
0010
1000
,
0001
0000
0000
0000
0100
0000
0000
0000
0010
0000
0000
1000
0100
0000
0010
0000
,
0001
0100
0010
0000
1000
0001
0010
0001
,
1000
0000
0000
0000
0010
0000
0000
0000
0100
0000
0000
0001
0010
0000
0100
0000
,
1000
0010
0100
0000
0001
1000
0100
1000
,
0001
0000
0000
0000
0010
0000
0000
0000
0100
0000
0000
1000
0010
0000
0100
0000
,
0001
0010
0100
0000
1000
0001
0100
0001
,
1000
0000
0000
0000
,
1000
0010
1000
0010
0100
0000
0000
0000
0001
0010
0001
0010
0100
0000
0000
0010
,
1000
0000
0000
0100
0010
0000
0001
0000
1000
0100
1000
0001
0100
0000
0000
0000
,
1000
0010
1000
0010
0100
0000
0000
0000
0001
0010
0001
0010
0100
0000
0000
0010
,
1000
0000
0000
0100
0010
0000
0001
0000
1000
0100
1000
0001
0100
0000
0000
0000
,
0010
0001
0100
0001
0100
0000
0000
0000
0010
1000
0100
1000
0100
0000
0000
0010
,
0100
0000
0000
1000
0001
0000
0100
0000
0010
1000
0100
0010
0001
0000
0000
0000
,
0010
0001
0100
0001
0100
0000
0000
0000
0010
1000
0100
1000
0100
0000
0000
0010
,
0100
0000
0000
1000
0001
0000
0100
0000
0010
1000
0100
0010
0001
0000
0000
0000
,
1000
0010
1000
0010
1000
0000
0100
0000
0010
0001
0010
0001
0010
0000
0100
0000
,
1000
0010
0100
0001
0010
0100
1000
0010
0100
0001
0100
0001
1000
0000
0000
0000
,
1000
0010
1000
0010
1000
0000
0100
0000
0010
0001
0010
0001
0010
0000
0100
0000
,
1000
0010
0100
0001
0010
0100
1000
0010
0100
0001
0100
0001
1000
0000
0100
0000
,
1100
0000
0000
1000
0100
0000
0000
0000
0010
0001
0010
0000
0011
0000
0000
0000
,
1000
0100
0010
0011
0000
0000
1000
0100
0010
0011
0000
0000
,
0101
0000
0000
0001
0100
0000
0000
0000
0010
1000
0010
0000
1010
0000
0000
0000
,
0001
0000
0100
0000
0010
0000
1010
0000
0000
0000
0000
0000
0101
0000
0000
0110
0000
0000
1001
0000
0000
0000
0000
0000
,
0000
0000
0000
0000
;

//---------------dance-double - ----------------
#NOTEDATA:;
#CHARTNAME:;
#STEPSTYPE:dance-double;
#DESCRIPTION:;
#CHARTSTYLE:;
#DIFFICULTY:Easy;
#METER:4;
#RADARVALUES:0.190340,0.228319,0.149147,0.000000,0.000000,134.000000,119.000000,15.000000,0.000000,0.000000,0.000000,0.000000,0.000000,0.000000,0.190340,0.228319,0.149147,0.000000,0.000000,134.000000,119.000000,15.000000,0.000000,0.000000,0.000000,0.000000,0.000000,0.000000;
#CREDIT:;
#NOTES:
00000000
00000000
00000000
00000000
,
00000000
00000000
00000000
00000000
,
00000000
00000000
00000000
00000000
,
00000000
00000000
00000000
00000000
,
00000000
00000000
00000000
00000000
,
01000000
01000000
00000000
00000000
,
00001000
00010000
00000000
00000000
,
00000100
00000010
00000000
00000000
,
00010000
00011000
00000000
00000000
,
00000010
00010000
00011000
00000000
,
00100000
00001000
00011000
00000000
,
00000010
00010000
00011000
00000000
,
00100000
00001000
00010000
00000010
,
00001000
00000100
00001100
00000000
,
00010000
00001000
00011000
00000000
,
00010000
01000000
01010000
00000000
,
00001000
00010000
00011000
00000000
,
00000010
00000000
00000010
00000000
,
00010000
00001000
00000100
00000000
,
00000001
00000000
00000010
00000000
,
00001000
00010000
01000000
00000000
,
00100000
00100000
00100000
00000000
,
00010000
00001000
00000100
00000100
,
00000010
00000100
00000010
00000000
,
00001000
00010000
01000000
00100000
,
00000000
00000000
00000000
00000000
,
10000000
01000000
00100000
00100000
,
00001000
00010000
00000010
00000100
,
00000001
00000100
00000010
00000010
,
00010000
00001000
00100000
01000000
,
10000000
01000000
00100000
00001000
,
00001000
00010000
00000010
00000110
,
00000001
00000100
00000010
00010000
,
00010000
00001000
00100000
01100000
,
01000000
10000000
00010000
00100000
,
00001000
00000100
00000010
00000010
,
00000100
00000001
00001000
00000010
,
00010000
01000000
00100000
01100000
,
00001000
00000000
00010000
00001000
,
00000100
00000110
00000010
00000110
,
00010000
00000000
00001000
00010000
,
01000000
01100000
00100000
01100000
,
00000000
00000000
00000000
00000000
;

//---------------dance-double - ----------------
#NOTEDATA:;
#CHARTNAME:;
#STEPSTYPE:dance-double;
#DESCRIPTION:;
#CHARTSTYLE:;
#DIFFICULTY:Medium;
#METER:7;
#RADARVALUES:0.294032,0.332100,0.228692,0.000000,0.039773,207.000000,184.000000,23.000000,0.000000,0.000000,0.000000,0.000000,0.000000,0.000000,0.294032,0.332100,0.228692,0.000000,0.039773,207.000000,184.000000,23.000000,0.000000,0.000000,0.000000,0.000000,0.000000,0.000000;
#CREDIT:;
#NOTES:
00000000
00000000
00000000
00000000
,
00000000
00000000
00000000
00000000
,
00000000
00000000
00000000
00000000
,
00000000
00000000
00000000
00000000
,
00000000
00000000
00000000
00000000
,
00000010
00000100
00000000
00000000
,
00001000
00010000
00000000
00000000
,
00100000
01100000
00000000
00000000
,
00010000
00011000
00000000
00000000
,
00001100
00000000
00001100
00000000
00010000
00001000
00100000
00000000
,
01010000
00000000
01010000
00000000
00001000
00010000
00000010
00000000
,
00001100
00000000
00001100
00000000
00010000
00001000
00100000
00000000
,
01000000
00000000
11000000
00000000
00100000
00010000
00001000
00010000
,
00000100
00000000
00000010
00000000
00000001
00001000
00000100
00000000
,
00000100
00000000
00000101
00000000
00000010
00001000
00010000
00001000
,
01000000
00000000
00100000
00000000
10000000
00010000
01000000
00000000
,
00100000
00000000
11000000
00000000
00100000
00010000
00001000
00010000
,
00000010
00000100
00000010
00001000
,
00000100
00010000
00001000
00000000
01000000
00010000
00010000
00000000
,
00100000
01000000
00100000
00001000
,
01000000
00001000
00010000
00000000
00000100
00000100
00001000
00000000
,
00000010
00000100
00000001
00001000
,
00000010
00010000
00001000
00000000
01000000
00010000
00010000
00000000
,
00100000
11000000
00100000
00010000
,
01000000
00001000
00010000
00010000
00000100
00001000
00001000
00000000
,
00000000
00000000
00000000
00000000
,
00000001
00000000
00001100
00000000
00000010
00000100
00001000
00010000
,
00001000
00000000
00001000
00100000
01000000
00000000
10010000
00000000
,
10000000
00000000
01010000
00000000
00100000
01000000
00010000
00001000
,
00010000
00000000
00010000
00000010
00000100
00000000
00001001
00000000
,
00000001
00000000
00001100
00000000
00000001
00000100
00001000
00010000
,
00001000
00000000
00001000
00100000
00010000
00000000
10010000
00000000
,
10000000
00000000
01010000
00000000
10000000
01000000
00010000
00001000
,
00010000
00000000
00010000
00000010
00001000
00000000
00001001
00000000
,
00000010
00000100
00001000
00000001
00000100
00000000
00001000
00000000
,
00010000
00010000
01000000
00000000
00100000
10000000
10100000
00000000
,
00100000
01000000
00010000
10000000
01000000
00000000
00010000
00000000
,
00001000
00001000
00000100
00000000
00000001
00000001
00000011
00000000
,
00000001
00000100
00001000
00010000
,
00100000
10000000
00100000
10000000
00000000
00000000
01000000
00100000
01000000
00100000
00000000
00000000
,
10000000
01000000
00010000
00001000
,
00000010
00000001
00000010
00000001
00000000
00000000
00000100
00000010
00000100
00000110
00000000
00000000
,
00000000
00000000
00000000
00000000
;

//---------------dance-double - ----------------
#NOTEDATA:;
#CHARTNAME:;
#STEPSTYPE:dance-double;
#DESCRIPTION:;
#CHARTSTYLE:;
#DIFFICULTY:Hard;
#METER:10;
#RADARVALUES:0.379259,0.477394,0.248578,0.000000,0.183948,267.000000,242.000000,25.000000,0.000000,0.000000,0.000000,0.000000,0.000000,0.000000,0.379259,0.477394,0.248578,0.000000,0.183948,267.000000,242.000000,25.000000,0.000000,0.000000,0.000000,0.000000,0.000000,0.000000;
#CREDIT:;
#NOTES:
00000000
00000000
00000000
00000000
,
00000000
00000000
00000000
00000000
,
00000000
00000000
00000000
00000000
,
00000000
00000000
00000000
00000000
,
00000000
00000000
00000000
00000000
,
01000000
00000000
00000000
00000000
00100000
00000000
00000000
00100000
00000000
00000000
00000000
00000000
00000000
00000000
00000000
00000000
,
00001000
00000000
00000000
00000000
00010000
00000000
00000000
00001000
00000000
00000000
00000000
00000000
00000000
00000000
00000000
00000000
,
00000100
00000000
00000000
00000000
00000010
00000000
00000000
00000110
00000000
00000000
00000000
00000000
00000000
00000000
00000000
00000000
,
00001000
00000000
00000000
00000000
00010000
00000000
00000000
00011000
00000000
00000000
00000000
00000000
00000000
00000000
00000000
00000000
,
00101000
00000000
00000000
00000000
00101000
00000000
00000000
00010000
00000000
00100000
00001000
00000000
00010000
00000000
00000010
00000000
,
00010010
00000000
00000000
00000000
00010010
00000000
00000000
00001000
00000000
00000010
00010000
00000000
00001000
00000000
00100000
00000000
,
00101000
00000000
00000000
00000000
00101000
00000000
00000000
00010000
00000000
00100000
00001000
00000000
00010000
00000000
00000010
00000000
,
00001100
00000000
00000000
00000000
00000101
00000000
00000000
00000010
00000000
00001000
00010000
00000000
00010000
00000000
00001000
00000000
,
01000000
00000000
00000000
00000000
00100000
00000000
00000000
01000000
00000000
00000000
00010000
00000000
10000000
00000000
00000000
00000000
,
01010000
00000000
00000000
00000000
11000000
00000000
00000000
00100000
00000000
00010000
00001000
00000000
00001000
00000000
00010000
00000000
,
00000100
00000000
00000000
00000000
00000010
00000000
00000000
00000100
00000000
00000000
00001000
00000000
00000001
00000000
00000000
00000000
,
00001100
00000000
00000000
00000000
00000101
00000000
00000000
00000010
00000000
00001000
00010000
00001000
00010000
00000000
00001000
00000000
,
00000010
00000100
00000001
00001000
,
00000010
00010000
00001000
01000000
00100000
00010000
00001000
01000000
,
00100000
00000000
01000000
00000000
00010000
00000000
10000000
00010000
,
00100000
00001000
00010000
00000100
00000010
00001000
00010000
00000010
,
00000010
00000000
00000100
00000000
00000001
00000000
00001000
00000010
,
00000100
00010000
00001000
00100000
01000000
00010000
00001000
00100000
,
00100000
01000000
00001000
00010000
,
00100000
00001000
00010000
00000100
00000010
00001000
00010000
00000000
,
00000000
00000000
00000000
00000000
,
00000001
00000100
00001000
00010000
00000010
00001000
00010000
01000000
,
00100000
00000000
00010000
00000000
00001000
00000000
00100000
00000000
01000000
00100000
00010000
00000000
11000000
00000000
00000000
00000000
,
10000000
01000000
00010000
00001000
00100000
00010000
00001000
00000100
,
00000010
00000000
00001000
00000000
00010000
00000000
00000010
00000000
00000100
00000010
00001000
00000000
00000101
00000000
00000000
00000000
,
00000001
00000100
00001000
00010000
00000100
00001000
00010000
01000000
,
00100000
00000000
00010000
00000000
00001000
00000000
00100000
00000000
01000000
00100000
00010000
00000000
01010000
00000000
00000000
00000000
,
10000000
01000000
00010000
00001000
01000000
00010000
00001000
00000100
,
00000010
00000000
00001000
00000000
00010000
00000000
00000010
00000000
00000100
00000010
00001000
00000000
00001100
00000000
00000000
00000000
,
00000011
00000000
00000100
00000000
00001010
00000000
00000100
00000000
00000001
00000000
00001000
00000000
00000100
00010000
00001000
00000000
,
01000000
00100000
01000000
00000000
00010000
10000000
00010000
00000000
00100000
00000000
01000000
00000000
01100000
00000000
00000000
00000000
,
10100000
00000000
01000000
00000000
00110000
00000000
01000000
00000000
10000000
00000000
00010000
00000000
01000000
00001000
00010000
00000000
,
00000100
00000010
00000100
00000000
00001000
00000001
00001000
00000000
00000010
00000000
00000010
00000000
00000110
00000000
00000000
00000000
,
00000001
00000000
00000100
00000000
00001000
00010000
01000000
00100000
,
00010000
10000000
00010000
00100000
00000000
00000000
00001000
00010000
01000000
10000000
00000000
00000000
,
10000000
00000000
01000000
00000000
00010000
00001000
00000100
00000010
,
00001000
00000001
00001000
00000010
00000000
00000000
00010000
00001000
00000100
00000101
00000000
00000000
,
00000000
00000000
00000000
00000000
;

//---------------dance-double - ----------------
#NOTEDATA:;
#CHARTNAME:;
#STEPSTYPE:dance-double;
#DESCRIPTION:;
#CHARTSTYLE:;
#DIFFICULTY:Challenge;
#METER:12;
#RADARVALUES:0.424714,0.560419,0.258521,0.000000,0.288351,299.000000,273.000000,26.000000,0.000000,0.000000,0.000000,0.000000,0.000000,0.000000,0.424714,0.560419,0.258521,0.000000,0.288351,299.000000,273.000000,26.000000,0.000000,0.000000,0.000000,0.000000,0.000000,0.000000;
#CREDIT:;
#NOTES:
00000000
00000000
00000000
00000000
,
00000000
00000000
00000000
00000000
,
00000000
00000000
00000000
00000000
,
00000000
00000000
00000000
00000000
,
00000000
00000000
00000000
00000000
,
01000000
00000000
00000000
00000000
00100000
00000000
00000000
00100000
00000000
00000000
00000000
00000000
00000000
00000000
00000000
00000000
,
00001000
00000000
00000000
00000000
00010000
00000000
00000000
00001000
00000000
00000000
00000000
00000000
00000000
00000000
00000000
00000000
,
00000100
00000000
00000000
00000000
00000010
00000000
00000000
00000110
00000000
00000000
00000000
00000000
00000000
00000000
00000000
00000000
,
00001000
00000000
00000000
00000000
00010000
00000000
00000000
00011000
00000000
00000000
00000000
00000000
00000000
00000000
00000000
00000000
,
00101000
00000000
00000000
00000000
01100000
00000000
00000000
00010000
00000000
01000000
00100000
00010000
00001000
00000000
00010000
00000000
,
00010010
00000000
00000000
00000000
00000110
00000000
00000000
00001000
00000000
00000100
00000010
00001000
00010000
00000000
00001000
00000000
,
00101000
00000000
00000000
00000000
01100000
00000000
00000000
00010000
00000000
01000000
00100000
00010000
00001000
00000000
00010000
00000000
,
01010000
00000000
00000000
00000000
11000000
00000000
00000000
00100000
00000000
00010000
00001000
00000000
00001000
00000000
00010000
00000000
,
00000100
00000000
00000000
00000000
00000010
00000000
00000000
00000100
00000000
00000000
00001000
00000000
00000001
00000000
00000000
00000000
,
00001100
00000000
00000000
00000000
00000101
00000000
00000000
00000010
00000000
00001000
00010000
00000000
00010000
00000000
00001000
00000000
,
01000000
00000000
00000000
00000000
00100000
00000000
00000000
01000000
00000000
00000000
00010000
00000000
10000000
00000000
00000000
00000000
,
01010000
00000000
00000000
00000000
11000000
00000000
00000000
00100000
00000000
00010000
00001000
00010000
00001000
00000000
00010000
00000000
,
00000010
00000100
00000001
00001000
,
00000010
00010000
00001000
01000000
00100000
00010000
00001000
01000000
,
00100000
00000000
01000000
00000000
00010000
00000000
10000000
00010000
,
00100000
00001000
00010000
00000100
00000010
00001000
00010000
00000010
,
00000010
00000000
00000100
00000000
00000001
00000000
00001000
00000100
,
00000010
00010000
00001000
01000000
00100000
00010000
00001000
00010000
,
00100000
01000000
00001000
00010000
,
00100000
00001000
00010000
00000100
00000010
00001000
00010000
00000000
,
00000000
00000000
00000000
00000000
,
00000001
00000010
00000001
00000000
00000100
00000000
00000010
00000000
00010000
00001000
00100000
00000000
00001000
00000000
01000000
00000000
,
00010000
10000000
01000000
00000000
00100000
00000000
00001000
00000000
00000010
00000000
00001000
00000000
00001000
00000000
01010000
00000000
,
10000000
00100000
10000000
00000000
01000000
00000000
00100000
00000000
00001000
00010000
00000010
00000000
00010000
00000000
00000100
00000000
,
00001000
00000001
00000100
00000000
00000010
00000000
00010000
00000000
00100000
00000000
00010000
00000000
00010000
00000000
00001100
00000000
,
00000001
00000010
00000001
00000000
00000100
00000000
00000010
00000000
00010000
00001000
00010000
00000000
00001000
00000000
01000000
00000000
,
00010000
10000000
01000000
00000000
00100000
00000000
00001000
00000000
00000010
00000000
00001000
00000000
00011000
00000000
01010000
00000000
,
10000000
00100000
10000000
00000000
01000000
00000000
00100000
00000000
00001000
00010000
00001000
00000000
00010000
00000000
00000100
00000000
,
00001000
00000001
00000100
00000000
00000010
00000000
00010000
00000000
00100000
00000000
00010000
00000000
00011000
00000000
00001100
00000000
,
00001000
00000010
00001000
00000010
00001000
00000000
00000100
00000000
00000010
00000001
00000100
00000001
00000010
00000000
00000100
00000000
,
00010000
00001000
00000010
00000000
00001000
00010000
01000000
00000000
10000000
00100000
00010000
00100000
01000000
00000000
01001000
00000000
,
00010000
00100000
00010000
00100000
00010000
00000000
01000000
00000000
00100000
10000000
01000000
10000000
00100000
00000000
01000000
00000000
,
00001000
00010000
00100000
00000000
00010000
00001000
00000100
00000000
00000001
00000010
00001000
00000010
00000100
00000000
00000110
00000000
,
00001000
00000001
00000100
00001000
00010000
00100000
00010000
00001000
,
00000010
00001000
00010000
01010000
00000000
00000000
10000000
00100000
00010000
01010000
00000000
00000000
,
00010000
10000000
01000000
00010000
00001000
00000010
00001000
00010000
,
00100000
00010000
00001000
00001100
00000000
00000000
00000001
00000010
00001000
00001001
00000000
00000000
,
00000000
00000000
00000000
00000000
;

//---------------dance-single - Edit----------------
#NOTEDATA:;
#CHARTNAME:;
#STEPSTYPE:dance-single;
#DESCRIPTION:Edit;
#CHARTSTYLE:;
#DIFFICULTY:Edit;
#METER:13;
#RADARVALUES:0.663349,0.664201,0.735791,0.000000,0.780535,467.000000,393.000000,74.000000,0.000000,0.000000,0.000000,0.000000,0.000000,0.000000,0.663349,0.664201,0.735791,0.000000,0.780535,467.000000,393.000000,74.000000,0.000000,0.000000,0.000000,0.000000,0.000000,0.000000;
#CREDIT:;
#NOTES:
// measure 0
0000
0000
0000
0000
,  // measure 1
0000
0000
0000
0000
,  // measure 2
0000
0000
0000
0000
,  // measure 3
0000
0000
0000
0000
,  // measure 4
0000
0000
0000
0000
,  // measure 5
1001
0000
0010
0101
0000
1100
0000
1010
0000
0010
0100
0000
0001
0000
0011
0000
,  // measure 6
1001
0000
0100
1000
0010
1000
0100
0011
0000
0001
0010
0000
0100
0000
1100
0000
,  // measure 7
1001
0000
0001
0010
1000
0100
0010
1100
0000
1000
0001
0000
0100
0010
0100
0000
,  // measure 8
1000
0001
0010
0100
1000
0010
0100
0010
0000
0100
0010
0000
0101
0000
1001
0000
,  // measure 9
0010
0000
0100
0100
0010
0000
0100
0010
0001
0010
0100
1000
0010
0000
0011
0000
,  // measure 10
0101
0000
0100
0001
1000
0000
0010
0100
1000
0000
1100
0000
1010
0000
0010
0100
,  // measure 11
0001
0000
0100
0010
1000
0000
0000
1001
0000
0011
0000
0010
0100
0000
0001
0100
,  // measure 12
1000
0000
0010
0001
1000
0000
0000
0101
0000
0001
0100
0010
0100
0000
0100
0001
,  // measure 13
0010
0000
1000
0100
0010
0000
0000
0011
0000
0001
0010
0000
0100
0010
1000
0100
,  // measure 14
0010
0000
0001
0100
0010
0000
0000
1100
0000
0000
1000
0100
0001
0000
0101
0000
,  // measure 15
0100
0000
0010
1000
0001
0000
0000
1001
0000
0110
0000
1000
0100
0010
0001
0010
,  // measure 16
0100
0000
1000
0010
0100
0000
0010
0001
0100
0000
1100
0000
1010
0000
0010
0001
,  // measure 17
0010
0000
0000
0000
1010
0000
0000
0000
0101
0000
0000
0000
0011
0000
0100
0010
,  // measure 18
1000
0000
0000
0000
0110
0000
0000
0000
1010
0000
0000
0000
0101
0000
0001
0010
,  // measure 19
1000
0000
0001
0100
0000
0001
0100
0000
0000
1100
0000
0000
1100
0000
1000
0100
,  // measure 20
0010
0000
0000
0000
0011
0000
0001
0010
0100
1000
0000
0000
1010
0000
1000
0100
,  // measure 21
0010
0000
0000
0000
0101
0000
0000
0000
1010
0000
0000
0000
1100
0000
1000
0001
,  // measure 22
0010
0000
0100
0010
0000
0100
0010
0000
1000
0000
0010
0000
0001
0000
0100
1000
,  // measure 23
0010
0000
0000
0000
0101
0000
0000
0000
1100
0000
0000
0000
1000
0001
0010
0100
,  // measure 24
1000
0000
0010
0100
0000
0010
0100
0000
1000
0100
0010
0001
0010
0100
1000
0010
,  // measure 25
0100
0001
0100
0001
1000
0010
1000
0010
1000
0100
1000
0100
0010
0001
0010
0001
,  // measure 26
0100
0010
0000
0101
0000
0010
0100
1000
0010
1000
0000
1010
0000
0010
0100
0001
,  // measure 27
1000
0000
1001
0000
0001
0100
0000
0101
0000
1000
0100
0000
1100
0000
0110
0000
,  // measure 28
0010
1000
0001
0100
0010
1000
0100
0010
0001
0010
0100
1000
0010
0100
0001
0010
,  // measure 29
1000
0000
1001
0000
0001
0000
0101
0000
0000
0000
1000
0100
0001
0000
1001
0000
,  // measure 30
0001
0010
0100
1000
0010
0001
0100
0010
1000
0100
0010
0001
0100
0000
0000
1001
,  // measure 31
0000
0000
1000
0100
0010
0001
0100
0010
1000
0001
0010
0100
1000
0000
0101
0000
,  // measure 32
1000
0010
0100
0001
0010
0001
0100
0010
1000
0100
0010
0001
0100
0000
0000
0000
,  // measure 33
0101
0000
1010
0000
1100
0000
1000
0001
0100
0000
0101
0000
0011
0000
0100
0010
,  // measure 34
1000
0000
1010
0000
1100
0000
1010
0000
1100
0000
1000
0100
0010
0001
0010
0100
,  // measure 35
0001
0000
0101
0000
0011
0000
0101
0000
0011
0000
0001
0010
0100
1000
0100
0010
,  // measure 36
1000
0000
1001
0000
0110
0000
1001
0000
0110
0000
1000
0010
0001
0100
1000
0010
,  // measure 37
0100
0000
0000
0001
0000
0000
1000
0000
0000
0100
0000
0000
0010
0000
0000
0000
0000
0000
0100
0000
0000
0010
0000
0000
1000
0000
0000
0000
0100
0000
0000
0000
0010
0000
0000
0000
0001
0000
0000
0000
0010
0000
0000
0000
0100
0000
0000
0000
,  // measure 38
1000
0000
0000
0101
0000
0000
0010
0001
0010
1100
1000
0010
,  // measure 39
0100
0000
0000
0000
0000
0000
0101
0000
0000
0000
0000
0000
0011
0000
0000
0000
0000
0000
0001
0000
0000
0010
0000
0000
0100
0000
0000
0000
1000
0000
0000
0000
0100
0000
0000
0000
0010
0000
0000
0000
0001
0000
0000
0000
1000
0000
0000
0000
,  // measure 40
0010
0000
0000
0000
0000
0000
0000
0000
0001
0000
0000
0000
0100
0000
0000
0000
0000
0000
0000
0000
1000
0000
0000
0000
0001
0000
0000
0000
0010
0000
0000
0000
0100
0000
0000
0000
1000
0000
0000
0100
0000
0000
0010
0000
0000
0001
0000
0000
,  // measure 41
1000
0000
0000
0010
0000
0000
0100
0000
0000
0001
0000
0000
0010
0000
0000
0000
0000
0000
1000
0000
0000
0010
0000
0000
0100
0000
0000
0000
0001
0000
0000
0000
0010
0000
0000
0000
1001
0000
0000
0000
0000
0000
0000
0000
0000
0000
0000
0000
;
