#TITLE:CLUB TROPICANA;
#SUBTITLE:;
#ARTIST:CYDNEY-D;
#TITLETRANSLIT:;
#SUBTITLETRANSLIT:;
#ARTISTTRANSLIT:;
#GENRE:;
#CREDIT:;
#BANNER:CLUB TROPICANA.png;
#BACKGROUND:CLUB TROPICANA-bg.png;
#LYRICSPATH:;
#CDTITLE:;
#MUSIC:CLUB TROPICANA.ogg;
#OFFSET:0.000000;
#SAMPLESTART:60.889000;
#SAMPLELENGTH:15.000000;
#SELECTABLE:YES;
#DISPLAYBPM:130.000000;
#BPMS:0.000000=130.072006
;
#STOPS:
;
#BGCHANGES:;
#KEYSOUNDS:;
#ATTACKS:;

//---------------dance-single - ----------------
#NOTES:
     dance-single:
     :
     Easy:
     3:
     0.176527,0.237789,0.000000,0.000000,0.000000,114.000000,114.000000,0.000000,0.000000,0.000000,0.000000,0.176527,0.237789,0.000000,0.000000,0.000000,114.000000,114.000000,0.000000,0.000000,0.000000,0.000000:
0000
0000
0000
0000
,
0000
0000
0000
0000
,
0000
0000
0000
0000
,
0000
0000
0000
0000
,
0000
0000
0000
0000
,
0010
0010
0000
0000
,
0010
0010
0000
0000
,
0010
0010
0000
0000
,
0001
0010
0000
0000
,
1000
0000
1000
0000
,
0001
0000
0001
0000
,
0100
0000
0100
0000
,
0100
0000
0010
0000
,
0010
0000
1000
0000
,
0010
0000
0001
0000
,
0100
0000
0100
0000
,
0001
0010
0001
0010
,
0000
0100
0000
0100
,
0000
1000
0001
1000
,
0001
0001
1000
1000
,
0001
1000
0001
1000
,
0000
0010
0000
0010
,
0000
1000
0001
1000
,
0001
0001
1000
1000
,
0001
1000
0001
1000
,
1000
0000
1000
0000
,
0001
0000
0001
0000
,
0100
0000
0100
0000
,
0100
0000
0010
0000
,
0010
0000
1000
0000
,
0010
0000
0001
0000
,
0100
0000
0100
0000
,
1000
0010
1000
0010
,
0000
0100
0000
0100
,
0000
1000
0001
1000
,
0001
0001
1000
1000
,
0001
1000
0001
1000
,
0000
0010
0000
0010
,
0000
1000
0001
1000
,
0001
0001
1000
1000
,
0001
1000
0001
1000
,
0010
0000
0100
0000
,
0010
0000
0100
0000
,
0010
0000
0100
0000
,
0010
0000
0100
0000
,
0001
0000
1000
0000
,
1000
0000
0001
0000
,
0100
0000
0010
0000
,
0001
0010
1000
0010
;

//---------------dance-single - ----------------
#NOTES:
     dance-single:
     :
     Medium:
     6:
     0.331376,0.396316,0.281824,0.000000,0.000000,214.000000,188.000000,26.000000,0.000000,0.000000,0.000000,0.331376,0.396316,0.281824,0.000000,0.000000,214.000000,188.000000,26.000000,0.000000,0.000000,0.000000:
0000
0000
0000
0000
,
0000
0000
0000
0000
,
0000
0000
0000
0000
,
0000
0000
0000
0000
,
0000
0000
0000
0000
,
1001
0100
1000
1001
,
0101
1000
1100
0001
,
0001
0101
1000
1100
,
1001
0100
0010
1001
,
0010
0000
0010
0100
,
1000
0000
0001
0100
,
0010
0000
0100
0000
0001
0010
0010
0000
,
0010
0000
0100
0000
1000
0010
0010
0000
,
0100
0000
0100
0010
,
0001
0000
1000
0100
,
0010
0000
0100
0000
1000
0010
0010
0000
,
0010
0000
0100
0000
0001
0010
0001
0000
,
0010
0000
0001
0000
0001
1000
1000
0000
,
0001
0100
0100
0100
,
0010
0000
0100
0000
0001
0100
0100
0000
,
0010
0000
0100
0000
1000
0100
0100
0000
,
0010
0000
1000
0000
1000
0001
0001
0000
,
1000
0100
0100
0100
,
0010
0000
0100
0000
1000
0100
0100
0000
,
0010
0100
0001
0011
,
0001
0010
0100
1000
,
1000
0010
0100
0001
,
1000
0001
0100
0010
,
0001
0000
1000
0000
0010
1000
0001
0000
,
1000
0010
0100
0001
,
0001
0010
0100
1000
,
0001
1000
0010
0100
,
1000
0000
0001
0000
0010
0001
1000
0000
,
0010
0000
0001
0000
0001
0001
1000
0000
,
0001
0100
0100
0100
,
0010
0000
0100
0000
0001
0100
0100
0000
,
0010
0000
0100
0000
1000
0100
0100
0000
,
0010
0000
1000
0000
1000
0001
0001
0000
,
1000
0100
0100
0100
,
0010
0000
0100
0000
1000
0100
0100
0000
,
0010
0100
0001
0011
,
1000
1100
0001
0101
,
0001
1001
0100
0110
,
1000
0001
1001
0100
,
0001
0101
1000
0100
,
0011
0100
0010
1010
,
0101
1000
1100
0001
,
0001
0101
0010
1100
,
1001
0101
1001
1001
;

//---------------dance-single - ----------------
#NOTES:
     dance-single:
     :
     Hard:
     10:
     0.441319,0.528421,0.368540,0.000000,0.000000,285.000000,251.000000,34.000000,0.000000,0.000000,0.000000,0.441319,0.528421,0.368540,0.000000,0.000000,285.000000,251.000000,34.000000,0.000000,0.000000,0.000000:
0000
0000
0000
0000
,
0000
0000
0000
0000
,
0000
0000
0000
0000
,
0000
0000
0000
0000
,
0000
0000
0000
0000
,
0001
0010
0001
1000
0001
1000
0001
0100
,
0010
1000
0010
0100
0001
1000
0001
0000
,
0010
0001
0010
0100
1000
0001
1000
0001
,
1000
0010
1000
0001
1000
0100
1000
0000
,
0010
0010
0100
0000
0101
0000
1010
0000
,
0100
0100
0010
0000
1100
0000
0101
0000
,
0010
0100
0001
1000
,
0010
0100
1000
0101
,
0100
0100
0010
0000
0101
0000
1010
0000
,
0010
0010
0100
0000
1010
0000
0101
0000
,
0010
0000
1000
0010
1000
0000
0010
0000
,
1000
0100
0010
0001
0010
0100
1000
1000
,
0001
0000
0001
0000
1000
1000
0001
1000
,
0001
0000
0010
0001
0010
0000
0001
0000
,
0011
0000
0010
0100
1000
0000
1000
0000
,
0010
0010
0100
0000
0001
0010
0100
0000
,
1000
0000
0001
0000
1000
0001
1000
0001
,
1000
0000
0010
1000
0010
0000
1000
0000
,
1100
0000
0010
0000
0001
0010
0100
0000
,
1000
0010
1000
0000
0001
0001
0001
0000
,
1000
0001
1000
0000
0110
0000
1001
0000
,
1000
0001
0010
0000
0001
0000
1000
0000
,
0001
0000
0011
0011
0011
0000
0011
0000
,
1000
0000
1100
1100
1100
0000
1100
0000
,
0001
1000
0001
0000
0110
0000
1001
0000
,
0001
1000
0010
0000
0001
0000
1000
0000
,
0100
0000
1100
0100
0001
0000
0101
0000
,
0101
0000
0100
0010
1000
0001
0100
0010
,
1000
0000
1000
0000
0100
1000
0001
1000
,
0001
0000
0010
0001
0010
0000
0001
0000
,
1001
0000
0010
0100
0001
0000
1000
0000
,
0010
0010
0100
0000
1000
0010
0001
0000
,
1000
0000
0001
0000
1000
0001
1000
0001
,
1000
0000
0010
1000
0010
0000
1000
0000
,
1100
0000
0010
0000
0001
0100
1000
0000
,
0100
0010
1000
0000
1000
1000
1000
0000
,
0001
0000
0010
0100
1000
0000
0110
0000
,
0001
0000
1000
1000
0100
0000
0110
0000
,
1000
0000
0001
0100
0010
0000
1001
0000
,
0100
0000
1100
0010
0100
0000
1001
0000
,
0001
0010
0001
1000
0001
1000
0001
0100
,
0010
1000
0010
0100
0001
1000
0001
0000
,
0010
0001
0010
0100
1000
0001
1000
0001
,
1000
0010
1000
0001
1000
0100
1001
0000
;

//---------------dance-double - ----------------
#NOTES:
     dance-double:
     :
     Easy:
     2:
     0.161043,0.211368,0.000000,0.000000,0.000000,104.000000,104.000000,0.000000,0.000000,0.000000,0.000000,0.161043,0.211368,0.000000,0.000000,0.000000,104.000000,104.000000,0.000000,0.000000,0.000000,0.000000:
00000000
00000000
00000000
00000000
,
00000000
00000000
00000000
00000000
,
00000000
00000000
00000000
00000000
,
00000000
00000000
00000000
00000000
,
00000000
00000000
00000000
00000000
,
00100000
00000000
00000000
00000000
,
00010000
00000000
00000000
00000000
,
00000010
00000000
00000000
00000000
,
00001000
00000000
00000000
00000000
,
00000001
00000100
00000000
00000100
,
00001000
00000100
00000000
00000100
,
00000000
00000000
00000000
00000000
,
00100000
00010000
00100000
00010000
,
10000000
01000000
00000000
01000000
,
00010000
01000000
00000000
01000000
,
00000000
00000000
00000000
00000000
,
00000010
00001000
00000010
00001000
,
00000010
00000010
00000000
00000000
,
00000000
00001000
00000001
00001000
,
00000000
00000010
00000000
00001000
,
00000000
00010000
00000000
01000000
,
00100000
00100000
00000000
00000000
,
00000000
10000000
00010000
10000000
,
00000000
00100000
00000000
00010000
,
00001000
00000000
00000100
00000000
,
00000001
00000100
00000000
00000100
,
00001000
00000100
00000000
00000100
,
00000000
00000000
00000000
00000000
,
00100000
00010000
00100000
00010000
,
10000000
01000000
00000000
01000000
,
00010000
01000000
00000000
01000000
,
00000000
00000000
00000000
00000000
,
00000010
00001000
00000010
00001000
,
00000010
00000010
00000000
00000000
,
00000000
00001000
00000001
00001000
,
00000000
00000010
00000000
00001000
,
00000000
00010000
00000000
01000000
,
00100000
00100000
00000000
00000000
,
00000000
10000000
00010000
10000000
,
00000000
00100000
00000000
00010000
,
00000000
00001000
00000000
00000000
,
00000001
00000001
00000100
00000000
,
00001000
00001000
00000100
00000000
,
00000100
00001000
00001000
00000000
,
00001000
00001000
00010000
00000000
,
00010000
00010000
00001000
00000000
,
00100000
00100000
00010000
00000000
,
01000000
01000000
00100000
00000000
,
10000000
10000000
10000000
01000000
;

//---------------dance-double - ----------------
#NOTES:
     dance-double:
     :
     Medium:
     3:
     0.280276,0.290632,0.119233,0.000000,0.000000,181.000000,170.000000,11.000000,0.000000,0.000000,0.000000,0.280276,0.290632,0.119233,0.000000,0.000000,181.000000,170.000000,11.000000,0.000000,0.000000,0.000000:
00000000
00000000
00000000
00000000
,
00000000
00000000
00000000
00000000
,
00000000
00000000
00000000
00000000
,
00000000
00000000
00000000
00000000
,
00000000
00000000
00000000
00000000
,
00001000
01000000
00010000
00000100
,
00001000
01000000
00010000
00000100
,
00001000
01000000
00010000
00000100
,
00001000
00010000
00011000
00011000
,
00000000
00000000
00000000
00000000
,
00001010
00000100
00000001
00000100
,
00001000
00010000
00100000
10000000
,
00100000
00010000
00100000
00010000
,
00110000
01000000
10000000
01000000
,
00110000
01000000
10000000
01000000
,
00010000
00001000
00000010
00000100
,
00000010
00001000
00000010
00001000
,
00000010
00000010
00000001
00000100
,
00000000
00001000
00000001
00001000
,
00000100
00000010
00000100
00001000
,
00100000
00010000
00100000
01000000
,
00100000
00100000
10000000
01000000
,
00000000
10000000
00010000
10000000
,
01000000
00100000
01000000
00010000
,
00001000
00000010
00000100
00000010
,
00001010
00000100
00000001
00000100
,
00001010
00000100
00000001
00000100
,
00001000
00010000
00100000
10000000
,
00100000
00010000
00100000
00010000
,
00110000
01000000
10000000
01000000
,
00110000
01000000
10000000
01000000
,
00010000
00001000
00000010
00000100
,
00000010
00001000
00000010
00001000
,
00000010
00000100
00000010
00000000
00000001
00000000
00000100
00000000
,
00000000
00001000
00000001
00001000
,
00000100
00000010
00000100
00001000
,
00100000
00010000
00100000
01000000
,
00100000
01000000
00100000
00000000
10000000
00000000
01000000
00000000
,
00000000
10000000
00010000
10000000
,
01000000
00100000
01000000
00010000
,
00001000
00000010
00000100
00000010
,
00000010
00010000
00001000
00100000
,
00100000
00001000
00010000
00000010
,
00000010
00010000
00001000
00100000
,
00100000
00001000
00010000
00000010
,
00001000
01000000
00010000
00000100
,
00001000
01000000
00010000
00000100
,
00001000
00010000
00001000
00010000
,
00100000
01000000
01010000
01001000
;

//---------------dance-solo - ----------------
#NOTES:
     dance-solo:
     :
     Easy:
     2:
     0.176527,0.237789,0.000000,0.000000,0.000000,114.000000,114.000000,0.000000,0.000000,0.000000,0.000000,0.176527,0.237789,0.000000,0.000000,0.000000,114.000000,114.000000,0.000000,0.000000,0.000000,0.000000:
000000
000000
000000
000000
,
000000
000000
000000
000000
,
000000
000000
000000
000000
,
000000
000000
000000
000000
,
000000
000000
000000
000000
,
000100
000100
000000
000000
,
000100
000100
000000
000000
,
000100
000100
000000
000000
,
000010
000010
000000
000000
,
100000
000000
100000
000000
,
000001
000000
000001
000000
,
001000
000000
001000
000000
,
001000
000000
000100
000000
,
000100
000000
100000
000000
,
000100
000000
000001
000000
,
001000
000000
001000
000000
,
000010
000010
000010
000010
,
000000
001000
000000
001000
,
000000
100000
000001
100000
,
000001
000001
100000
100000
,
000001
100000
000001
100000
,
000000
000100
000000
000100
,
000000
100000
000001
100000
,
000001
000001
100000
100000
,
000001
100000
000001
100000
,
100000
000000
100000
000000
,
000001
000000
000001
000000
,
001000
000000
001000
000000
,
001000
000000
000100
000000
,
000100
000000
100000
000000
,
000100
000000
000001
000000
,
001000
000000
001000
000000
,
010000
010000
010000
010000
,
000000
001000
000000
001000
,
000000
100000
000001
100000
,
000001
000001
100000
100000
,
000001
100000
000001
100000
,
000000
000100
000000
000100
,
000000
100000
000001
100000
,
000001
000001
100000
100000
,
000001
100000
000001
100000
,
000100
000000
001000
000000
,
000100
000000
001000
000000
,
000100
000000
001000
000000
,
000100
000000
001000
000000
,
000001
000000
100000
000000
,
100000
000000
000001
000000
,
001000
000000
000100
000000
,
000010
000010
010000
010000
;

//---------------dance-solo - ----------------
#NOTES:
     dance-solo:
     :
     Medium:
     4:
     0.334473,0.396316,0.303503,0.000000,0.000000,216.000000,188.000000,28.000000,0.000000,0.000000,0.000000,0.334473,0.396316,0.303503,0.000000,0.000000,216.000000,188.000000,28.000000,0.000000,0.000000,0.000000:
000000
000000
000000
000000
,
000000
000000
000000
000000
,
000000
000000
000000
000000
,
000000
000000
000000
000000
,
000000
000000
000000
000000
,
000101
000010
010000
100100
,
101000
001000
001001
000001
,
000001
001001
001000
101000
,
100100
010000
000010
100001
,
000100
000000
000100
001000
,
100000
000000
000001
001000
,
000100
000000
000010
000000
000001
000100
000100
000000
,
000100
000000
010000
000000
100000
000100
000100
000000
,
001000
000000
001000
000100
,
000001
000000
100000
001000
,
000100
000000
010000
000000
100000
000100
000100
000000
,
000100
000000
000010
000000
000001
000100
000001
000000
,
000100
000000
000001
000000
000001
100000
100000
000000
,
000001
001000
001000
001000
,
000100
000000
000010
000000
000001
001000
001000
000000
,
000100
000000
010000
000000
100000
001000
001000
000000
,
000100
000000
100000
000000
100000
000001
000001
000000
,
100000
001000
001000
001000
,
000100
000000
010000
000000
100000
001000
001000
000000
,
000100
000010
000001
000101
,
000001
000100
010000
100000
,
100000
000100
000010
000001
,
100000
000001
001000
000100
,
000001
000000
100000
000000
000100
100000
000001
000000
,
100000
000100
000010
000001
,
000001
000100
010000
100000
,
000001
100000
000100
001000
,
100000
000000
000001
000000
000100
000001
100000
000000
,
000100
000000
000001
000000
000001
000001
100000
000000
,
000001
001000
001000
001000
,
000100
000000
000010
000000
000001
001000
001000
000000
,
000100
000000
010000
000000
100000
001000
001000
000000
,
000100
000000
100000
000000
100000
000001
000001
000000
,
100000
001000
001000
001000
,
000100
000000
010000
000000
100000
001000
001000
000000
,
000100
000010
000001
000101
,
100000
000110
100000
000110
,
000001
010100
000001
010100
,
100000
000110
000110
100000
,
000001
010100
010100
000001
,
000101
000010
010000
100100
,
101000
001000
001001
000001
,
000001
001001
001000
101000
,
100100
000101
010010
100001
;

//---------------dance-solo - ----------------
#NOTES:
     dance-solo:
     :
     Hard:
     8:
     0.467643,0.528421,0.552810,0.000000,0.000000,302.000000,251.000000,51.000000,0.000000,0.000000,0.000000,0.467643,0.528421,0.552810,0.000000,0.000000,302.000000,251.000000,51.000000,0.000000,0.000000,0.000000:
000000
000000
000000
000000
,
000000
000000
000000
000000
,
000000
000000
000000
000000
,
000000
000000
000000
000000
,
000000
000000
000000
000000
,
000010
000100
000010
010000
000010
100000
000010
001000
,
000010
000001
000010
001000
000010
100000
000010
000000
,
010000
100000
010000
001000
010000
000001
010000
000010
,
010000
000100
010000
000001
010000
001000
110000
000000
,
000100
000100
001000
000000
000101
000000
100100
000000
,
001000
001000
000100
000000
101000
000000
001001
000000
,
000100
000010
000001
010000
,
000100
010000
100000
001001
,
001000
001000
000100
000000
001010
000000
010100
000000
,
000100
000100
001000
000000
000110
000000
011000
000000
,
000100
000000
010000
010000
100000
000000
000010
000000
,
000011
000010
000110
000100
010100
010000
110000
100000
,
000010
000000
010000
000000
000101
100000
000001
100000
,
000001
000000
000100
000010
000100
000000
000001
000000
,
001001
000000
000010
000010
000001
000000
010000
000000
,
000100
000100
010000
000000
100000
010000
000010
000000
,
010000
000000
000010
000000
100100
000001
100000
000001
,
100000
000000
000100
010000
000100
000000
100000
000000
,
101000
000000
010000
000000
100000
010000
000010
000000
,
000100
000010
000010
000000
000001
000001
001001
000000
,
010000
000010
010000
000000
010100
000000
000110
000000
,
010000
000010
010000
000000
110000
000000
000011
000000
,
000001
000000
000101
000001
001001
000000
000101
000000
,
100000
000000
100100
100000
101000
000000
100100
000000
,
000010
010000
000010
000000
000110
000000
010100
000000
,
000010
010000
000010
000000
000011
000000
110000
000000
,
001000
000000
101000
001000
001001
000000
101000
000000
,
101000
000000
001000
000001
000100
100000
001000
000001
,
000010
000000
010000
000000
000101
100000
000001
100000
,
000001
000000
000100
000010
000100
000000
000001
000000
,
001001
000000
000010
000010
000001
000000
010000
000000
,
000100
000100
010000
000000
100000
010000
000010
000000
,
010000
000000
000010
000000
100100
000001
100000
000001
,
100000
000000
000100
010000
000100
000000
100000
000000
,
101000
000000
010000
000000
100000
010000
000010
000000
,
000100
000010
000010
000000
000001
000001
001001
000000
,
100000
000000
000110
000100
100000
000000
000110
000000
,
000001
000000
010100
000100
000001
000000
010100
000000
,
100000
000000
000110
000100
001000
000000
000110
000000
,
000001
000000
010100
000100
001000
000000
010100
000000
,
000010
000100
000010
010000
000010
100000
000010
001000
,
000010
000001
000010
001000
000010
100000
000010
000000
,
010000
100000
010000
001000
010000
000001
010000
000010
,
010000
000100
010000
000001
010000
001000
100001
000000
;

//---------------dance-threepanel - ----------------
#NOTES:
     dance-threepanel:
     :
     Easy:
     2:
     0.176527,0.237789,0.000000,0.000000,0.000000,114.000000,114.000000,0.000000,0.000000,0.000000,0.000000,0.176527,0.237789,0.000000,0.000000,0.000000,114.000000,114.000000,0.000000,0.000000,0.000000,0.000000:
000
000
000
000
,
000
000
000
000
,
000
000
000
000
,
000
000
000
000
,
000
000
000
000
,
010
010
000
000
,
010
010
000
000
,
010
010
000
000
,
001
010
000
000
,
100
000
010
000
,
001
000
001
000
,
010
000
010
000
,
010
000
010
000
,
010
000
100
000
,
010
000
001
000
,
010
000
010
000
,
001
010
001
010
,
000
010
000
010
,
000
100
001
100
,
001
010
100
010
,
001
100
001
100
,
000
010
000
010
,
000
100
001
100
,
001
010
100
010
,
001
100
001
100
,
010
000
100
000
,
001
000
001
000
,
010
000
010
000
,
010
000
010
000
,
010
000
100
000
,
010
000
001
000
,
010
000
010
000
,
100
010
100
010
,
000
010
000
010
,
000
100
001
100
,
001
010
100
010
,
001
100
001
100
,
000
010
000
010
,
000
100
001
100
,
001
010
100
010
,
001
100
001
100
,
010
000
010
000
,
010
000
010
000
,
010
000
010
000
,
010
000
010
000
,
001
000
100
000
,
010
000
001
000
,
010
000
010
000
,
001
010
100
010
;

//---------------dance-threepanel - ----------------
#NOTES:
     dance-threepanel:
     :
     Medium:
     4:
     0.329828,0.396316,0.270985,0.000000,0.000000,213.000000,188.000000,25.000000,0.000000,0.000000,0.000000,0.329828,0.396316,0.270985,0.000000,0.000000,213.000000,188.000000,25.000000,0.000000,0.000000,0.000000:
000
000
000
000
,
000
000
000
000
,
000
000
000
000
,
000
000
000
000
,
000
000
000
000
,
101
010
100
101
,
011
100
110
001
,
001
011
100
110
,
101
010
010
101
,
010
000
010
010
,
100
000
001
010
,
010
000
010
000
001
010
010
000
,
010
000
010
000
100
010
010
000
,
010
000
010
010
,
001
000
100
010
,
010
000
010
000
100
010
010
000
,
010
000
010
000
001
010
001
000
,
010
000
001
000
010
100
010
000
,
001
010
010
010
,
010
000
010
000
001
010
010
000
,
010
000
010
000
100
010
010
000
,
010
000
100
000
010
001
010
000
,
100
010
010
010
,
010
000
010
000
100
010
010
000
,
010
010
001
011
,
001
010
010
100
,
010
010
010
001
,
100
001
010
010
,
001
000
100
000
010
100
001
000
,
100
010
010
001
,
010
010
010
100
,
001
100
010
010
,
100
000
001
000
010
001
100
000
,
010
000
001
000
010
001
100
000
,
001
010
010
010
,
010
000
010
000
001
010
010
000
,
010
000
010
000
100
010
010
000
,
010
000
100
000
010
001
010
000
,
100
010
010
010
,
010
000
010
000
100
010
010
000
,
010
010
001
011
,
100
110
001
011
,
001
101
010
010
,
100
001
101
010
,
001
011
100
010
,
011
010
010
110
,
011
100
110
001
,
001
011
010
110
,
101
011
101
101
;

//---------------dance-threepanel - ----------------
#NOTES:
     dance-threepanel:
     :
     Hard:
     6:
     0.435125,0.528421,0.325182,0.000000,0.000000,281.000000,251.000000,30.000000,0.000000,0.000000,0.000000,0.435125,0.528421,0.325182,0.000000,0.000000,281.000000,251.000000,30.000000,0.000000,0.000000,0.000000:
000
000
000
000
,
000
000
000
000
,
000
000
000
000
,
000
000
000
000
,
000
000
000
000
,
001
010
001
100
001
100
001
010
,
010
100
010
010
001
100
001
000
,
010
001
010
010
100
001
100
001
,
100
010
100
001
100
010
100
000
,
010
010
010
000
011
000
110
000
,
010
010
010
000
110
000
011
000
,
010
010
001
100
,
010
010
100
011
,
010
010
010
000
011
000
110
000
,
010
010
010
000
110
000
011
000
,
010
000
100
010
100
000
010
000
,
100
010
010
001
010
010
100
010
,
001
000
010
000
100
010
001
100
,
001
000
010
001
010
000
001
000
,
011
000
010
010
100
000
010
000
,
010
010
010
000
001
010
010
000
,
100
000
001
000
100
001
100
001
,
100
000
010
100
010
000
100
000
,
110
000
010
000
001
010
010
000
,
100
010
100
000
001
010
001
000
,
100
001
100
000
010
000
101
000
,
010
001
010
000
001
000
100
000
,
001
000
011
011
011
000
011
000
,
100
000
110
110
110
000
110
000
,
001
100
001
000
010
000
101
000
,
010
100
010
000
001
000
100
000
,
010
000
110
010
001
000
011
000
,
011
000
010
010
100
001
010
010
,
100
000
100
000
010
100
001
100
,
001
000
010
001
010
000
001
000
,
101
000
010
010
001
000
100
000
,
010
010
010
000
100
010
001
000
,
100
000
001
000
100
001
100
001
,
100
000
010
100
010
000
100
000
,
110
000
010
000
001
010
100
000
,
010
010
100
000
010
100
010
000
,
001
000
010
010
100
000
010
000
,
001
000
100
100
010
000
010
000
,
100
000
001
010
010
000
101
000
,
010
000
110
010
010
000
101
000
,
010
010
001
100
001
100
001
010
,
010
100
010
010
001
100
001
000
,
010
001
010
010
100
001
100
001
,
100
010
100
001
100
010
101
000
;

//---------------dance-single - ----------------
#NOTES:
     dance-single:
     :
     Beginner:
     1:
     0.069682,0.079263,0.000000,0.010839,0.000000,45.000000,45.000000,0.000000,1.000000,0.000000,0.000000,0.069682,0.079263,0.000000,0.010839,0.000000,45.000000,45.000000,0.000000,1.000000,0.000000,0.000000:
0000
0000
0000
0000
,
0000
0000
0000
0000
,
0000
0000
0000
0000
,
0000
0000
0000
0000
,
0000
0000
0000
0000
,
1000
0000
0000
0000
,
0001
0000
0000
0000
,
0010
0000
0000
0000
,
0001
0000
0000
0000
,
0100
0000
0000
0000
,
1000
0000
0000
0000
,
0010
0000
0000
0000
,
0001
0000
0000
0000
,
0010
0000
0000
0000
,
1000
0000
0000
0000
,
0100
0000
0000
0000
,
0001
0000
0000
0000
,
0010
0000
0000
0000
,
0001
0000
0000
0000
,
0100
0000
0000
0000
,
0010
0000
0000
0000
,
1000
0000
0000
0000
,
0001
0000
0000
0000
,
0010
0000
0000
0000
,
0100
0000
0000
0000
,
1000
0000
0000
0000
,
0100
0000
0000
0000
,
0001
0000
0000
0000
,
0010
0000
0000
0000
,
1000
0000
0000
0000
,
0010
0000
0000
0000
,
0001
0000
0000
0000
,
0100
0000
0000
0000
,
1000
0000
0000
0000
,
0010
0000
0000
0000
,
0100
0000
0000
0000
,
0001
0000
0000
0000
,
1000
0000
0000
0000
,
0010
0000
0000
0000
,
0001
0000
0000
0000
,
0010
0000
0000
0000
,
1000
0000
0000
0000
,
0100
0000
0000
0000
,
0010
0000
0000
0000
,
0001
0000
0000
0000
,
0010
0000
0000
0000
,
1000
0000
0000
0000
,
0010
0000
0000
0000
,
0010
0200
0000
0300
;

//---------------dance-single - ----------------
#NOTES:
     dance-single:
     :
     Challenge:
     14:
     0.675140,0.687828,0.379379,0.281824,0.791276,436.000000,401.000000,35.000000,26.000000,0.000000,0.000000,0.675140,0.687828,0.379379,0.281824,0.791276,436.000000,401.000000,35.000000,26.000000,0.000000,0.000000:
// measure 0
0000
0000
0000
0000
,  // measure 1
0000
0000
0000
0000
,  // measure 2
0000
0000
0000
0000
,  // measure 3
0000
0000
0000
0000
,  // measure 4
0000
0000
0000
0000
,  // measure 5
1000
0000
0000
1000
0001
0000
1000
0000
0100
1000
0100
0000
1000
0000
0000
1000
,  // measure 6
0001
0000
0000
0001
0100
0000
0001
0000
0010
0001
0010
0001
0000
0001
0010
0001
,  // measure 7
0010
0000
0000
0010
0001
0000
0010
0000
0001
0010
0100
0000
1000
0000
0000
1000
,  // measure 8
0010
0000
0000
0100
0001
0000
1000
0100
0020
0000
0000
0000
0130
0000
0000
0000
,  // measure 9
0100
0000
0010
0001
0000
0001
0000
0001
0010
0000
0100
0000
1000
0000
0001
0000
,  // measure 10
0010
0000
1000
0100
0000
0100
0000
0100
0010
0000
0100
0000
2000
0000
3000
0000
,  // measure 11
1100
0000
1000
0000
1010
0000
1000
0000
0010
0000
1000
0000
0001
0000
1000
0100
,  // measure 12
0010
0001
0010
0001
0010
0001
0010
0001
0010
0000
0001
0010
0002
0000
0000
0000
,  // measure 13
1003
0000
0010
0100
0000
0100
0000
0100
0001
0000
1000
0000
0010
0000
1000
0000
,  // measure 14
0100
0000
0010
0001
0000
0001
0000
0001
1000
0001
0000
0001
1000
0100
1000
0100
,  // measure 15
2000
0000
0000
0000
0100
0000
0000
0000
3010
0000
1000
0100
1000
0000
0001
0000
,  // measure 16
0020
0000
0000
0000
0031
0010
0001
0000
0010
0100
0010
0000
0100
1000
0001
0010
,  // measure 17
0200
0000
1300
0100
1000
0001
0000
0100
0000
0010
0000
1000
0000
0100
0000
0010
,  // measure 18
0002
0010
1000
0103
,  // measure 19
0101
0000
0001
1000
0100
1000
0100
0000
1100
0000
1001
0000
1010
0000
0000
0000
,  // measure 20
1000
0100
1000
0000
0010
0100
0010
0000
0001
0000
0001
0010
0000
0010
0100
0000
,  // measure 21
2000
0000
3100
1000
0100
1000
0000
0010
0000
0100
0000
0001
0000
0010
0000
0001
,  // measure 22
2000
0100
0001
3010
,  // measure 23
1001
0000
1000
0100
0010
0001
1000
0000
1001
0000
0110
0000
1001
0000
0000
0000
,  // measure 24
1200
0310
0120
0031
0012
0103
2100
3010
,  // measure 25
1000
0100
0000
1000
0000
0100
0000
0010
0000
0001
0010
0000
0002
0000
1003
0000
,  // measure 26
0001
0100
0000
0010
0000
1000
0000
0100
1000
0000
0100
0000
1000
0100
1000
0100
,  // measure 27
1000
0000
0001
1000
0100
0000
1000
0010
0000
0000
0100
0001
0100
0000
0010
0001
,  // measure 28
1000
0100
1000
0100
1000
0100
1000
0100
1000
0000
0010
0000
0200
0000
0000
0000
,  // measure 29
0301
0000
0001
0010
0001
0000
1000
0100
0000
0010
0000
0001
0010
0000
0100
0000
,  // measure 30
1000
0010
1000
0000
0010
0000
0001
0010
0000
0001
0000
0010
0100
0000
1000
0000
,  // measure 31
0200
0000
0000
0000
1300
0000
0000
1000
0010
0000
0001
1000
0000
0001
0000
1000
,  // measure 32
0001
1000
0000
0000
0001
0100
0000
0000
0010
0100
0000
1000
0100
0010
0001
1000
,  // measure 33
0020
0000
0130
0001
0010
0001
0000
0001
0000
1000
0000
0100
0000
0010
0000
0001
,  // measure 34
0200
0001
0010
1300
,  // measure 35
1100
0000
1000
0100
0010
0100
1000
0000
1100
0000
0101
0000
0011
0000
0000
0000
,  // measure 36
1000
0100
0010
0000
0010
0100
1000
0000
1001
0000
0001
0100
0000
0010
1000
0000
,  // measure 37
0020
0000
0130
0001
1000
0100
0000
0010
0000
0001
0000
0010
0000
1000
0000
0001
,  // measure 38
0020
1000
0100
0031
,  // measure 39
0011
0000
0001
0100
0010
0100
0001
0000
0011
0000
0110
0000
1100
0000
0000
0000
,  // measure 40
1000
0001
0100
0000
0001
1000
0100
0000
2010
0000
3001
0000
0012
0000
1003
0000
,  // measure 41
0100
0000
0000
0100
1000
0000
0001
0000
1000
0100
0010
0000
0011
0000
0000
0000
,  // measure 42
0101
0000
0000
0100
0001
0000
1000
0000
0010
1000
0010
0000
1010
0000
1000
0100
,  // measure 43
1000
0000
0000
1000
0010
0000
0100
0000
0001
0010
0001
0000
0012
0000
0103
0000
,  // measure 44
0101
0000
0000
0001
1000
0000
0100
0000
1000
0100
1000
0000
1000
0001
1000
0100
,  // measure 45
1000
0000
0000
1000
0010
0000
0100
0000
0001
0010
0100
0000
2100
0000
3010
0000
,  // measure 46
1010
0000
0000
1000
0001
0000
0100
0000
0010
1000
0010
0000
0110
0000
0100
0010
,  // measure 47
0100
0000
0000
0100
0001
0000
1000
0000
0100
0010
0001
0000
0012
0000
1003
0000
,  // measure 48
0101
0000
0000
0001
0200
0000
0000
0301
0010
0001
0000
0010
0100
0010
0000
0000
;
