#TITLE:Closer;
#SUBTITLE:;
#ARTIST:Ne-Yo;
#TITLETRANSLIT:;
#SUBTITLETRANSLIT:;
#ARTISTTRANSLIT:;
#GENRE:;
#CREDIT:;
#BANNER:Closer.png;
#BACKGROUND:Closer-bg.png;
#LYRICSPATH:;
#CDTITLE:;
#MUSIC:Closer.ogg;
#OFFSET:0.000000;
#SAMPLESTART:62.143002;
#SAMPLELENGTH:15.000000;
#SELECTABLE:YES;
#BPMS:0.000000=125.999992
;
#STOPS:
;
#BGCHANGES:0.000=Closer.avi=1.000=0=0=0=StretchNoLoop====,
99999=-nosongbg-=1.000=0=0=0 // don't automatically add -songbackground-
;
#KEYSOUNDS:;
#ATTACKS:;

//---------------dance-single - ----------------
#NOTES:
     dance-single:
     :
     Beginner:
     2:
     0.105504,0.198290,0.020234,0.000000,0.000000,73.000000,71.000000,2.000000,0.000000,0.000000,0.000000,0.105504,0.198290,0.020234,0.000000,0.000000,73.000000,71.000000,2.000000,0.000000,0.000000,0.000000:
0000
0000
0000
0000
,
0000
0000
0000
0000
,
0000
0000
0000
0000
,
0000
0000
0000
0000
,
0000
0000
0000
0000
,
1000
0000
0000
0000
,
0001
0000
0000
0000
,
1000
0000
0000
0000
,
0001
0000
0000
0000
,
0000
0000
0000
0000
,
0001
0000
0010
0000
,
0000
0000
0000
0000
,
1000
0000
0010
0000
,
0000
0000
0000
0000
,
0001
0000
0100
0000
,
0000
0000
0000
0000
,
1000
0000
0010
0000
,
1000
0000
0000
0000
,
0010
0010
0000
0000
,
0001
0000
0000
0000
,
0010
0010
0000
0000
,
1000
0000
0000
0000
,
0010
0010
0000
0000
,
0001
0000
0000
0000
,
0100
0100
0000
0000
,
0100
0000
0000
0000
,
0000
0000
0000
0000
,
0100
0000
0000
0000
,
0000
0000
0000
0000
,
0001
0000
0000
0000
,
1000
0000
0000
0000
,
0001
0000
0000
0000
,
1001
0000
0000
0000
,
1000
0000
1000
0000
,
1000
0000
1000
0000
,
0001
0000
0001
0000
,
0001
0000
0001
0000
,
0010
0010
0010
0000
,
1000
1000
1000
0000
,
0010
0010
0010
0000
,
1000
1000
1000
0000
,
0001
0000
0001
0000
,
0001
0000
0001
0000
,
1000
0000
1000
0000
,
1000
0000
1000
0000
,
0100
0100
0100
0000
,
0001
0001
0001
0000
,
0010
0010
0010
0000
,
0001
0001
0001
0000
,
1001
0000
0000
0000
;

//---------------dance-single - ----------------
#NOTES:
     dance-single:
     :
     Easy:
     4:
     0.184994,0.247863,0.101168,0.040467,0.000000,128.000000,118.000000,10.000000,4.000000,0.000000,0.000000,0.184994,0.247863,0.101168,0.040467,0.000000,128.000000,118.000000,10.000000,4.000000,0.000000,0.000000:
0000
0000
0000
0000
,
0000
0000
0000
0000
,
0000
0000
0000
0000
,
0000
0000
0000
0000
,
0000
0000
0000
0000
,
1000
0000
0100
0000
,
0001
0000
0100
0000
,
1000
0000
0001
0000
,
1000
0100
0010
0001
,
0000
0000
0000
0000
,
0001
0010
0100
0001
,
0000
0000
0000
0000
,
1000
0100
0010
1000
,
0000
0000
0000
0000
,
0001
0010
0001
0100
,
0000
0000
0000
0000
,
1000
0100
1000
0010
,
1000
0000
1000
0000
,
1000
1000
0100
0100
,
0001
0000
0001
0000
,
0001
0001
0100
0100
,
0001
0000
0100
0000
,
0001
0100
0010
1000
,
1000
0000
0100
0000
,
1000
0100
0010
0001
,
0200
0000
0000
0300
,
0000
0010
0000
0010
,
0200
0000
0000
0300
,
0010
0000
0010
0000
,
0001
0000
1000
0000
,
0001
0000
1000
0000
,
0001
0001
1000
1000
,
2002
3003
0000
0000
,
1000
0100
1000
0100
,
1000
0100
1000
0000
,
0001
0010
0001
0010
,
0001
0010
0001
0000
,
0110
0100
0100
0000
,
1001
1000
1000
0000
,
0110
0010
0010
0000
,
1001
1000
1000
0000
,
0001
0100
0001
0100
,
0001
0100
0001
0000
,
1000
0010
1000
0010
,
1000
0010
1000
0000
,
0110
0100
0100
0000
,
1001
0001
0001
0000
,
0110
0010
0010
0000
,
1001
0001
0001
0000
,
1001
0000
0000
0000
;

//---------------dance-single - ----------------
#NOTES:
     dance-single:
     :
     Medium:
     6:
     0.239914,0.337840,0.121402,0.040467,0.000000,166.000000,154.000000,12.000000,4.000000,0.000000,0.000000,0.239914,0.337840,0.121402,0.040467,0.000000,166.000000,154.000000,12.000000,4.000000,0.000000,0.000000:
0000
0000
0000
0000
,
0000
0000
0000
0000
,
0000
0000
0000
0000
,
0000
0000
0000
0000
,
0000
0000
0000
0000
,
1000
0000
1000
0100
,
0001
0000
0001
0100
,
1000
1000
0001
0001
,
1000
0100
0010
0001
,
1000
0000
0000
0000
,
1000
0100
0001
0010
,
0001
0000
0000
0000
,
0001
0100
1000
0010
,
0100
0000
0000
0000
,
0100
0010
1000
0001
,
0010
0000
0000
0000
,
0010
1000
0100
0100
,
0001
0000
1000
0000
,
0001
0000
0001
0000
0001
0100
1000
0000
,
1000
0000
0001
0000
,
1000
0000
1000
0000
1000
0100
0001
0000
,
0001
0000
0100
0000
,
0001
0000
1000
0010
0100
0000
0010
0000
,
1000
0000
0100
0000
,
1000
0000
0001
0010
0100
0000
0010
0000
,
0020
0000
0000
0030
,
0001
0001
0100
0100
,
0020
0000
0000
0030
,
1000
1000
0100
0100
,
1000
1000
0100
0000
,
0100
0100
0001
0000
,
1000
0100
0010
0001
,
1001
0000
0000
0000
0000
1000
0100
1000
,
0000
0100
0000
0100
0000
0001
0100
0001
,
0000
0010
0000
0010
0000
1000
0100
1000
,
0000
0100
0000
0010
0000
0001
0000
1000
,
0000
0100
0000
0010
0000
0110
0000
1001
,
0000
0001
0000
0100
0000
0010
0000
0110
,
0000
1000
0000
0001
0000
0100
0000
0101
,
0000
0001
0000
0100
0000
0010
0000
0110
,
0000
0000
0000
0000
0000
0001
0100
0001
,
0000
0100
0000
0100
0000
1000
0100
1000
,
0000
0010
0000
0010
0000
0001
0100
0001
,
0000
0100
0000
0010
0000
1000
0000
0001
,
0000
0100
0000
0010
0000
0110
0000
1001
,
0000
1000
0000
0100
0000
0010
0000
0110
,
0000
0001
0000
1000
0000
0100
0000
1100
,
0000
1000
0000
0100
0000
0010
0000
0110
,
0000
0001
0000
0100
0000
0010
0100
2002
,
0000
0000
0000
0000
,
0000
0000
0000
0000
,
0000
0000
0000
3003
0000
0000
0000
0000
;

//---------------dance-single - ----------------
#NOTES:
     dance-single:
     :
     Hard:
     7:
     0.304951,0.441790,0.232688,0.060701,0.000000,211.000000,188.000000,23.000000,6.000000,0.000000,0.000000,0.304951,0.441790,0.232688,0.060701,0.000000,211.000000,188.000000,23.000000,6.000000,0.000000,0.000000:
0000
0000
0000
0000
,
0000
0000
0000
0000
,
0000
0000
0000
0000
,
0000
0000
0000
0000
,
0000
0000
0000
0000
,
1000
0100
0100
1000
,
0001
0100
0100
0001
,
1000
0100
0001
0100
,
1000
0000
0100
0000
0001
1000
0100
0010
,
0001
0000
0100
0000
,
0001
0000
0100
0000
0001
0100
0010
0000
,
1000
0000
0100
0000
,
1000
0000
0100
0000
1000
0001
0100
0000
,
0010
0000
1000
0000
,
0001
0000
0100
1000
0010
0000
0100
0001
,
0010
0000
0001
0000
,
1000
0000
0100
0001
0010
0100
0010
1000
,
0010
0001
0010
0000
,
0001
0000
0001
0010
0100
0000
0100
0000
,
0100
1000
0100
0000
,
1000
0000
1000
0010
0100
0000
0100
0000
,
0001
0001
0100
0100
,
0001
0000
0001
0100
1000
0000
0100
0000
,
1000
1000
0100
0100
,
1000
0000
1000
0100
0001
0000
0100
0000
,
0200
0000
0000
0300
,
0001
0010
0100
0000
0100
0010
0001
0000
,
0200
0000
0000
0300
,
1000
0010
0100
0000
0100
0010
1000
0000
,
0001
0001
1000
0000
,
0100
0100
0001
0000
,
0010
1001
0100
0110
,
2002
0000
3003
0000
0000
1000
1000
1000
,
0000
0100
0000
0010
0000
0001
0010
0001
,
0000
0001
0010
0100
0000
1000
1000
1000
,
0000
0010
0000
0100
0000
0001
0000
0100
,
0000
0010
0100
1000
0000
0110
0000
1001
,
0000
0001
0010
0001
0000
0011
0000
1100
,
0000
1000
0010
0100
0000
0110
0000
0011
,
0000
0010
0100
1000
0000
0110
0000
1001
,
0000
0000
0000
0000
0000
0001
0001
0001
,
0000
0100
0000
0010
0000
1000
0010
1000
,
0000
1000
0010
0100
0000
0001
0001
0001
,
0000
0010
0000
0100
0000
1000
0000
0100
,
0000
0010
0100
0001
0000
0110
0000
1001
,
0000
1000
0010
1000
0000
1010
0000
0101
,
0000
0001
0010
0100
0000
0110
0000
1010
,
0000
0010
0100
0001
0000
0110
0000
1001
,
0000
1010
0000
0110
0000
0101
0000
2002
,
0000
0000
0000
0000
,
0000
0000
0000
0000
,
0000
0000
0000
3003
0000
0000
0000
0000
;

//---------------dance-double - ----------------
#NOTES:
     dance-double:
     :
     Easy:
     4:
     0.179213,0.198290,0.020234,0.080935,0.000000,124.000000,122.000000,2.000000,8.000000,0.000000,0.000000,0.179213,0.198290,0.020234,0.080935,0.000000,124.000000,122.000000,2.000000,8.000000,0.000000,0.000000:
00000000
00000000
00000000
00000000
,
00000000
00000000
00000000
00000000
,
00000000
00000000
00000000
00000000
,
00000000
00000000
00000000
00000000
,
00000000
00000000
00000000
00000000
,
10000000
00000000
00100000
00000000
,
01000000
00000000
00010000
00000000
,
00001000
00000000
00000100
00000000
,
00000010
00000001
00000100
00001000
,
00020000
00000000
00000000
00030000
,
00010000
00001000
01000000
00010000
,
20000000
00000000
00000000
30000000
,
00010000
01000000
00001000
00010000
,
00002000
00000000
00000000
00003000
,
00010000
00000100
00001000
00000001
,
00000200
00000000
00000000
00000300
,
00000010
00001000
00000100
00010000
,
00001000
00000000
00001000
00000000
,
00010000
00010000
00001000
01000000
,
00010000
00000000
00010000
00000000
,
10000000
10000000
01000000
00010000
,
00001000
00000000
00001000
00000000
,
00010000
00001000
00000100
00000001
,
00000100
00000000
00000100
00000000
,
00000010
00000100
00001000
00010000
,
00002000
00000000
00000000
00003000
,
00010000
00000000
00010000
00000000
,
00020000
00000000
00000000
00030000
,
00001000
00000000
00001000
00000000
,
00010000
00000000
01000000
00000000
,
10000000
00000000
00010000
00000000
,
01000000
01000000
00010000
00010000
,
00022000
00033000
00000000
00000000
,
00001000
00010000
01000000
00010000
,
00001000
00000100
00001000
00000000
,
00010000
00001000
00000100
00001000
,
00010000
01000000
00010000
00000000
,
00001000
00010000
00010000
00000000
,
01000000
10000000
10000000
00000000
,
00100000
01000000
01000000
00000000
,
00001000
00010000
00010000
00000000
,
00010000
00001000
00000100
00001000
,
00010000
01000000
00010000
00000000
,
00001000
00010000
01000000
00010000
,
00001000
00000100
00001000
00000000
,
00010000
00001000
00001000
00000000
,
00000100
00000001
00000001
00000000
,
00000010
00000100
00000100
00000000
,
00010000
00001000
00001000
00000000
,
00011000
00000000
00000000
00000000
;

//---------------dance-double - ----------------
#NOTES:
     dance-double:
     :
     Medium:
     6:
     0.245695,0.337840,0.131519,0.091052,0.000000,170.000000,157.000000,13.000000,9.000000,0.000000,0.000000,0.245695,0.337840,0.131519,0.091052,0.000000,170.000000,157.000000,13.000000,9.000000,0.000000,0.000000:
00000000
00000000
00000000
00000000
,
00000000
00000000
00000000
00000000
,
00000000
00000000
00000000
00000000
,
00000000
00000000
00000000
00000000
,
00000000
00000000
00000000
00000000
,
00010000
00000000
00001000
00010000
,
00001000
00000000
00010000
00001000
,
00010000
00000100
00000010
00000001
,
00000100
00001000
00010000
01000000
,
20020000
00000000
00000000
30030000
,
10000000
01000000
00010000
00001000
,
00000020
00000000
00000000
00000030
,
00000100
00001000
00010000
00100000
,
02000000
00000000
00000000
03000000
,
10000000
00100000
00010000
00001000
,
00000200
00000000
00000000
00000300
,
00000010
00000100
00001000
00010000
,
01000000
00000000
10000000
00000000
,
00010000
00000000
00100000
00000000
00010000
00001000
00000100
00000000
,
00000010
00000000
00000001
00000000
,
00000100
00000000
00001000
00000000
00010000
00001000
00100000
00000000
,
00010000
00000000
01000000
00000000
,
00010000
00000000
00100000
00010000
00001000
00000000
00000100
00000000
,
00000001
00000000
00000100
00000000
,
00001000
00000000
00000100
00010000
00001000
00000000
00100000
00000000
,
02000000
00000000
00000000
03000000
,
00010000
01000000
00001000
00010000
,
00000200
00000000
00000000
00000300
,
00000010
00000001
00000100
00001000
,
00010000
00001000
00010000
00000000
00100000
00000000
00000000
00000000
,
10000000
01000000
10000000
00000000
01000000
00000000
00000000
00000000
,
00100000
00000000
00010000
00000000
00001000
00000000
00000100
00000010
,
00001001
00000000
00000000
00000000
00000000
00000001
00000010
00000100
,
00000000
00000100
00000000
00001000
00000000
00010000
01000000
00010000
,
00000000
00100000
00000000
00100000
00000000
01000000
00100000
00010000
,
00000000
00100000
00000000
00010000
00000000
00001000
00000000
00000100
,
00000000
00000001
00000000
00000100
00000000
00001100
00000000
00011000
,
00000000
00010000
00000000
00100000
00000000
10000000
00000000
00110000
,
00000000
00010000
00000000
00001000
00000000
00000100
00000000
00000101
,
00000000
00000010
00000000
00001000
00000000
00010000
00000000
10010000
,
00000000
00000000
00000000
00000000
00000000
10000000
00100000
01000000
,
00000000
01000000
00000000
00010000
00000000
00001000
00000100
00001000
,
00000000
00000010
00000000
00000010
00000000
00000100
00000010
00001000
,
00000000
00000010
00000000
00001000
00000000
00010000
00000000
01000000
,
00000000
10000000
00000000
01000000
00000000
01010000
00000000
00011000
,
00000000
00001000
00000000
00000010
00000000
00000001
00000000
00001010
,
00000000
00001000
00000000
00010000
00000000
01000000
00000000
11000000
,
00000000
00100000
00000000
00010000
00000000
00001000
00000000
00001001
,
00000000
00000010
00000000
00000100
00000000
00001000
00010000
00022000
,
00000000
00000000
00000000
00000000
,
00000000
00000000
00000000
00000000
,
00000000
00000000
00000000
00033000
00000000
00000000
00000000
00000000
;

//---------------dance-double - ----------------
#NOTES:
     dance-double:
     :
     Hard:
     8:
     0.333856,0.441790,0.333856,0.141636,0.000000,231.000000,198.000000,33.000000,14.000000,0.000000,0.000000,0.333856,0.441790,0.333856,0.141636,0.000000,231.000000,198.000000,33.000000,14.000000,0.000000,0.000000:
00000000
00000000
00000000
00000000
,
00000000
00000000
00000000
00000000
,
00000000
00000000
00000000
00000000
,
00000000
00000000
00000000
00000000
,
00000000
00000000
00000000
00000000
,
00001000
00010000
01000000
00010000
,
00010000
00001000
00000100
00001000
,
00001000
00010000
00001000
00010000
,
00001000
00010000
01000000
00010000
00001000
00000100
00001000
00010000
,
00002000
00000000
00000000
00003000
02000000
00000000
00000000
03000000
,
00010000
00000000
10000000
00000000
01000000
10000000
00010000
00000000
,
00200000
00000000
00000000
00300000
00002000
00000000
00000000
00003000
,
00000010
00000000
00000100
00000000
00001000
00000001
00000100
00000000
,
00000020
00000000
00000000
00000030
00020000
00000000
00000000
00030000
,
01000000
00000000
00100000
00010000
10000000
00000000
10000000
00010000
,
02000000
00000000
00000000
03000000
00002000
00000000
00000000
00003000
,
00000010
00000000
00000100
00000010
00000001
00001000
00000001
00000000
,
00000100
00000010
00001000
00010000
,
10000000
00000000
00010000
00000000
00100000
00010000
00001000
00000000
,
00000010
00000100
00001000
00010000
,
01000000
00000000
10000000
00000000
01000000
00010000
00001000
00000010
,
00000001
00000100
00001000
00010000
,
00100000
00000000
00100000
10000000
01000000
00000000
10000000
00100000
,
10000000
01000000
00010000
00001000
,
00000010
00000000
00000100
00001000
00000010
00000000
00000010
00000100
,
00002000
00010000
00000000
00013000
,
00000000
00000000
01000000
00000000
00000000
10000000
00010000
00000000
,
02000000
00010000
00000000
03010000
,
00000000
00000000
00001000
00000000
00000000
00000001
00000100
00000000
,
00000020
00000000
00010000
00000000
00000030
00001000
01000000
00000000
,
00002000
00000000
00100000
00000000
00003000
01000000
10000000
00000000
,
00100000
01000000
00010000
00001000
00000010
00000100
00000001
00001000
,
00001001
00000000
00000000
00000000
00000000
00000001
00000010
00001100
,
00000000
00011000
00000000
01010000
00000000
00100000
10000000
00100000
,
00000000
00010000
00100000
01000000
00000000
10000000
00100000
00110000
,
00000000
00011000
00000000
00001010
00000000
00000001
00000000
00000010
,
00000000
00000001
00001000
00000100
00000000
00001100
00000000
00011000
,
00000000
00001000
00100000
00010000
00000000
00110000
00000000
10010000
,
00000000
10000000
00100000
01000000
00000000
01100000
00000000
01010000
,
00000000
10000000
00010000
00100000
00000000
00110000
00000000
00011000
,
00000000
00000000
00000000
00000000
00000000
10000000
00100000
01010000
,
00000000
00011000
00000000
00001100
00000000
00000010
00000001
00000010
,
00000000
00001000
00000010
00000100
00000000
00000001
00000010
00001010
,
00000000
00011000
00000000
00110000
00000000
10000000
00000000
00100000
,
00000000
10000000
00010000
01000000
00000000
01010000
00000000
00011000
,
00000000
00010000
00000010
00001000
00000000
00001010
00000000
00001001
,
00000000
00000001
00000010
00000100
00000000
00000110
00000000
00001100
,
00000000
00001000
00000100
00010000
00000000
00011000
00000000
01010000
,
00000000
10100000
00000000
00110000
00000000
00011000
00000000
00020200
,
00000000
00000000
00000000
00000000
,
00000000
00000000
00000000
00000000
,
00000000
00000000
00000000
00030300
00000000
00000000
00000000
00000000
;

//---------------dance-double - ----------------
#NOTES:
     dance-double:
     :
     Challenge:
     4:
     0.163315,0.207901,0.020234,0.101168,0.000000,113.000000,111.000000,2.000000,10.000000,152.000000,0.000000,0.163315,0.207901,0.020234,0.101168,0.000000,113.000000,111.000000,2.000000,10.000000,152.000000,0.000000:
// measure 0
00000000
00000000
00000000
00000000
,  // measure 1
00000000
00000000
00000000
00000000
,  // measure 2
00000000
00000000
00000000
00000000
,  // measure 3
00000000
00000000
00000000
00000000
,  // measure 4
00000000
00000000
00000000
00000000
,  // measure 5
10000000
00000000
00100000
00000000
,  // measure 6
01000000
00000000
00010000
00000000
,  // measure 7
00001000
00000000
00000100
00000000
,  // measure 8
00000010
00000001
00000100
MMMMMMMM
,  // measure 9
00020000
00000000
00000000
00030000
,  // measure 10
00010000
00001000
01000000
MMMMMMMM
,  // measure 11
20000000
00000000
00000000
30000000
,  // measure 12
00010000
01000000
00001000
MMMMMMMM
,  // measure 13
00002000
00000000
00000000
00003000
,  // measure 14
00010000
00000100
00001000
MMMMMMMM
,  // measure 15
00000200
00000000
00000000
00000300
,  // measure 16
00000010
00001000
00000100
MMMMMMMM
,  // measure 17
00001000
00000000
00001000
00000000
,  // measure 18
00010000
00010000
00001000
MMMMMMMM
,  // measure 19
00010000
00000000
00010000
00000000
,  // measure 20
10000000
10000000
01000000
MMMMMMMM
,  // measure 21
00001000
00000000
00001000
00000000
,  // measure 22
00010000
00001000
00000100
MMMMMMMM
,  // measure 23
00000100
00000000
00000100
00000000
,  // measure 24
00000010
00000100
00001000
MMMMMMMM
,  // measure 25
00002000
00000000
00000000
00003000
,  // measure 26
00010000
00000000
00010000
00000000
,  // measure 27
00020000
00000000
00000000
00030000
,  // measure 28
00001000
00000000
00001000
00000000
,  // measure 29
00010000
00000000
MMMMMMMM
00000000
,  // measure 30
10000000
00000000
MMMMMMMM
00000000
,  // measure 31
01000000
01000000
00010000
00010000
,  // measure 32
00022000
00033000
00000000
00000000
,  // measure 33
00001000
00010000
01000000
00010000
,  // measure 34
00001000
00000100
00001000
MMMMMMMM
,  // measure 35
00010000
00001000
00000100
00001000
,  // measure 36
00010000
01000000
00010000
MMMMMMMM
,  // measure 37
00001000
00010000
00010000
00000000
,  // measure 38
01000000
10000000
10000000
MMMMMMMM
,  // measure 39
00100000
01000000
01000000
00000000
,  // measure 40
00001000
00010000
00010000
MMMMMMMM
,  // measure 41
00010000
00001000
00000100
00001000
,  // measure 42
00010000
01000000
00010000
MMMMMMMM
,  // measure 43
00001000
00010000
01000000
00010000
,  // measure 44
00001000
00000100
00001000
MMMMMMMM
,  // measure 45
00010000
00001000
00001000
00000000
,  // measure 46
00000100
00000001
00000001
MMMMMMMM
,  // measure 47
00000010
00000100
00000100
00000000
,  // measure 48
00010000
00001000
00001000
MMMMMMMM
,  // measure 49
00022000
00000000
00000000
00000000
,  // measure 50
00000000
00000000
00000000
00000000
,  // measure 51
00000000
00000000
00000000
00033000
00000000
00000000
00000000
00000000
;

//---------------dance-single - ----------------
#NOTES:
     dance-single:
     :
     Challenge:
     4:
     0.169096,0.259877,0.101168,0.060701,0.000000,117.000000,107.000000,10.000000,6.000000,84.000000,0.000000,0.169096,0.259877,0.101168,0.060701,0.000000,117.000000,107.000000,10.000000,6.000000,84.000000,0.000000:
0000
0000
0000
0000
,
0000
0000
0000
0000
,
0000
0000
0000
0000
,
0000
0000
0000
0000
,
0000
0000
0000
0000
,
1000
0000
MMMM
0000
,
0001
0000
MMMM
0000
,
1000
0000
MMMM
0000
,
1000
0100
0010
0001
,
0000
0000
0000
0000
,
0001
0010
0100
MMMM
,
0000
0000
0000
0000
,
1000
0100
0010
MMMM
,
0000
0000
0000
0000
,
0001
0010
0001
MMMM
,
0000
0000
0000
0000
,
1000
0100
1000
MMMM
,
1000
0000
MMMM
0000
,
1000
1000
0100
0100
,
0001
0000
MMMM
0000
,
0001
0001
0100
0100
,
0001
0000
MMMM
0000
,
0001
0100
0010
1000
,
1000
0000
MMMM
0000
,
1000
0100
0010
0001
,
0200
0000
0000
0300
,
MMMM
0010
0000
0010
,
0200
0000
0000
0300
,
0010
0000
0010
0000
,
0001
0000
1000
0000
,
0001
0000
1000
0000
,
0001
0001
1000
1000
,
2002
3003
0000
MMMM
,
1000
0100
1000
0100
,
1000
0100
1000
MMMM
,
0001
0010
0001
0010
,
0001
0010
0001
MMMM
,
0110
0100
0100
0000
,
1001
1000
1000
MMMM
,
0110
0010
0010
0000
,
1001
1000
1000
MMMM
,
0001
0100
0001
0100
,
0001
0100
0001
MMMM
,
1000
0010
1000
0010
,
1000
0010
1000
MMMM
,
0110
0100
0100
0000
,
1001
0001
0001
MMMM
,
0110
0010
0010
0000
,
1001
0001
0001
MMMM
,
2002
0000
0000
0000
,
0000
0000
0000
0000
,
0000
0000
0000
3003
0000
0000
0000
0000
;

//---------------dance-single - Edit----------------
#NOTES:
     dance-single:
     :
     Edit:
     14:
     0.699508,0.857593,0.526076,0.384440,0.617128,484.000000,432.000000,52.000000,38.000000,0.000000,0.000000,0.699508,0.857593,0.526076,0.384440,0.617128,484.000000,432.000000,52.000000,38.000000,0.000000,0.000000:
0000
0000
0000
0000
,
0000
0000
0000
0000
,
0000
0000
0000
0000
,
0000
0000
0000
0000
,
0000
0000
0000
0000
,
2000
0000
0000
0100
0000
0000
3010
0000
0002
0000
0000
0010
0000
0000
0103
0000
,
2000
0000
0000
0010
0000
0000
3100
0000
0002
0000
0000
0010
0000
0000
0103
0000
,
2000
0000
0000
0001
0000
0000
3100
0000
0002
0000
0000
1000
0000
0000
0103
0000
,
2000
0000
0000
0001
0000
0000
3010
0000
1000
0000
0100
0000
0010
1000
0002
0000
,
0010
0000
0013
0000
1000
0000
1000
0000
0200
0000
0000
0001
0000
0000
1300
0000
,
0002
0000
0000
0023
0000
0000
0230
0000
2300
0000
0010
0000
3100
0010
2000
0000
,
0100
0000
3100
0000
0001
0000
0001
0000
0020
0000
0000
1000
0000
0000
0031
0000
,
2000
0000
0000
0000
3001
0010
0100
0000
1000
0000
0010
0000
0100
1000
0020
0000
,
0100
0000
0130
0000
0001
0000
0001
0000
2000
0000
0000
0001
0000
0000
3010
0000
,
2000
0000
0000
3200
0000
0000
0320
0000
0032
0000
0100
0000
1003
0001
0200
0000
,
0010
0000
0310
0000
1000
0000
1000
0000
0002
0000
0000
0010
0000
0000
0103
0000
,
2000
0000
0000
3020
0000
0000
0032
0000
0203
0000
0001
0000
0310
1000
0001
0000
,
0010
0001
0100
0000
0110
0000
0010
0000
1000
0100
0010
0000
1010
0000
1000
0000
,
0011
0000
0010
0001
0000
0001
0100
0000
0100
0010
0000
0010
1000
0000
1100
0000
,
1000
0001
0100
0000
0110
0000
0010
0000
1000
0010
0001
0000
1001
0000
0001
0000
,
0101
0000
0100
0010
0000
0010
1000
0000
1000
0100
0000
0100
0010
0001
1000
0001
,
0100
0010
0001
0000
1001
0000
0001
0000
0010
0100
1000
0000
1100
0000
1000
0000
,
1001
0000
1000
0001
0000
0001
0010
0000
0100
0010
0000
0010
0100
0000
0110
0000
,
0010
1000
0001
0000
0101
0000
0100
0000
0010
1000
0100
0000
1100
0000
0100
0000
,
0110
0000
0010
1000
0000
1000
0001
0000
0100
0001
0000
0001
1000
0000
1001
0000
,
0200
0001
0001
0000
0010
0010
0010
0000
,
1000
0000
1000
0000
1300
0000
0001
0010
1001
0000
0101
0000
0011
0000
0000
0000
,
0020
1000
1000
0000
0001
0001
0001
0000
,
0100
0000
0100
0000
0130
0000
0010
0100
1010
0000
1001
0000
1100
0000
0000
0000
,
2000
0001
0001
0000
0010
0010
0010
0000
,
0100
0000
0100
0000
3100
0000
1000
0100
1010
0000
0011
0000
0101
0000
0010
0100
,
1000
0010
0100
0001
1000
0100
0010
0001
0100
0010
1000
0010
0001
0010
0100
1000
,
0010
0100
0001
1000
0100
0010
0001
1000
0010
0100
0002
0000
0010
0000
0103
0010
,
1000
0000
0001
0010
0100
0000
1000
0100
0010
0000
0001
0010
1000
0000
1000
0100
,
0010
0000
0001
0100
0010
0000
1000
0010
0100
0000
0100
1000
0001
0100
0010
0001
,
1000
0000
0010
0100
0001
0000
1000
0100
0010
0000
0100
0010
0001
0010
1000
0100
,
0010
0000
0001
0010
1000
0000
0100
0010
1000
0000
0010
0100
0001
0100
0010
1000
,
0100
0000
1100
0000
1010
0000
0110
0000
0011
0000
0010
0100
0001
0000
0010
0100
,
0001
0000
0011
0000
0110
0000
1010
0000
1001
0000
1000
0100
0010
0000
0100
0010
,
0001
0000
0011
0000
0110
0000
1100
0000
1001
0000
0001
0100
0010
0000
0100
0010
,
1000
0010
0100
0020
0000
0000
0031
0100
0010
0100
0002
0000
1000
0000
0103
0001
,
1000
0000
0010
0100
0001
0000
1000
0100
0010
0000
0100
1000
0010
1000
0100
0010
,
0001
0000
0010
0100
1000
0000
0010
1000
0001
0000
0100
0010
1000
0010
0100
0001
,
0010
0000
0001
0100
0010
0000
1000
0010
0100
0000
0010
1000
0001
0100
0010
1000
,
0100
0000
1000
0100
0010
0000
1000
0010
0001
0000
0001
0010
0100
0010
1000
0100
,
0010
0000
0011
0000
1001
0000
1100
0000
0110
0000
0100
0001
1000
0000
0010
0100
,
0001
0000
1001
0000
1010
0000
0110
0000
0101
0000
0100
0010
1000
0000
0010
0100
,
0001
0000
0101
0000
0110
0000
1100
0000
1001
0000
1000
0100
0010
0000
0100
0010
,
0001
0000
0011
0000
1001
0000
1010
0000
0110
0000
0010
1000
0001
0000
0100
0002
,
2000
0000
0000
0000
0003
0001
0000
3020
,
0000
0000
0000
0200
0000
0000
0000
0000
,
0000
0000
0000
0330
0000
0000
0000
0000
;
