#VERSION:0.83;
#TITLE:チカラ;
#SUBTITLE:;
#ARTIST:BeForU;
#TITLETRANSLIT:CHIKARA;
#SUBTITLETRANSLIT:;
#ARTISTTRANSLIT:;
#GENRE:;
#ORIGIN:;
#CREDIT:;
#BANNER:CHIKARA.png;
#BACKGROUND:CHIKARA-bg.png;
#PREVIEWVID:;
#JACKET:CHIKARA-jacket.png;
#CDIMAGE:;
#DISCIMAGE:;
#LYRICSPATH:;
#CDTITLE:;
#MUSIC:CHIKARA.ogg;
#OFFSET:0.000000;
#SAMPLESTART:33.577000;
#SAMPLELENGTH:15.000000;
#SELECTABLE:YES;
#DISPLAYBPM:185.000000;
#BPMS:0.000=183.200,
4.000=185.000,
284.000=370.000;
#STOPS:;
#DELAYS:;
#WARPS:;
#TIMESIGNATURES:0.000=4=4;
#TICKCOUNTS:0.000=4;
#COMBOS:0.000=1;
#SPEEDS:0.000=1.000=0.000=0;
#SCROLLS:0.000=1.000;
#FAKES:;
#LABELS:0.000=Song Start;
#BGCHANGES:;
#KEYSOUNDS:;
#ATTACKS:
;

//---------------dance-single - ----------------
#NOTEDATA:;
#CHARTNAME:;
#STEPSTYPE:dance-single;
#DESCRIPTION:;
#CHARTSTYLE:;
#DIFFICULTY:Beginner;
#METER:4;
#RADARVALUES:0.184022,0.264230,0.073911,0.021117,0.000000,122.000000,115.000000,7.000000,2.000000,0.000000,0.000000,0.000000,0.000000,0.000000,0.184022,0.264230,0.073911,0.021117,0.000000,122.000000,115.000000,7.000000,2.000000,0.000000,0.000000,0.000000,0.000000,0.000000;
#CREDIT:;
#DISPLAYBPM:185.000000;
#NOTES:
0000
0000
0000
0000
,
0000
0000
0000
0000
,
1000
0000
1000
0000
,
0001
0000
0001
0000
,
1000
0000
1000
0000
,
0001
0000
1000
0000
,
1000
0000
1000
0000
,
0001
0000
0001
0000
,
0001
0000
0001
0000
,
0001
0000
0100
0000
,
0010
0000
0000
0001
,
0000
0000
0000
0010
,
0000
0000
0100
0000
,
0010
0000
0000
0010
,
0000
0000
0000
1000
,
0000
0000
0000
0010
,
0000
0000
1000
0000
,
0100
0000
0000
0100
,
0000
0000
0010
0000
,
0010
0000
0100
0000
,
0010
0000
0100
0000
,
0001
0000
0100
0000
,
1001
0000
0100
0000
,
0010
0000
0000
0000
,
1001
0000
0100
0000
,
0010
0000
1001
0000
,
0100
0000
0100
0000
,
0100
0000
0001
0000
,
0100
0000
0100
0000
,
0001
0000
0100
0000
,
0100
0000
0000
0100
,
0000
0000
0001
0000
,
1000
0000
0000
0001
,
0000
0000
0100
0000
,
1000
0000
0000
0001
,
0000
0000
1000
0000
,
0100
0000
0001
0000
,
0100
0000
0000
0010
,
0000
0000
0000
0001
,
0000
0000
0100
0000
,
1000
0000
0000
0000
,
0001
0000
0100
0000
,
1000
0000
1000
0000
,
1000
0000
0001
0000
,
1000
0000
1000
0000
,
1000
0000
0100
0000
,
1000
0000
0000
0000
,
0001
0000
0000
0000
,
0001
0000
0000
0000
,
1000
0000
0000
0000
,
1000
0000
0000
0000
,
0001
0000
0000
0000
,
0001
0000
0000
0000
,
1000
0000
0000
0000
,
1000
0000
0100
0100
,
0000
0000
0010
0010
,
0000
0000
0100
0100
,
0000
0000
0010
0000
,
0001
0000
0000
0000
,
1000
0000
0000
0000
,
0001
0000
1000
0000
,
0001
0000
1000
0000
,
0001
0000
0100
0100
,
0000
0000
1000
1000
,
0000
0000
0010
0000
,
0001
0000
0100
0000
,
1001
0000
1000
0000
,
1000
0000
1000
0000
,
1001
0000
0001
0000
,
0001
0000
0001
0000
,
0110
0000
0000
0000
,
2002
0000
3003
0000
;

//---------------dance-single - ----------------
#NOTEDATA:;
#CHARTNAME:;
#STEPSTYPE:dance-single;
#DESCRIPTION:;
#CHARTSTYLE:;
#DIFFICULTY:Easy;
#METER:5;
#RADARVALUES:0.235307,0.339725,0.073911,0.021117,0.000000,156.000000,149.000000,7.000000,2.000000,0.000000,0.000000,0.000000,0.000000,0.000000,0.235307,0.339725,0.073911,0.021117,0.000000,156.000000,149.000000,7.000000,2.000000,0.000000,0.000000,0.000000,0.000000,0.000000;
#CREDIT:;
#DISPLAYBPM:185.000000;
#NOTES:
0000
0000
0000
0000
,
0000
0000
0000
0000
,
1000
0000
1000
0000
,
0001
0000
0001
0000
,
1000
0000
1000
0000
,
0001
0000
1000
0001
,
1000
0000
1000
0000
,
0001
0000
0001
1000
,
0001
0000
0001
1000
,
0001
1000
0100
0000
,
0010
0000
0000
0001
,
0100
0000
0000
0010
,
1000
0000
0100
0000
,
0010
0000
0000
0010
,
0001
0000
0000
1000
,
0100
0000
0000
0010
,
0001
0000
1000
0000
,
0100
0000
0000
0100
,
0010
0000
0010
0000
,
0010
0001
0100
0000
,
0010
0000
0100
0000
,
0001
1000
0100
0000
,
1001
0000
0100
0000
,
0010
0000
0000
0000
,
1001
0000
0100
0000
,
0010
0100
1001
0000
,
0100
0000
0100
0000
,
0100
1000
0001
0000
,
0100
0000
0100
0000
,
0001
1000
0100
0010
,
0100
0000
0000
0100
,
1000
0000
0001
0000
,
1000
0000
0000
0001
,
0010
0000
0100
0000
,
1000
0000
0000
0001
,
0100
0000
1000
0000
,
0100
0000
0001
0000
,
0100
0000
0000
0010
,
1000
0000
0000
0001
,
0010
0000
0100
0000
,
1000
0000
0000
0000
,
0001
0000
0100
0001
,
1000
0000
1000
0000
,
1000
0000
0001
0000
,
1000
0000
1000
0000
,
1000
0001
0100
0010
,
1000
0000
0000
0000
,
0001
0000
0000
0000
,
0001
0000
0000
0000
,
1000
0000
0000
0000
,
1000
0000
0000
0000
,
0001
0000
0000
0000
,
0001
0000
0000
0000
,
1000
0000
0000
0000
,
1000
0000
0100
0100
,
1000
0000
0010
0010
,
1000
0000
0100
0100
,
1000
0000
0010
0100
,
0001
0000
0000
0000
,
1000
0000
0000
0000
,
0001
0000
1000
0000
,
0001
0000
1000
0000
,
0001
0000
0100
0100
,
0010
0000
1000
1000
,
0100
0000
0010
0000
,
0001
0000
0100
0010
,
1001
0000
1000
0000
,
1000
0100
1000
0000
,
1001
0000
0001
0000
,
0001
0100
0001
1000
,
0110
0000
0000
0000
,
2002
0000
3003
0000
;

//---------------dance-single - ----------------
#NOTEDATA:;
#CHARTNAME:;
#STEPSTYPE:dance-single;
#DESCRIPTION:;
#CHARTSTYLE:;
#DIFFICULTY:Medium;
#METER:8;
#RADARVALUES:0.467598,0.679450,0.432905,0.126704,0.000000,310.000000,269.000000,41.000000,12.000000,0.000000,0.000000,0.000000,0.000000,0.000000,0.467598,0.679450,0.432905,0.126704,0.000000,310.000000,269.000000,41.000000,12.000000,0.000000,0.000000,0.000000,0.000000,0.000000;
#CREDIT:;
#DISPLAYBPM:185.000000;
#NOTES:
0000
0000
0000
0000
,
0000
0000
0000
0000
,
0100
0010
0100
1001
,
0100
0010
0100
1001
,
0100
0010
0100
1001
,
0100
0000
0010
0100
0000
1000
0001
0010
,
0100
0000
0100
1000
0010
0000
0010
1000
,
0100
0000
0100
0010
0001
0000
1000
0000
,
1000
0000
0100
0010
0001
0000
1000
0000
,
0001
0100
0000
1000
0000
0000
0001
0000
,
1000
0000
0100
0010
0001
0000
1000
0000
,
0001
0000
0100
0010
1000
0000
0001
0000
,
1000
0000
0001
0100
0010
0000
1000
0000
,
0001
0100
0000
0000
1000
0000
1000
0000
,
0001
0000
0010
0100
1000
0000
0001
0000
,
1000
0000
0010
0100
0001
0000
1000
0000
,
0001
0000
1000
0010
0100
0000
0001
0000
,
1000
0100
0000
0010
0001
0000
1000
0000
,
0001
0000
1000
0100
0001
0000
1000
0000
,
1000
0000
0001
0100
1000
0000
0001
0000
,
1000
0100
0010
0001
,
1000
0010
0100
1001
,
0100
0100
0100
0100
,
0010
0010
0010
0010
,
0100
0000
0000
1000
0000
0001
0100
0010
,
0000
1000
0001
1000
0100
0000
0010
0000
,
0001
0000
0000
1000
0000
0000
0100
0000
,
0010
0001
1000
0001
,
0010
0000
0000
0100
0000
0000
1000
0000
,
0001
0100
0010
0100
,
0001
0000
0000
1000
0000
0000
0100
0000
,
0010
0001
1000
0001
,
0100
0000
0000
0010
0000
0000
1000
0000
,
0001
0010
0100
0010
,
1001
1100
1001
1100
,
1001
1100
1001
1100
,
1001
0101
1001
0101
,
1001
0101
1001
0101
,
1001
1100
1001
0101
,
1001
1100
1001
0101
,
1001
1010
1001
0011
,
0100
1000
0001
0100
0010
0000
1001
0000
,
0100
0100
0100
1001
,
0100
0100
0100
1001
,
0100
0100
0100
1001
,
0100
0010
1000
0001
0010
0000
0100
0000
,
2002
0000
0000
3003
,
1000
0000
0001
0000
,
0020
0000
0000
0030
,
0100
0000
1000
0000
,
0002
0000
0000
0003
,
0100
0000
0010
0000
,
2000
0000
0000
3000
,
0001
0000
0010
0000
,
0100
0100
0100
0100
,
1000
1000
1000
1000
,
0001
0001
0001
0001
,
0100
0100
0100
0100
,
0020
0030
1000
0001
,
0020
0030
0001
1000
,
0010
0100
0010
0000
1000
0100
1000
0000
,
0001
0010
0001
0000
1000
0010
1000
0000
,
0100
0010
0001
1000
,
0010
0100
0001
1000
,
0100
0000
0000
0010
0002
0000
0000
0000
,
0000
0000
0003
0100
,
1001
0100
0001
0100
,
1000
0010
0001
1000
,
0110
0001
0010
1000
,
0100
0001
0100
1000
,
0220
0000
0000
0330
,
2002
0000
3003
0000
;

//---------------dance-single - ----------------
#NOTEDATA:;
#CHARTNAME:;
#STEPSTYPE:dance-single;
#DESCRIPTION:;
#CHARTSTYLE:;
#DIFFICULTY:Hard;
#METER:10;
#RADARVALUES:0.564134,0.566208,0.073911,0.031676,0.005279,374.000000,367.000000,7.000000,3.000000,0.000000,0.000000,0.000000,0.000000,0.000000,0.564134,0.566208,0.073911,0.031676,0.005279,374.000000,367.000000,7.000000,3.000000,0.000000,0.000000,0.000000,0.000000,0.000000;
#CREDIT:;
#DISPLAYBPM:185.000000;
#NOTES:
0000
0000
0000
0000
,
0000
0000
0000
0000
,
1000
0001
1000
0100
1000
0001
1000
0001
,
1000
0001
1000
0100
1000
0000
0001
0000
,
1000
0001
1000
0100
1000
0001
1000
0001
,
1000
0001
1000
0100
0010
0000
0001
0000
,
1000
0000
0100
0010
0001
0000
0100
0010
,
1000
0000
0100
0010
0001
0100
0001
0010
,
0001
0000
0100
0010
1000
0000
0001
0000
,
1000
0100
0000
0010
0001
0100
0010
1000
,
0100
0000
0100
1000
0010
0000
0010
1000
,
0100
0000
0100
1000
0010
0000
0010
1000
,
0100
0000
0100
1000
0010
0000
0010
1000
,
0100
0010
0000
0010
0001
0000
1000
0000
,
0010
0000
0010
1000
0100
0000
0100
1000
,
0010
0000
0010
1000
0100
0000
0100
1000
,
0010
0000
0010
1000
0100
0000
0100
1000
,
0010
1000
0100
0010
0001
0000
1000
0000
,
0001
0000
0001
0100
0010
0000
0001
0100
,
0010
0000
0001
0100
0010
0000
1000
0100
,
0010
0000
0000
0001
1000
0000
0000
1000
,
0001
0000
0000
0001
1000
0000
0100
0000
,
0010
0000
0010
0001
0100
0000
0010
0000
,
0010
0000
0010
1000
0100
0000
0010
0000
,
0010
0000
0010
0001
0100
0000
0010
1000
,
0000
0100
0010
0001
1000
0000
1001
0000
,
0100
0000
1000
0100
0000
0010
0001
0000
,
0100
0010
1000
0100
0000
0010
0001
0000
,
1000
0000
0010
0100
0000
0001
0010
0000
,
0100
1000
0001
0100
0000
0010
1000
0000
,
0001
0000
0010
0100
0000
0100
0010
0000
,
0010
0100
1000
0001
0000
0001
1000
0000
,
1000
0000
0100
0010
0000
0010
0100
0000
,
0100
0010
0001
1000
0000
1000
0001
0000
,
0100
0000
0100
0000
0100
0000
0100
0010
,
1000
0000
1000
0000
1000
0000
1000
0001
,
0010
0000
0010
0000
0010
0000
0010
0100
,
0001
0000
0001
0000
0001
0000
0001
1000
,
0100
0000
0100
0000
0100
0000
0100
0010
,
1000
0000
1000
0000
1000
0000
1000
0001
,
0010
0000
0010
0000
0010
0000
0010
0100
,
0001
0000
0000
1000
0000
0000
0110
0000
,
0001
0000
0001
0100
0000
0001
1000
0000
,
0100
0010
0000
0010
0001
0000
1000
0000
,
0001
0000
0001
0100
0000
0001
0010
0000
,
0100
1000
0001
0100
0010
0000
1000
0000
,
0001
0000
0000
0010
0100
0000
1000
0000
,
0001
0000
0000
0100
0010
0000
1000
0000
,
0001
0000
0000
0010
0100
0000
1000
0000
,
0001
0000
0000
0100
0010
0000
1000
0000
,
0001
0000
0000
0010
0100
0000
1000
0000
,
0001
0000
0000
0100
0010
0000
1000
0000
,
0001
0110
0001
0110
,
1000
0100
0010
0100
1000
0010
0100
0010
,
1000
0100
0000
0010
0000
0001
0000
0100
,
0010
1000
0000
0100
0000
0010
0000
0001
,
0100
0010
0000
1000
0000
0100
0000
0010
,
0001
0000
1000
0100
,
0010
0000
0000
0001
0100
0000
0010
0000
,
1000
0000
0000
0001
0010
0000
0100
0000
,
1000
0010
1000
0000
0001
0010
0001
0000
,
1000
0100
1000
0000
0001
0100
0001
0000
,
1000
0010
0100
0001
0000
0000
1000
0000
,
0001
0010
0100
1000
0000
0000
0001
0000
,
1000
0100
0010
0001
0100
0010
1000
0000
,
0001
0100
0010
1000
0000
0001
0010
0000
,
1100
0000
0001
0000
0010
1000
0000
0001
,
0100
1000
0100
0001
0000
0000
0010
0000
,
1100
0000
0001
0000
0010
1000
0000
0001
,
0100
0010
1000
0100
0010
0001
1000
0000
,
0220
0000
0000
0000
0000
0000
0000
0000
0330
0000
0000
0000
0000
0000
0001
1000
,
0002
0000
0003
0000
;

//---------------dance-double - ----------------
#NOTEDATA:;
#CHARTNAME:;
#STEPSTYPE:dance-double;
#DESCRIPTION:;
#CHARTSTYLE:;
#DIFFICULTY:Easy;
#METER:4;
#RADARVALUES:0.248883,0.301978,0.042235,0.021117,0.000000,165.000000,161.000000,4.000000,2.000000,0.000000,0.000000,0.000000,0.000000,0.000000,0.248883,0.301978,0.042235,0.021117,0.000000,165.000000,161.000000,4.000000,2.000000,0.000000,0.000000,0.000000,0.000000,0.000000;
#CREDIT:;
#DISPLAYBPM:185.000000;
#NOTES:
00000000
00000000
00000000
00000000
,
00000000
00000000
00000000
00000000
,
10000000
00000000
00010000
00000000
,
10000000
00000000
00010000
01000000
,
00001000
00000000
00010000
00000000
,
00001000
00000000
00010000
00000100
,
00001001
00000000
00000100
00000000
,
00001001
00000000
00000100
00010000
,
00001000
00000000
00100000
01000000
,
10000000
00010000
01000000
00000000
,
00001000
00000000
00010000
00000000
,
00001000
00000000
00010000
00000000
,
00000010
00000100
00000001
00000000
,
00001000
00000000
00000100
00010000
,
00001000
00000000
00010000
00000000
,
00001000
00000000
00010000
00000000
,
00100000
10000000
01000000
00000000
,
00100000
00000000
00010000
10000000
,
01000000
00000000
00100000
00000000
,
01000000
00000000
00100000
00010000
,
01000000
00000000
00001000
00000000
,
00010000
00000000
00000010
00001000
,
00000001
00000000
00000000
00000000
,
00001000
00000000
00000000
00000000
,
00010000
00000000
00000000
00000000
,
10000000
01000000
00100000
00000000
,
10000000
00000000
10000000
00000000
,
01000000
00100000
01000000
00000000
,
00010000
00000000
00010000
00000000
,
00000100
00000010
00000100
00000000
,
00001000
00000000
00001000
00000000
,
00000001
00000000
00000001
00000000
,
00001000
00000000
00001000
00000000
,
00000100
00010000
00001000
00000000
,
00100000
00000000
01000000
00000000
,
00010000
00000000
00001000
00000000
,
00000100
00000000
00000010
00001000
,
00000001
00000000
00000010
00000100
,
00001000
00000000
00000001
00000000
,
00000100
00000000
00000010
00000000
,
00001000
00000100
00010000
00000000
,
00001000
00000000
00000000
00100000
,
00010000
00000000
01000000
00000000
,
00010000
01000000
01000000
00000000
,
00001000
00000000
00010000
00000000
,
00000100
00000010
00000001
00000001
,
00000100
00000000
00000000
00000000
,
00000010
00000000
00001000
00000000
,
00000001
00000000
00000000
00000000
,
00000010
00000000
00001000
00000000
,
00010000
00000000
00000000
00000000
,
00100000
00000000
10000000
00000000
,
00010000
00000000
00000000
00000000
,
01000000
00000000
00001000
00000000
,
00000010
00000001
00000100
00000000
,
00000010
00001000
00000100
00000000
,
00000010
00000000
00000001
00000000
,
00000100
00000000
00000010
00001000
,
00000100
00000000
00010000
00000000
,
00001000
00000000
00100000
00000000
,
01000000
00000000
10000000
00000000
,
00010000
00000000
01000000
00000000
,
00001000
00010000
00000010
00000000
,
00010000
00001000
00100000
00000000
,
01000000
00000000
10000000
00000000
,
00010000
00000000
01000000
00100000
,
00010000
00000000
00001000
00000000
,
00010000
00001000
00000010
00000000
,
00000001
00000000
00001000
00000000
,
00000001
00000100
00001000
00010000
,
00011000
00000000
00000000
00000000
,
20020000
00000000
30030000
00000000
;

//---------------dance-double - ----------------
#NOTEDATA:;
#CHARTNAME:;
#STEPSTYPE:dance-double;
#DESCRIPTION:;
#CHARTSTYLE:;
#DIFFICULTY:Medium;
#METER:9;
#RADARVALUES:0.408771,0.490714,0.021117,0.200615,0.000000,271.000000,269.000000,2.000000,19.000000,0.000000,0.000000,0.000000,0.000000,0.000000,0.408771,0.490714,0.021117,0.200615,0.000000,271.000000,269.000000,2.000000,19.000000,0.000000,0.000000,0.000000,0.000000,0.000000;
#CREDIT:;
#DISPLAYBPM:185.000000;
#NOTES:
00000000
00000000
00000000
00000000
,
00000000
00000000
00000000
00000000
,
00001000
00000000
00010000
00001000
00000000
00001000
00010000
00000000
,
00010000
00000000
00001000
00010000
00000000
00010000
00001000
00000000
,
00001000
00000000
00010000
00001000
00000000
00001000
00010000
00000000
,
00001000
00000000
00010000
00000010
00000000
00001000
00000100
00000010
,
00000001
00000000
00000001
00001000
00000000
00001000
00000100
00000000
,
00010000
00000000
00001000
00100000
00000000
00100000
00010000
00000000
,
10000000
00000000
00100000
01000000
00000000
01000000
00010000
10000000
,
01000000
00010000
00000000
00001000
00000000
00000000
00000000
00000000
,
00100000
00000000
00000000
00000000
00010000
01000000
00000000
00000000
,
00100000
00000000
00000000
00010000
01000000
00100000
00000000
00000000
,
10000000
00000000
00000000
00000000
01000000
00010000
00000000
00000000
,
10000000
00000000
00000000
01000000
00010000
00001000
00000000
00000000
,
00000100
00000000
00000000
00000000
00000001
00000010
00000000
00000000
,
00000100
00000000
00000000
00000001
00000010
00000100
00000000
00000000
,
00001000
00000000
00000000
00000000
00000010
00000100
00000000
00000000
,
00000000
00001000
00010000
00001000
00000100
00000000
00000001
00000000
,
00001000
00000100
00001000
00000000
00010000
00001000
00010000
00000000
,
00100000
00010000
00100000
00000000
10000000
00000000
01000000
00000000
,
00100000
00000000
00010000
01000000
00010000
00000000
00001000
00010000
,
00001000
00000000
00000010
00001000
00000010
00000000
00000100
00000000
,
00000001
00000000
00001000
00000100
,
00000010
00000000
00000001
00000100
,
00000010
00000000
00001000
00000100
,
00000000
00010000
00001000
00100000
00010000
00000000
10000000
00000000
,
01000000
00000000
00000000
00100000
00010000
00000000
10000000
00000000
,
01000000
00000000
00000000
00100000
00010000
00000000
10000000
00000000
,
01000000
00000000
00000000
00010000
00001000
00000000
00000010
00000000
,
00000001
00001000
00000100
00000010
,
00000001
00000000
00000000
00000100
00000010
00000000
00001000
00000000
,
00000001
00000000
00000000
00000100
00000010
00000000
00001000
00000000
,
00000001
00000000
00000000
00000100
00001000
00000000
00010000
00000000
,
01000000
10000000
00010000
01000000
,
00100000
10000000
01000000
00000000
00010000
00000000
00001000
00000000
,
00000100
00000001
00000010
00000000
00001000
00000000
00010000
00000000
,
00100000
10000000
01000000
00000000
00100000
00010000
01000000
00000000
,
00100000
00000000
10000000
00000000
00010000
00000000
01000000
00001000
,
00010000
00000000
00000010
00000000
00000100
00000000
00001000
00000100
,
00000010
00000000
00000001
00000000
00001000
00000000
00000010
00000100
,
00001000
00010000
01000000
10000000
,
00010000
00000000
00000000
01000000
00000000
00000000
00001000
00000000
,
00010000
00000000
00001000
00100000
00000000
00001000
00010000
00000000
,
00000100
00000010
00000001
00000100
00001000
00000000
00010000
00000000
,
00001000
00000000
00010000
00000010
00000000
00010000
00001000
00000000
,
01000000
00100000
10000000
01000000
00010000
00000000
00001000
00000000
,
00000200
00000000
00000000
00000300
,
00000002
00000003
00002000
00003000
,
00000200
00000000
00000000
00000300
,
00020000
00030000
00002000
00003000
,
00200000
00000000
00000000
00300000
,
02000000
03000000
20000000
30000000
,
00020000
00000000
00000000
00030000
,
01000000
00100000
10000000
01000000
,
00010000
00001000
00010000
00000000
00000010
00000000
00000100
00000000
,
00001000
00010000
00001000
00000000
00100000
00000000
01000000
00000000
,
00010000
00001000
00000100
00000000
00000001
00000000
00000010
00000000
,
00001000
00010000
00100000
00000000
10000000
00000000
01000000
00000000
,
00020000
00000000
00000000
00030000
,
00002000
00000000
00000000
00003000
,
00000100
00000001
00000010
00000000
00001000
00010000
00100000
00000000
,
10000000
01000000
00100000
00000000
00010000
01000000
00100000
00000000
,
00020000
00000000
00000000
00030000
,
00002000
00000000
00000000
00003000
,
00000020
00000000
00000000
00000030
,
00000001
00000000
00000000
00001000
00000000
00000000
00000010
00000000
,
00000100
00000000
00000100
00000000
00000001
00000010
00000000
00000000
,
00000100
00001000
00000001
00000100
,
00001000
00000000
00001000
00000000
00010000
01000000
00000000
00000000
,
10000000
00010000
01000000
00001000
,
00020020
00000000
00000000
00030030
,
00002002
00000000
00003003
00000000
;

//---------------dance-double - ----------------
#NOTEDATA:;
#CHARTNAME:;
#STEPSTYPE:dance-double;
#DESCRIPTION:;
#CHARTSTYLE:;
#DIFFICULTY:Hard;
#METER:13;
#RADARVALUES:0.582235,0.943680,0.021117,0.010559,0.158380,386.000000,384.000000,2.000000,1.000000,0.000000,0.000000,0.000000,0.000000,0.000000,0.582235,0.943680,0.021117,0.010559,0.158380,386.000000,384.000000,2.000000,1.000000,0.000000,0.000000,0.000000,0.000000,0.000000;
#CREDIT:;
#DISPLAYBPM:185.000000;
#NOTES:
// measure 0
00000000
00000000
00000000
00000000
,  // measure 1
00000000
00000000
00000000
00000000
,  // measure 2
10000000
00000000
00000000
00000000
00010000
01000000
00000000
00000000
,  // measure 3
00001000
00000000
00000000
00000000
00000100
00000001
00000000
00000000
,  // measure 4
00001000
00000000
00000000
00000000
00000100
00010000
00000000
00000000
,  // measure 5
00000010
00000001
00000000
00001000
00000100
00000000
00010000
00000000
,  // measure 6
00100000
10000000
00000000
00010000
00100000
01000000
00000000
10000000
,  // measure 7
00000000
00010000
00000000
01000000
00001000
00010000
00000010
00000000
,  // measure 8
00001000
00000000
00000001
00000000
00000010
00000100
00001000
00000010
,  // measure 9
00000100
00000000
00000100
00000001
00000010
00001000
00010000
00100000
,  // measure 10
10000000
00000000
01000000
00000000
00100000
00010000
01000000
00000000
,  // measure 11
00100000
00000000
10000000
00000000
01000000
00100000
00010000
00000000
,  // measure 12
01000000
00000000
00100000
00000000
10000000
01000000
00100000
00000000
,  // measure 13
00001000
00010000
00000000
00010000
00001000
00000000
00000010
00000000
,  // measure 14
00000001
00000000
00000100
00000000
00000010
00001000
00000100
00000000
,  // measure 15
00000010
00000001
00000100
00000000
00000010
00001000
00000100
00000000
,  // measure 16
00010000
00000000
00001000
00000000
00000010
00000001
00000100
00000000
,  // measure 17
00000000
00001000
00010000
00100000
10000000
00000000
01000000
00000000
,  // measure 18
00100000
00000000
00010000
00000000
10000000
01000000
00100000
00000000
,  // measure 19
00010000
00000000
01000000
00001000
00000000
00010000
00000010
00000000
,  // measure 20
00001000
00000000
00000001
00000000
00001000
00000001
00000100
00000000
,  // measure 21
00000000
00001000
00010000
00001000
00000000
00100000
00010000
00000000
,  // measure 22
10000000
00000000
01000000
00100000
00010000
01000000
10000000
00000000
,  // measure 23
00010000
00000000
10000000
01000000
00010000
00001000
00000100
00000000
,  // measure 24
00000001
00000000
00000010
00001000
00000010
00000001
00000100
00000000
,  // measure 25
00000000
00000010
00001000
00000100
00000010
00000000
00001001
00000000
,  // measure 26
00000100
00010000
00000000
00010000
00000010
00000100
00001000
00000000
,  // measure 27
00010000
01000000
00000000
01000000
10000000
00000000
00010000
00000000
,  // measure 28
01000000
00001000
00000000
00000000
00010000
01000000
10000000
00000000
,  // measure 29
00010000
01000000
00001000
00000100
,  // measure 30
00000001
00000010
00000000
00000000
00000100
00001000
00000001
00000000
,  // measure 31
00000100
00000010
00000000
00001000
00000100
00000000
00010000
00000000
,  // measure 32
00001000
00000000
00000100
00000000
00000001
00000010
00000100
00000000
,  // measure 33
00010000
00001000
00000000
00100000
00010000
00000000
10000000
00100000
,  // measure 34
01000000
00010000
10000000
01000000
,  // measure 35
00100000
00010000
01000000
10000000
,  // measure 36
01000000
00100000
00010000
01000000
,  // measure 37
10000000
01000000
00100000
00010000
,  // measure 38
01000000
10000000
01000000
00010000
,  // measure 39
01000000
10000000
01000000
00010000
,  // measure 40
00100000
01000000
10000000
00100000
,  // measure 41
01000000
00010000
00100000
01000000
00010000
00001000
00000100
00000001
,  // measure 42
00000010
00000000
00000000
00000100
00001000
00000010
00000100
00000000
,  // measure 43
00000001
00000010
00000000
00000100
00001000
00000010
00000100
00000000
,  // measure 44
00001000
00000000
00000000
00010000
01000000
10000000
00100000
00000000
,  // measure 45
01000000
00010000
00100000
01000000
00010000
00001000
00000100
00000001
,  // measure 46
00000010
00000000
00000000
00000001
00000100
00000000
00000000
00000000
,  // measure 47
00001000
00000000
00010000
00000000
01000000
00000000
00010000
00000000
00001000
00000000
00000100
00000000
,  // measure 48
00000001
00000000
00000000
00000010
00000001
00000100
00000000
00000000
,  // measure 49
00000010
00001000
00000100
00001000
00000010
00001000
00000100
00000000
,  // measure 50
00010000
00000000
00000000
00000000
00000000
00000000
01000000
10000000
01000000
00000000
00000000
00000000
00000000
00000000
00100000
00000000
,  // measure 51
00000000
00000000
00001000
00010000
00000010
00001000
00000001
00000100
,  // measure 52
00000000
00000000
00000010
00000000
00001000
00000100
00001000
00000100
00001000
00000000
00000001
00000000
00000100
00000010
00000000
00000000
,  // measure 53
00001000
00000000
00000100
00000000
00000010
00000000
00000001
00000000
00000100
00000000
00000010
00000000
00001000
00000100
00001000
00000100
,  // measure 54
00000000
00000010
00000000
00000001
00000000
00000100
00000000
00001000
,  // measure 55
00000000
00010000
00000000
01000000
00000000
10000000
00000000
00100000
,  // measure 56
00000000
01000000
00000000
00001000
00000000
00010000
00000000
00000010
,  // measure 57
00000000
00000000
00001000
00000000
00000000
00000000
00000100
00000000
00000000
00000000
00000010
00000000
00000001
00000100
00000001
00000100
,  // measure 58
00000000
00000010
00001000
00000100
,  // measure 59
00010000
00000000
00001000
00000000
,  // measure 60
00100000
00010000
00100000
00010000
00100000
00000000
00000000
00000000
01000000
10000000
01000000
10000000
01000000
00000000
00000000
00000000
,  // measure 61
00010000
01000000
00010000
01000000
00010000
00000000
00000000
00000000
00001000
00010000
00001000
00010000
00001000
00000000
00000000
00000000
,  // measure 62
00100000
01000000
10000000
00100000
01000000
00010000
00100000
01000000
,  // measure 63
00010000
00001000
00000100
00000001
00000010
00000100
00001000
00000001
,  // measure 64
00000100
00000010
00000100
00000010
00000100
00000001
00000100
00000001
00000100
00000010
00000100
00000010
00000100
00000001
00000100
00000001
,  // measure 65
00000100
00000000
00000000
00000010
00000000
00000000
00001001
00000000
,  // measure 66
00000100
00000000
00010000
00000000
00001000
00100000
00010000
00000000
,  // measure 67
10000000
01000000
00100000
00010000
01000000
00100000
10000000
00000000
,  // measure 68
01000000
00000000
00010000
00000000
00001000
00000100
00000001
00000000
,  // measure 69
00000010
00000100
00001000
00000010
00000100
00001000
00010000
00000000
,  // measure 70
01000000
00000000
00000000
00000000
00010000
00000000
00000000
00000000
00001000
00000000
00000000
00000000
00000100
00000001
00000100
00000001
,  // measure 71
00000200
00000000
00000300
00000000
;

//---------------dance-single - ----------------
#NOTEDATA:;
#CHARTNAME:;
#STEPSTYPE:dance-single;
#DESCRIPTION:;
#CHARTSTYLE:;
#DIFFICULTY:Challenge;
#METER:17;
#RADARVALUES:0.998547,1.094669,0.622961,0.095028,0.781341,662.000000,603.000000,59.000000,9.000000,0.000000,0.000000,0.000000,0.000000,0.000000,0.998547,1.094669,0.622961,0.095028,0.781341,662.000000,603.000000,59.000000,9.000000,0.000000,0.000000,0.000000,0.000000,0.000000;
#CREDIT:;
#DISPLAYBPM:185.000000;
#NOTES:
0000
0000
0000
0000
,
0000
0000
0000
0000
,
1000
0100
1000
0100
1000
0000
0100
0000
0010
0001
0010
0001
1000
0100
0010
0001
,
1000
0100
0010
0001
0100
0000
1000
0000
0001
0000
0000
0000
1001
0000
0000
0000
,
0001
0100
0001
0100
0001
0000
0100
0000
0010
1000
0010
1000
0001
0100
0010
1000
,
0001
0100
0010
1000
0001
0000
1000
0000
0010
0000
0000
0000
0110
0000
0000
0000
,
1000
0010
1000
0010
1000
0000
0010
0000
0001
0100
0001
0100
1000
0010
0100
0010
,
1000
0010
0100
0010
1000
0000
0100
0000
0010
0000
0000
0000
0011
0000
0000
0000
,
0001
1000
0001
1000
0001
0000
1000
0000
0010
0100
0010
0100
0001
0010
0100
0010
,
0001
0010
0100
0010
0001
0000
1000
0000
0010
0000
0000
0000
1010
0000
0000
0000
,
1000
0001
1000
0100
0000
0100
0100
0100
,
1000
0001
0100
0010
0000
0010
0010
0010
,
1010
0000
1100
0000
0011
0000
0101
0001
,
1000
0001
0100
0001
1000
0000
1001
0001
,
0100
0010
1000
0100
0000
0001
0001
0001
,
1000
0010
0100
0001
0000
1000
1000
1000
,
1001
0000
1010
0000
1001
0000
0011
0001
,
0100
0001
1000
0001
0100
0000
1001
0000
,
1000
0100
1000
0100
0000
0100
0100
0100
,
0010
0001
1000
0010
0000
0010
0010
0010
,
0000
0011
1001
1100
,
1000
0000
0001
0200
0000
0010
0310
0000
,
1000
0010
0100
0010
1000
0010
0100
0010
,
0001
0100
0010
0100
0001
0100
0010
0100
,
0101
0000
1010
0000
0010
0001
0100
1000
,
0000
0000
1100
0000
1100
0000
1100
0000
1100
0000
0000
0000
1000
0001
1000
0000
,
0001
0100
0001
0000
0010
0000
1000
0000
0010
1000
0010
0000
1000
0000
0100
0000
,
0010
0001
0010
0000
0100
0010
0100
0000
1000
0100
1000
0000
0001
0000
0000
0000
,
1000
0100
1000
0100
1000
0000
0100
0000
0010
0001
0010
0001
0010
0000
0001
0000
,
0101
1100
0101
1100
,
1000
0001
1000
0001
1000
0000
0001
0000
0010
0000
0100
0000
1000
0000
0100
0000
,
0010
0001
0010
0000
1000
0010
1000
0000
0100
0001
0100
0000
0001
0000
0000
0000
,
1000
0100
1100
0000
0001
0100
0101
0000
,
1000
0000
0010
0000
1010
0000
0000
0000
0001
0000
0010
0000
0001
0010
0001
0010
,
0001
0100
0001
0000
1000
0100
1000
0000
0010
1000
0010
0000
0100
0001
0100
0001
,
1000
0000
0100
1000
0100
0000
0010
1000
0010
0000
0001
1000
0001
0000
1000
0100
,
1000
0100
1000
0100
1000
0100
1000
0000
0001
0010
0001
0010
0001
0010
0001
0010
,
0001
0000
0000
0000
0101
0000
0000
0000
1000
0000
0001
0000
1000
0010
1000
0010
,
0100
0000
0100
0000
0101
0000
0000
0000
0100
0000
0100
0000
1000
0100
1000
0100
,
0020
0000
0031
0020
0000
0230
0000
0020
,
0000
0000
0000
0000
,
0000
0000
0330
0110
,
0110
0100
0101
0100
0000
0100
0101
0100
,
0110
0100
1100
0100
0000
0010
1010
0010
,
0110
0010
1010
0010
0000
0010
0110
0010
,
0010
0000
0010
0100
0010
0100
0010
0100
0010
0000
0000
0000
0011
0000
0000
0000
,
0102
0000
0000
0000
0000
0000
0000
0000
1003
0000
0000
0000
0001
0000
0000
1000
0000
0000
0001
0000
0000
0010
0000
0000
,
0001
0000
0000
0000
0010
0000
0000
0000
0100
0000
0000
0000
1000
0000
0000
0100
0000
0000
1000
0000
0000
0000
0000
0000
,
1100
0100
0001
1000
0010
0100
0001
1000
,
0001
1001
0110
1001
,
0010
0010
0100
0001
1000
1000
0100
0010
,
0001
0001
0100
0010
1000
1000
0010
0001
,
1000
0001
0100
0010
0001
1000
0100
0010
,
1010
1100
1001
0110
,
1000
0100
1000
0000
1000
0010
1000
0000
1000
0001
1000
0000
1000
0100
0010
0000
,
0100
0010
0100
0000
0100
0001
0100
0000
0100
0010
0100
0000
0100
0010
0001
0000
,
0001
0010
0001
0000
0001
0100
0001
0000
0001
0010
0001
0000
0001
0100
0010
0000
,
0010
1000
0010
0000
0010
0100
0010
0000
0010
1000
0010
0000
0001
0000
0010
0100
,
2000
0000
0000
0000
3000
0000
0001
1000
0001
0000
1000
0000
1001
0000
0000
0000
,
0011
0101
1100
1001
,
1000
0100
1000
0100
1000
0000
0100
0000
0010
0001
0010
0001
0010
0000
0001
0000
,
0100
0010
0100
0010
0100
0000
0010
0000
0001
1000
0001
1000
0001
0000
0100
0000
,
1000
0010
0100
0000
1000
0100
0010
0000
1000
0010
0100
0000
1000
0100
0010
0000
,
0001
0100
0010
0000
0001
0010
0100
0000
0001
0100
0010
0000
0001
0010
0100
0000
,
1000
0001
0100
0001
1000
0000
0010
0000
0001
1000
0010
1000
0001
0000
0100
0000
,
0010
1000
0010
1000
0010
0100
0001
0010
0200
0000
0000
0000
1300
0000
0000
0000
,
1000
0100
0010
0100
1000
0100
0010
0100
1000
0100
0010
0100
1000
0100
0010
0100
,
1000
0100
0010
0100
1000
0100
0010
0100
1000
0000
0000
0000
1010
0000
0000
0000
,
0001
0010
0100
0010
0001
0010
0100
0010
0001
0010
0100
0010
0001
0010
0100
0010
,
0001
0010
0100
0010
0001
0010
0100
0010
0001
0000
0000
0000
0101
0000
0000
0000
,
1000
0001
0010
0100
1000
0001
0100
0010
1000
0100
0010
0001
1000
0010
0100
0001
,
0200
0000
0300
0000
;
