#VERSION:0.83;
#TITLE:COW GIRL;
#SUBTITLE:;
#ARTIST:BAMBEE;
#TITLETRANSLIT:;
#SUBTITLETRANSLIT:;
#ARTISTTRANSLIT:;
#GENRE:;
#ORIGIN:;
#CREDIT:;
#BANNER:COW GIRL.png;
#BACKGROUND:COW GIRL-bg.png;
#PREVIEWVID:;
#JACKET:COW GIRL-jacket.png;
#CDIMAGE:;
#DISCIMAGE:;
#LYRICSPATH:;
#CDTITLE:;
#MUSIC:COW GIRL.ogg;
#OFFSET:0.000000;
#SAMPLESTART:41.740002;
#SAMPLELENGTH:15.000000;
#SELECTABLE:YES;
#DISPLAYBPM:138.000000;
#BPMS:0.000=137.329,
4.000=138.003;
#STOPS:;
#DELAYS:;
#WARPS:;
#TIMESIGNATURES:0.000=4=4;
#TICKCOUNTS:0.000=4;
#COMBOS:0.000=1;
#SPEEDS:0.000=1.000=0.000=0;
#SCROLLS:0.000=1.000;
#FAKES:;
#LABELS:0.000=Song Start;
#BGCHANGES:;
#KEYSOUNDS:;
#ATTACKS:
;

//---------------dance-single - ----------------
#NOTEDATA:;
#CHARTNAME:;
#STEPSTYPE:dance-single;
#DESCRIPTION:;
#CHARTSTYLE:;
#DIFFICULTY:Beginner;
#METER:2;
#RADARVALUES:0.131114,0.160891,0.011058,0.000000,0.000000,83.000000,82.000000,1.000000,0.000000,0.000000,0.000000,0.000000,0.000000,0.000000,0.131114,0.160891,0.011058,0.000000,0.000000,83.000000,82.000000,1.000000,0.000000,0.000000,0.000000,0.000000,0.000000,0.000000;
#CREDIT:;
#DISPLAYBPM:138.000000;
#NOTES:
0000
0000
0000
0000
,
0000
0000
0000
0000
,
0000
0000
0000
0000
,
1000
0000
1000
0000
,
1000
0000
1000
0000
,
0100
0000
0100
0000
,
0100
0000
0100
0100
,
0100
0000
0000
0000
,
0001
0000
0001
0000
,
0001
0000
0000
0000
,
1000
0000
1000
0000
,
1000
0000
0000
0000
,
0001
0000
0001
0000
,
0001
0000
0000
0000
,
1000
0000
1000
0000
,
1000
0000
0000
0000
,
0010
0000
0100
0000
,
0010
0000
0100
0000
,
0001
0000
1000
0000
,
0100
0100
0100
0000
,
0010
0000
0100
0000
,
0010
0000
0100
0000
,
0001
0000
1000
0000
,
0100
0100
0100
0000
,
0001
0000
0001
0000
,
0001
0000
0000
0000
,
1000
0000
1000
0000
,
1000
0000
0000
0000
,
0001
0000
0001
0000
,
0001
0000
0000
0000
,
1000
0000
1000
0000
,
1000
0000
0000
0000
,
1000
0000
0000
0000
,
1000
1000
1000
0000
,
0100
0000
0000
0000
,
0100
0100
0100
0000
,
0001
0000
0000
0000
,
0001
0001
0001
0000
,
0010
0000
0000
0000
,
0010
0010
0010
0000
,
0010
0000
0001
0000
,
0001
0000
0001
0000
,
0000
0000
1000
0000
,
1000
0000
1000
0000
,
0000
0000
0001
0000
,
0001
0000
0001
0000
,
0000
0000
1000
0000
,
1000
0000
1000
0000
,
0000
0000
1001
0000
;

//---------------dance-single - ----------------
#NOTEDATA:;
#CHARTNAME:;
#STEPSTYPE:dance-single;
#DESCRIPTION:;
#CHARTSTYLE:;
#DIFFICULTY:Easy;
#METER:6;
#RADARVALUES:0.187982,0.270916,0.011058,0.044231,0.000000,119.000000,118.000000,1.000000,4.000000,0.000000,0.000000,0.000000,0.000000,0.000000,0.187982,0.270916,0.011058,0.044231,0.000000,119.000000,118.000000,1.000000,4.000000,0.000000,0.000000,0.000000,0.000000,0.000000;
#CREDIT:;
#DISPLAYBPM:138.000000;
#NOTES:
0000
0000
0000
0000
,
0000
0000
0000
0000
,
0000
0000
0000
0000
,
1000
0000
1000
0000
,
1000
0001
1000
0001
,
0100
0000
0100
0000
,
0100
0010
0100
0010
,
0100
0000
0000
0000
,
0001
0000
0001
0000
,
0002
0000
0000
0003
,
1000
0000
1000
0000
,
2000
0000
0000
3000
,
0001
0000
1000
0000
,
0010
0000
0100
0000
,
0001
0000
0001
0000
,
2000
0000
3000
0001
,
0100
0000
0100
0000
,
0010
0000
0010
0000
,
1000
0000
0010
0000
,
0100
0000
0001
0000
,
1000
0000
1000
0000
,
0001
0000
0001
0000
,
0100
0000
0100
0000
,
0010
0000
0010
0010
,
1000
0000
1000
0000
,
1000
0001
1000
0001
,
0100
0000
0100
0000
,
0100
0010
0100
0010
,
1000
0000
1000
0000
,
1000
0100
1000
0100
,
0010
0000
0010
0000
,
0010
0001
0010
0001
,
1000
0000
0000
0000
,
1000
1000
1000
1000
,
0010
0010
0010
0010
,
0100
0100
0100
1001
,
0001
0001
0001
0001
,
0100
0100
0100
0100
,
0010
0010
0010
0010
,
1000
1000
0001
1000
,
0001
1000
0010
0000
,
0010
0000
0100
0000
,
0100
0000
0001
0000
,
0001
0000
1000
0000
,
1000
0000
0010
0000
,
0100
0000
0001
0000
,
1000
0000
0010
0000
,
1000
0000
0010
1000
,
0010
1000
0002
0000
,
0003
0000
0000
0000
;

//---------------dance-single - ----------------
#NOTEDATA:;
#CHARTNAME:;
#STEPSTYPE:dance-single;
#DESCRIPTION:;
#CHARTSTYLE:;
#DIFFICULTY:Medium;
#METER:8;
#RADARVALUES:0.322256,0.379282,0.088462,0.464427,0.000000,204.000000,196.000000,8.000000,42.000000,0.000000,0.000000,0.000000,0.000000,0.000000,0.322256,0.379282,0.088462,0.464427,0.000000,204.000000,196.000000,8.000000,42.000000,0.000000,0.000000,0.000000,0.000000,0.000000;
#CREDIT:;
#DISPLAYBPM:138.000000;
#NOTES:
0000
0000
0000
0000
,
0000
0000
0000
0000
,
0000
0000
0000
0000
,
0100
0001
0100
0001
,
1000
0010
1000
0010
,
0100
0010
0100
0010
,
1000
0000
0001
0000
1000
0010
0100
0001
,
1000
1000
1000
1001
,
2000
3100
0002
0103
,
2000
3100
0002
0103
,
1000
0010
0100
0001
,
2000
3020
0230
0302
,
2003
0100
0100
3100
,
0002
0100
0103
1001
,
0100
0000
0010
0000
1000
0000
1000
0001
,
0100
0010
0100
0010
,
2000
3010
0002
0013
,
0100
1000
0002
0103
,
0020
1030
2000
3001
,
1000
0001
0100
0000
0010
0000
0010
0000
,
2000
3020
0230
0302
,
1003
1000
0010
0100
,
0001
1000
0001
1000
,
0001
0100
0001
0000
1000
0000
1001
0000
,
2000
3100
0002
0103
,
0020
1030
2000
3001
,
0200
0310
0020
0130
,
0001
1000
0001
1001
,
0200
0301
0002
1003
,
0010
0100
0001
1000
,
0002
0013
0020
0031
,
2000
0001
3001
1001
,
1000
1000
1000
1000
,
0001
1000
0001
1000
,
0010
1000
0010
1000
,
0001
0100
0001
1001
,
0100
0001
0100
0000
0001
0100
0001
0000
,
1000
0100
1000
0000
0100
1000
0100
0000
,
1000
0010
0100
0000
0001
0100
0001
0000
,
1000
0001
1000
0001
1000
0000
1000
0000
,
1000
1001
0002
0103
,
2000
3100
0020
0031
,
0002
1003
0200
0310
,
0020
0130
1000
0001
,
1000
1001
0200
1300
,
2000
3001
0010
0100
,
1000
0001
2000
3010
,
0020
1030
0002
1000
,
1003
0001
0200
0000
,
0300
0000
0000
0000
;

//---------------dance-single - ----------------
#NOTEDATA:;
#CHARTNAME:;
#STEPSTYPE:dance-single;
#DESCRIPTION:;
#CHARTSTYLE:;
#DIFFICULTY:Hard;
#METER:12;
#RADARVALUES:0.472326,0.490136,0.221156,0.298560,0.298560,299.000000,279.000000,20.000000,27.000000,0.000000,0.000000,0.000000,0.000000,0.000000,0.472326,0.490136,0.221156,0.298560,0.298560,299.000000,279.000000,20.000000,27.000000,0.000000,0.000000,0.000000,0.000000,0.000000;
#CREDIT:;
#DISPLAYBPM:138.000000;
#NOTES:
0000
0000
0000
0000
,
0000
0000
0000
0000
,
0000
0000
0000
0000
,
1000
0000
0000
1000
0001
0000
0000
0001
1000
0000
0000
1000
0001
0000
0000
0001
,
1000
0000
0000
1000
0100
0000
0000
0100
1000
0000
0000
1000
0100
0000
0000
0100
,
1000
0000
0000
1000
0001
0000
0000
0001
1000
0000
0000
1000
0001
0000
0000
0001
,
0010
0000
0000
0010
0001
0000
0000
0001
0010
0000
0000
0010
0001
0000
0000
0001
,
1000
0000
0000
0000
0000
0000
0000
0000
0001
0000
0000
0001
1000
0000
0000
1000
,
0001
0000
0200
0010
0010
0000
0310
0000
,
1000
0000
0020
0100
0100
0000
0130
0010
,
1000
0001
0100
0000
0100
0001
1000
0001
,
0100
0010
1000
0010
0100
0100
0100
0001
,
1000
0000
0002
0010
1003
0000
0100
0000
,
0010
0000
0200
1000
0310
0000
0001
0000
,
1000
0000
1100
0000
0001
0000
0101
0001
,
1000
0010
0100
0010
1000
1000
1000
0001
,
0100
0010
1000
0010
0100
0010
1000
0010
,
0100
0001
0010
0001
0100
0001
1000
0000
,
0010
0000
0010
0100
,
0001
0011
1001
1100
,
0020
0000
0001
0000
1000
0000
0031
1000
,
0002
0000
0010
0000
0100
0000
0013
0100
,
1000
0001
1000
0001
,
0100
2002
3003
1001
,
0100
0000
0000
0100
0001
0000
0000
0001
0100
0000
0000
0100
0001
0000
0000
0001
,
1000
0000
0000
1000
0010
0000
0000
0010
1000
0000
0000
1000
0010
0000
0000
0010
,
0100
0000
0000
0100
0010
0000
0000
0010
0100
0000
0000
0100
0010
0000
0000
0010
,
1000
0000
0000
1000
0001
0000
0000
0001
1000
0000
0000
1000
0010
0000
0100
0000
,
0001
0000
0100
0010
1000
0000
1001
0000
,
2002
0000
3003
1001
,
0100
0000
0000
0000
0010
0000
0000
0010
1000
0000
0000
0000
0001
0000
0000
0000
,
2002
0000
3003
1001
,
0200
0010
0310
0010
2000
0100
3100
0100
,
0010
0001
1000
0100
0010
0001
1000
0100
,
0020
0001
0031
0001
2000
0100
3100
0100
,
0010
0001
0100
0010
1000
0000
1001
0000
,
0200
0000
0300
0001
1000
0000
0010
0000
0100
0000
0001
0000
0100
0000
0001
0000
,
2000
0000
3000
0010
0100
0000
0001
0000
1000
0000
0010
0000
1000
0000
0010
0000
,
0200
0000
0300
0010
0100
0000
0001
0000
1000
0000
0010
0000
1000
0000
0001
0000
,
0020
0000
0030
0100
1000
0000
0001
0000
2000
0000
0000
0000
3000
0000
0000
0000
,
0010
0000
0000
0000
1001
0000
0000
0000
0100
0000
0000
0100
0001
0000
0000
0001
,
0100
0000
0000
0100
0001
0000
0000
0001
1000
0000
0000
1000
0010
0000
0000
0010
,
1000
0000
0000
1000
0010
0000
0000
0010
0100
0000
0000
0100
0010
0000
0000
0010
,
0100
0000
0000
0100
0010
0000
0000
0010
1000
0000
0000
1000
0001
0000
0000
0001
,
1000
0000
0000
1000
0010
0000
0100
0000
0001
0000
0000
0000
0100
0000
0010
0000
,
1000
1001
2002
0000
,
3003
0000
0000
0000
1001
0000
0000
0000
0100
0000
0000
0000
0010
0000
0000
0010
,
1000
0001
2002
0000
,
3003
1001
2002
0000
,
0000
3003
0000
0000
;

//---------------dance-double - ----------------
#NOTEDATA:;
#CHARTNAME:;
#STEPSTYPE:dance-double;
#DESCRIPTION:;
#CHARTSTYLE:;
#DIFFICULTY:Easy;
#METER:3;
#RADARVALUES:0.170606,0.245068,0.000000,0.099520,0.000000,108.000000,108.000000,0.000000,9.000000,0.000000,0.000000,0.000000,0.000000,0.000000,0.170606,0.245068,0.000000,0.099520,0.000000,108.000000,108.000000,0.000000,9.000000,0.000000,0.000000,0.000000,0.000000,0.000000;
#CREDIT:;
#DISPLAYBPM:138.000000;
#NOTES:
00000000
00000000
00000000
00000000
,
00000000
00000000
00000000
00000000
,
00000000
00000000
00000000
00000000
,
01000000
01000000
00001000
00000000
,
00010000
00000010
00000100
00000000
,
00000001
00001000
00001000
00000000
,
00000010
00000000
00000000
00000000
,
00000100
00000000
00000000
00000000
,
00010000
00000000
01000000
00000000
,
10000000
00000000
00100000
00000000
,
01000000
00000000
00001000
00000000
,
00010000
00000000
00000010
00000000
,
00000200
00000000
00000300
00000000
,
00000200
00000000
00000300
00000000
,
00000002
00000003
00000002
00000003
,
00001000
00001000
00001000
00001000
,
00000010
00000000
00000000
01000000
,
01000000
00000000
00000000
00000010
,
00010000
00000000
00010000
00000000
,
00000100
00000000
00000100
00000000
,
00000001
00000000
00000001
00000000
,
00000010
00000000
00000010
00000000
,
00001000
00000000
01000000
00000000
,
00010000
00000000
01000000
00000000
,
00100000
00100000
10000000
00000000
,
00010000
00010000
01000000
00000000
,
00001000
00001000
01000000
00000000
,
00001000
00001000
00010000
00000000
,
00000100
00000010
00000010
00000000
,
00000001
00001000
00001000
00000000
,
00000100
00010000
00010000
00000000
,
00000010
00010000
00010000
00000010
,
00000100
00000100
00000100
00000100
,
00000002
00000000
00000000
00000003
,
00000100
00000000
00000100
00000000
,
00020000
00000000
00000000
00030000
,
00001000
00000000
00001000
00000000
,
02000000
00000000
00000000
03000000
,
00010000
00000000
00010000
00000000
,
20000000
00000000
00000000
30000000
,
00100000
00100000
01000000
01000000
,
00010000
00000000
00010000
00010000
,
00000010
00000000
00000100
00000100
,
00000001
00000000
00001000
00000001
,
00001000
00000010
00000100
00000000
,
00000100
00000000
00010000
00000000
,
01000000
01000000
00010000
00000000
,
10000000
00000000
00010000
00000000
,
00010000
00010000
20000000
00000000
,
00000000
30000000
00000000
00000000
,
00000000
00000000
00000000
00000000
;

//---------------dance-double - ----------------
#NOTEDATA:;
#CHARTNAME:;
#STEPSTYPE:dance-double;
#DESCRIPTION:;
#CHARTSTYLE:;
#DIFFICULTY:Medium;
#METER:4;
#RADARVALUES:0.296981,0.353987,0.154809,0.232214,0.000000,188.000000,174.000000,14.000000,21.000000,0.000000,0.000000,0.000000,0.000000,0.000000,0.296981,0.353987,0.154809,0.232214,0.000000,188.000000,174.000000,14.000000,21.000000,0.000000,0.000000,0.000000,0.000000,0.000000;
#CREDIT:;
#DISPLAYBPM:138.000000;
#NOTES:
00000000
00000000
00000000
00000000
,
00000000
00000000
00000000
00000000
,
00000000
00000000
00000000
00000000
,
01000000
01000000
00020000
00030000
,
00100000
00100000
00002000
00003000
,
00000200
00000300
00000200
00000300
,
00000001
00000001
00001000
00001001
,
00000010
00000000
00000100
00001001
,
00000010
00000100
00000010
00000100
,
00000001
00001000
00000001
00001000
,
00000100
00020000
00000000
00031000
,
01000000
00010000
10000000
00100000
,
01000000
00010000
01000000
00010000
,
10000000
00100000
10000000
00100000
,
01000000
00002000
00000000
00013000
,
00000010
00000100
00000001
00001000
,
00000010
00011000
00000010
00011000
,
00000010
00000100
00000010
00011000
,
01000000
00011000
01000000
00011000
,
01000000
00100000
01000000
00011000
,
00002000
00010000
00003000
00000100
,
00000010
00002000
00000000
00003001
,
00000100
00000100
00000010
00001000
,
00000001
00001001
00001100
00010100
,
00010000
00010000
02000000
13000000
,
10000000
00100000
10000000
00100000
,
01000000
01000000
00002000
00013000
,
00000100
00000100
00001000
00000010
,
00000100
00000001
00000002
00001003
,
00000100
00000100
00010000
00001000
,
02000000
03200000
10300000
10000000
,
10000000
00010000
01000000
10010000
,
00010000
01000000
00001000
00010000
,
00000010
00001000
00000001
00000100
,
00000001
00001000
00000010
00010000
,
00001000
01000000
00100000
10010000
,
01000000
00001000
01000000
00001000
,
00010000
00000010
00010000
00000010
,
00001000
00000001
00000100
00000010
,
00010000
00000010
00010000
00002000
,
00010000
00013000
00001000
00100000
,
02000000
13000000
10000000
00100000
,
10000000
00100000
01000000
01000000
,
00002000
00013000
00000100
00000100
,
00001000
00000010
00000100
00000001
,
00000002
00001003
00000100
00000100
,
00010000
00001000
02000000
03200000
,
10300000
10000000
10000000
00010000
,
01000000
00010000
20020000
00000000
,
00000000
30030000
00000000
00000000
,
00000000
00000000
00000000
00000000
;

//---------------dance-double - ----------------
#NOTEDATA:;
#CHARTNAME:;
#STEPSTYPE:dance-double;
#DESCRIPTION:;
#CHARTSTYLE:;
#DIFFICULTY:Hard;
#METER:7;
#RADARVALUES:0.491282,0.490136,0.176925,0.176925,0.093991,311.000000,295.000000,16.000000,16.000000,0.000000,0.000000,0.000000,0.000000,0.000000,0.491282,0.490136,0.176925,0.176925,0.093991,311.000000,295.000000,16.000000,16.000000,0.000000,0.000000,0.000000,0.000000,0.000000;
#CREDIT:;
#DISPLAYBPM:138.000000;
#NOTES:
00000000
00000000
00000000
00000000
,
00000000
00000000
00000000
00000000
,
00000000
00000000
00000000
00000000
,
10000000
01000000
00100000
00010000
00001000
00000010
00000100
00000001
,
00001000
00000010
00000100
00000001
00001000
00000001
00000001
00000010
,
00000001
00000100
00000010
00001000
00010000
01000000
00100000
10000000
,
00010000
00100000
01000000
10000000
00010000
00010000
00010000
00100000
,
20000000
00000000
00000000
00000000
00000000
00000000
00000000
00000000
30010000
00000000
10000000
00010000
01000000
00000000
00100000
00000000
,
10000000
00000000
00000000
10000000
01000000
00000000
00000000
01000000
00010000
00000000
00000000
00010000
00001000
00000000
00000000
00001000
,
00010000
00000000
00000000
00010000
00001000
00000000
00000000
00001000
00000100
00000000
00000000
00000100
00000001
00000000
00000000
00000001
,
00001000
00002000
00000010
00003010
,
00010100
00011000
00110000
10010000
,
00100000
00000000
00000000
00100000
10000000
00000000
00000000
10000000
00010000
00000000
00000000
00010000
01000000
00000000
00000000
01000000
,
00001000
00000000
00000000
00001000
00010000
00000000
00000000
00010000
00000100
00000000
00000000
00000100
00001000
00000000
00000000
00001000
,
00000001
00000002
00000010
00000013
,
00000110
00011000
00110000
10010000
,
01000000
00002000
00003000
00010000
,
00000020
00000030
00001000
00000200
,
00020300
00032000
02003000
03100000
,
10000000
00010000
10000000
00010000
10000000
00010000
01000000
00000000
,
00100000
01000000
00001000
00000000
00001000
00010000
00000010
00001000
,
00000001
00000100
00000001
00000010
00000001
00001000
00001000
00000000
,
00000200
00010000
00010000
00000000
00001000
00000000
00010000
00000000
,
00001000
00001300
00010100
00010100
,
00001000
00100000
01000000
10000000
00010000
00000000
10010000
00000000
,
00100000
01000000
00010000
00001000
00000100
00000010
00001000
00000001
,
00000100
00000101
00000010
00001010
,
00000100
00001000
00010000
01000000
10000000
00010000
10000000
00100000
,
10000000
01000000
00100000
00010000
00001000
00000010
00000100
00000001
,
00001000
00000010
00000100
00000001
00001000
00000001
00000001
00000010
,
00000001
00000100
00000010
00001000
00010000
01000000
00100000
10000000
,
00010000
00100000
01000000
10000000
00010000
00010000
00010000
00100000
,
02000000
10000000
10000000
10000000
10000000
00000000
10000000
00000000
,
10000000
00000000
10000000
00000000
10000000
10000000
13000000
00000000
,
00020000
00100000
00100000
00100000
00100000
00000000
00100000
00000000
,
00100000
00100000
00130000
00101000
,
00020000
00000100
00000100
00000100
00000100
00000000
00000100
00000000
,
00000100
00000000
00000100
00000000
00000100
00000100
00030100
00000000
,
00000020
00001000
00001000
00001000
00001000
00000000
00001000
00000000
,
00001000
00000000
00001000
00000000
00001000
00001000
00001030
00000000
,
00011000
00000000
01010000
00000000
10000000
01000000
00100000
00010000
,
00001000
00000010
00000100
00000001
00001000
00000010
00000100
00000001
,
00001000
00000001
00000001
00000010
00000001
00000100
00000010
00001000
,
00010000
01000000
00100000
10000000
00010000
00100000
01000000
10000000
,
00010000
00010000
00010000
00100000
01000000
10000000
00010000
01000000
,
00001000
00010000
00000100
00010000
00000010
00001000
00000001
00000100
,
00000010
00001000
00000001
00000010
00000001
00000100
00000010
00001000
,
00010000
01000000
00100000
10000000
00010000
00100000
01000000
10000000
,
00010000
00010000
00010000
00100000
00002000
00000000
00000000
00000000
,
00020000
00033000
00000000
00000000
,
00000000
00000000
00000000
00000000
;

//---------------dance-single - ----------------
#NOTEDATA:;
#CHARTNAME:;
#STEPSTYPE:dance-single;
#DESCRIPTION:;
#CHARTSTYLE:;
#DIFFICULTY:Challenge;
#METER:15;
#RADARVALUES:0.786683,0.903145,0.232214,0.232214,0.879094,498.000000,477.000000,21.000000,21.000000,0.000000,0.000000,0.000000,0.000000,0.000000,0.786683,0.903145,0.232214,0.232214,0.879094,498.000000,477.000000,21.000000,21.000000,0.000000,0.000000,0.000000,0.000000,0.000000;
#CREDIT:;
#DISPLAYBPM:138.000000;
#NOTES:
// measure 0
0000
0000
0000
0000
,  // measure 1
0000
0000
0000
0000
,  // measure 2
0000
0000
0000
0100
0010
0000
0110
0000
,  // measure 3
0100
0001
0100
1000
0100
0001
0100
1000
0100
0001
0100
1000
0100
0001
0100
1000
,  // measure 4
0010
0001
0010
1000
0010
0001
0010
1000
0010
0001
0010
1000
0010
0001
0010
0100
,  // measure 5
1000
0100
0010
0100
1000
0100
0010
0100
1000
0100
0010
0100
1000
0100
0010
0001
,  // measure 6
0010
0001
0100
0001
0010
0001
0100
0001
0010
0001
0100
0001
0010
0001
0100
0001
,  // measure 7
0020
0000
0000
0000
1030
0000
0200
0000
0000
0000
0301
1000
0001
0000
0100
0000
,  // measure 8
1100
0000
0000
0100
0010
0000
0001
0000
0100
0000
0010
0000
1000
0000
0010
0000
,  // measure 9
1020
0000
0031
0000
0001
0010
0100
1000
,  // measure 10
0010
1000
0000
1010
0000
0101
0000
0011
,  // measure 11
0002
1000
0000
0100
0000
0010
0013
0001
,  // measure 12
0101
0000
0000
0100
0010
0000
1000
0000
0001
0000
0100
0000
0010
0000
1000
0000
,  // measure 13
1200
0000
0301
0000
0010
0001
0100
0020
,  // measure 14
0000
0000
2030
0000
0000
0000
3002
0000
0000
0000
0103
0010
0100
0010
0100
0000
,  // measure 15
0210
0000
0000
0000
0001
0000
0301
0000
0000
0000
1000
0100
1000
0000
0100
0000
,  // measure 16
0120
0000
0031
0010
1000
0100
0010
0001
,  // measure 17
0200
0001
0000
1300
0000
0010
0100
0001
,  // measure 18
0000
0010
1000
0100
0000
0010
0001
0000
,  // measure 19
0100
0010
0000
1001
0000
0010
0001
0100
,  // measure 20
0010
0000
0001
0010
1000
0000
0010
0000
0001
0000
0010
1000
0001
0000
0010
0000
,  // measure 21
1000
0000
0100
0010
0001
0000
0100
0000
1000
0000
0100
1000
0001
0000
0010
0000
,  // measure 22
0100
0010
0000
1001
0000
0100
0001
1000
,  // measure 23
0010
0000
0100
0000
0010
0000
0100
0000
0000
0000
1000
0001
1000
0001
1000
0000
,  // measure 24
0001
0000
0010
0001
0010
0000
0100
0010
0200
0000
0000
0000
1300
0000
0010
0000
,  // measure 25
0001
0000
0100
0001
0100
0000
0010
1000
0020
0000
0100
0000
0031
0000
0100
0000
,  // measure 26
0010
0000
0000
0010
0001
0000
0100
0000
0010
0000
1000
0000
0000
0000
1000
0001
,  // measure 27
1000
0100
0010
0001
0101
0010
0110
1000
,  // measure 28
1001
0000
0000
0001
0100
0000
0010
0000
1000
0000
0000
0000
0110
0000
0000
0000
,  // measure 29
2002
0000
0000
3003
0220
0000
0000
0330
,  // measure 30
0010
0000
0100
0010
0100
0000
0001
1000
0002
0000
0100
0000
0000
0000
0103
0001
,  // measure 31
0100
0000
0000
0010
0000
0000
1000
0000
0000
0001
0000
0000
0100
0000
0001
0000
0100
0000
0001
0000
0010
0000
0100
0000
,  // measure 32
1000
0000
0010
0100
0010
0000
0010
1000
0010
0000
0010
0001
0010
0001
0010
0000
,  // measure 33
0100
0000
0001
0010
0001
0000
0001
0100
0001
0000
0001
1000
0001
0100
0001
0000
,  // measure 34
0010
0000
1000
0100
1000
0000
1000
0010
1000
0000
1000
0001
1000
0100
1000
0000
,  // measure 35
0010
0000
0100
1000
0100
0000
0100
0001
0100
0000
0100
0010
0100
1000
0100
0010
,  // measure 36
0001
0100
0010
1000
0001
0100
0010
1000
0001
0100
0010
1000
0001
0100
0010
1000
,  // measure 37
0001
0010
0100
1000
0001
0010
0100
1000
0001
0010
0100
1000
0001
0010
0100
1000
,  // measure 38
0001
0010
0100
0010
0001
0010
0100
0010
0001
0010
0100
0010
0001
0010
0100
1000
,  // measure 39
0010
0100
0010
0001
0010
0100
0010
1000
0010
0000
0000
0000
0000
0000
0000
0000
,  // measure 40
0000
0000
1000
0100
1000
0100
0010
0001
0010
0001
0010
1000
0010
1000
0010
0100
,  // measure 41
0010
0100
0010
0001
0010
0001
0010
0100
1000
0100
1000
0010
1000
0010
1000
0100
,  // measure 42
1000
0100
1000
0010
1000
0010
1000
0010
0001
0010
0001
0010
0001
0100
0001
0100
,  // measure 43
0001
0010
0001
0010
0001
0100
0001
0100
0010
1000
0010
1000
0010
0001
0010
0001
,  // measure 44
0010
1000
0010
1000
0010
0001
0010
0001
0100
0010
0100
0010
0100
0001
0100
0001
,  // measure 45
0100
0010
0100
0010
0100
0001
0100
0001
0020
0000
0000
0000
1030
0000
0100
0000
,  // measure 46
0010
0000
0001
0010
0100
1000
0100
0010
0001
0000
0100
0010
0100
0000
1000
0000
,  // measure 47
0110
0000
0101
0000
0000
0000
0001
1000
0001
1000
0001
0100
0001
0100
0001
0010
,  // measure 48
0100
1000
0100
0010
0001
0100
0010
1000
2200
0000
0000
0000
0000
0000
0000
0000
,  // measure 49
0000
0000
3300
0000
;
