#TITLE:COME CLEAN;
#SUBTITLE:;
#ARTIST:NM featuring Susan Z;
#TITLETRANSLIT:;
#SUBTITLETRANSLIT:;
#ARTISTTRANSLIT:;
#GENRE:;
#CREDIT:;
#BANNER:COME CLEAN.png;
#BACKGROUND:COME CLEAN-bg.png;
#LYRICSPATH:;
#CDTITLE:;
#MUSIC:COME CLEAN.ogg;
#OFFSET:0.000000;
#SAMPLESTART:41.240002;
#SAMPLELENGTH:15.000000;
#SELECTABLE:YES;
#DISPLAYBPM:108.000000;
#BPMS:0.000000=108.433998
,4.000000=108.411003
;
#STOPS:
;
#BGCHANGES:;
#KEYSOUNDS:;
#ATTACKS:;

//---------------dance-single - ----------------
#NOTES:
     dance-single:
     :
     Beginner:
     3:
     0.119836,0.188741,0.079891,0.009986,0.000000,84.000000,76.000000,8.000000,1.000000,0.000000,0.000000,0.119836,0.188741,0.079891,0.009986,0.000000,84.000000,76.000000,8.000000,1.000000,0.000000,0.000000:
0000
0000
0000
0000
,
0000
0000
0000
0000
,
0010
0000
0000
0000
,
0001
0000
0001
0000
,
1000
0000
0000
0000
,
0100
0000
0000
0000
,
0100
0000
0000
0000
,
1000
0000
1000
0000
,
0001
0000
0000
0000
,
0010
0000
0001
0000
,
0010
0000
0001
0001
,
0001
0000
0100
0000
,
0001
0000
0100
0100
,
0100
0000
1000
0000
,
0100
0000
1000
1000
,
1000
0000
0001
0000
,
0010
0010
0010
0000
,
0010
0010
0010
0010
,
0000
0000
1001
1001
,
0000
1001
0000
1001
,
0000
0010
0000
0010
,
0000
0100
0000
1001
,
0000
0100
0000
0100
,
0000
0010
0000
1001
,
0000
0010
0010
0010
,
0000
0100
0000
1001
,
0000
0010
0000
0010
,
0010
0010
0000
0010
,
0010
0010
0020
0000
,
0000
0000
0000
0000
,
0000
0000
0000
0030
,
0000
0000
1000
0000
,
0000
0000
0010
0010
,
0000
0000
1000
1000
,
0000
0000
0001
0000
,
1000
0000
0100
0000
,
0100
0000
0010
0000
,
0000
0000
0001
0000
,
0100
0000
0100
0000
,
0000
0000
1000
0000
,
0010
0000
0010
0000
,
0000
0000
0100
0000
,
1001
0000
0000
0000
,
0000
0000
0000
0000
;

//---------------dance-single - ----------------
#NOTES:
     dance-single:
     :
     Easy:
     4:
     0.185460,0.230684,0.139808,0.039945,0.000000,130.000000,116.000000,14.000000,4.000000,0.000000,0.000000,0.185460,0.230684,0.139808,0.039945,0.000000,130.000000,116.000000,14.000000,4.000000,0.000000,0.000000:
0000
0000
0000
0000
,
0000
0000
0000
0000
,
0010
0000
0000
0000
,
0001
0000
0001
0001
,
1000
0000
1000
1000
,
0100
0000
0100
0001
,
0100
0000
0100
1000
,
1000
0000
1000
0001
,
0001
0000
0001
1000
,
0010
0000
0001
0100
,
0010
0000
0001
1001
,
0001
0000
0100
1000
,
0001
0000
0100
0110
,
0100
0000
1000
0010
,
0100
0000
1000
1001
,
1000
0000
0001
0000
,
0210
0010
0010
0000
,
0010
0010
0010
0310
,
0000
0000
1001
1001
,
0000
1001
0000
1001
,
1000
0010
1000
0010
,
0000
0100
0000
1001
,
0001
0100
0001
0100
,
0100
0010
0100
1001
,
0000
0010
0010
0010
,
0010
1000
0001
1001
,
0000
0010
0000
0210
,
0010
0010
0000
0010
,
0010
0010
0020
0000
,
0000
0000
0000
0000
,
0000
0000
0000
0330
,
0000
0000
1000
0000
,
1000
0001
0010
0010
,
1000
0001
1000
1000
,
0010
0100
0001
0001
,
0100
0000
0120
0100
,
0100
0130
0010
0000
,
1000
1000
0001
0000
,
0100
0100
0100
0000
,
0001
0001
1000
0000
,
0010
0010
0010
1000
,
0100
0001
0010
1000
,
1001
0000
0000
0000
,
0000
0000
0000
0000
;

//---------------dance-single - ----------------
#NOTES:
     dance-single:
     :
     Medium:
     7:
     0.295310,0.335540,0.389466,0.179754,0.000000,207.000000,168.000000,39.000000,18.000000,0.000000,0.000000,0.295310,0.335540,0.389466,0.179754,0.000000,207.000000,168.000000,39.000000,18.000000,0.000000,0.000000:
0000
0000
0000
0000
,
0000
0000
0000
0000
,
0010
0000
1100
0000
0100
1000
0001
0000
,
0001
0000
0110
0000
0001
1000
0001
0000
,
1000
0001
0100
0000
0001
1000
0100
0000
,
0010
0000
0101
0000
0100
0001
1000
0000
,
0100
0000
0010
0000
1000
0001
1000
0000
,
1000
0100
0010
0101
,
0001
0100
0000
0100
0000
0100
0000
0000
,
0010
0101
0010
1100
,
0010
0000
0001
0000
0100
0001
1100
0000
,
2010
0100
0001
3001
,
0001
1100
0200
0301
,
0020
0001
1000
0031
,
1000
0010
0100
0101
,
0010
0100
0001
1100
,
1000
0100
0010
0000
1000
0000
0001
0000
,
0010
0000
0110
0000
1001
0110
1001
0000
,
0200
0010
0010
0310
,
0000
1001
0100
0101
,
1000
0010
0100
0101
,
1000
0010
0100
0000
0001
1000
0100
0000
,
0010
1100
0010
0101
,
1000
0100
0010
0000
0100
0000
0101
0000
,
0010
0000
1000
0000
0100
0100
1100
0000
,
0010
0101
1000
1001
,
1000
0010
0101
0000
0020
0000
0100
0000
,
0100
0130
1000
0101
,
0010
1000
1100
0000
0120
0000
0000
0000
,
0000
2030
0200
0000
,
3000
0300
0002
0000
,
0003
1001
0010
0101
,
0010
1100
0010
0101
,
0010
0001
0100
0000
0010
0000
0010
0000
,
1000
0100
1100
0000
0010
0001
0010
0000
,
0001
0101
0020
2030
,
3200
0310
2002
0000
,
0003
0000
3001
0000
1000
0001
0010
0000
,
0100
0100
0220
0000
,
0030
0000
0300
0000
0010
0010
0100
0000
,
0001
0010
0100
1000
0000
0000
0010
0000
,
0100
1001
0220
0330
,
1001
0000
0000
0000
,
0000
0000
0000
0000
;

//---------------dance-single - ----------------
#NOTES:
     dance-single:
     :
     Hard:
     11:
     0.420852,0.445639,0.459371,0.119836,0.119836,295.000000,249.000000,46.000000,12.000000,0.000000,0.000000,0.420852,0.445639,0.459371,0.119836,0.119836,295.000000,249.000000,46.000000,12.000000,0.000000,0.000000:
0000
0000
0000
0000
,
0000
0000
0000
0000
,
0010
0000
1100
0000
0100
1000
0001
0000
,
0001
1000
0010
0000
0001
0010
0100
1000
,
1000
0001
0100
0010
1000
0001
0101
0000
,
0010
0102
0100
1003
,
0010
0100
2100
0000
0010
0000
3001
0000
,
1000
0100
0010
0001
0010
0100
1000
0000
,
0010
0001
0000
0000
0001
0100
0000
0000
0100
1000
0000
0000
1000
0010
0000
0000
,
0020
1000
0001
1030
,
0100
0010
0001
1000
0010
0100
2010
0000
,
0010
0000
0001
0000
0001
0000
3100
0001
,
0010
0100
1000
0001
0100
0010
1000
0001
,
0010
0000
0000
0000
0010
0000
0000
0000
1000
0001
0010
0000
0100
0000
0000
0000
,
0010
0000
0001
0000
0100
0000
0000
0000
1000
0010
0100
0000
0001
0000
0000
0000
,
0010
1000
1100
0000
0010
0001
0011
0000
,
1000
0100
0010
0001
1000
0001
0010
0001
,
1000
0000
0010
0100
0000
0000
0000
0000
1000
0000
0100
0000
0010
0000
0001
0000
,
1100
0000
0101
0000
1100
0101
1100
0000
,
0110
0000
1001
0000
0100
0010
0001
0000
,
1000
0000
0100
0000
0010
0000
0000
0000
0100
0010
0001
0000
1000
0000
0000
0000
,
0010
0000
0000
0000
1001
0000
0000
0000
0010
0100
0001
0000
1000
0000
0000
0000
,
0001
0000
0010
0000
0100
0000
0000
0000
1000
0100
0001
0000
1100
0000
0000
0000
,
0010
0000
0100
0000
1010
0000
0000
0000
0100
0010
1000
0000
0101
0000
0000
0000
,
0010
0000
0100
0000
1000
0000
1000
0000
0010
0100
0001
0000
0110
0000
0000
0000
,
0010
0000
0101
0000
0010
0010
1100
0000
,
0110
0000
0011
0000
0100
0000
0100
0010
,
0100
0001
0010
0100
1000
0010
0100
0010
,
0100
0001
0100
0001
1000
0100
1000
0100
0002
0000
0000
0000
0000
0000
0000
0000
,
0103
2000
3200
0001
,
1000
0320
0032
1000
,
0010
0000
1003
0000
0000
0001
1000
0010
,
0100
0000
0001
0000
1100
0000
0000
0000
0010
1000
0000
0000
0101
0000
0000
0000
,
1000
0000
0001
0000
1000
0000
0001
0100
0010
0100
0000
0000
0110
0000
0000
0000
,
0001
0000
1000
0000
0001
0000
1000
0100
0010
0001
0000
0000
1100
0000
0000
0000
,
1000
0000
0001
0000
1000
0000
0001
0100
0010
0000
1000
0000
0100
0000
0010
0000
,
0100
0001
1100
0000
0110
0101
0000
0000
,
1100
0000
1001
0000
1100
0101
0000
0000
,
1100
0000
0000
1001
0200
0010
0000
0000
,
1000
0000
0301
0000
1010
0011
0000
1100
,
0000
1001
0000
1100
0010
0011
0000
1100
,
0010
0000
1000
0001
0000
0000
0110
0000
1000
0000
0001
0010
0000
0000
0110
0000
,
2002
0000
3003
0000
,
0000
0000
0000
0000
;

//---------------dance-double - ----------------
#NOTES:
     dance-double:
     :
     Easy:
     4:
     0.159781,0.230684,0.159781,0.039945,0.000000,112.000000,96.000000,16.000000,4.000000,0.000000,0.000000,0.159781,0.230684,0.159781,0.039945,0.000000,112.000000,96.000000,16.000000,4.000000,0.000000,0.000000:
00000000
00000000
00000000
00000000
,
00000000
00000000
00000000
00000000
,
00011000
00000000
00000010
00000000
,
00000001
00000000
00000100
00000000
,
00000000
00000000
00001000
00000000
,
00100000
00000000
00000000
00000000
,
01000000
00000000
00010000
00000000
,
00001000
00000000
00000010
00000000
,
00000000
00000000
00001000
00010000
,
00100000
00000000
01000000
00010000
,
00001000
00000010
00000000
00000100
,
00001000
00000000
00010000
00000000
,
00011000
00000000
00010000
00001000
,
00000000
00000000
00000100
00001000
,
00010000
00100000
00000000
00000000
,
00010000
00001000
00010000
00001000
,
00010000
00100000
00000000
01000000
,
00000000
00010000
00001000
00000010
,
00001001
00000000
00000000
00000000
,
00000000
00011000
00100000
10000000
,
01000000
00100000
00010000
00000000
,
00000000
00011000
00000010
00000010
,
00000100
00000000
00001000
00011000
,
00100000
00000000
10000000
00000000
,
01000000
00100000
00010000
00001000
,
00000010
00000000
00000000
00001000
,
00001001
00011000
00000000
00000000
,
00100000
00100000
00000000
00000000
,
00000010
00000010
00022000
00000000
,
00000000
00000000
00000000
00000000
,
00000000
00033000
00000010
00000000
,
00000001
00000000
00000100
00000000
,
00001000
00000000
00010000
00000000
,
00100000
00000000
10000000
00000000
,
01000000
00000000
00011000
00000100
,
00001000
00010000
00100000
00000000
,
01000000
00010000
00011000
00000000
,
00001001
00000010
00000001
00000001
,
00000100
00001000
00011000
00000000
,
10010000
00100000
10000000
10000000
,
01000000
00010000
00022000
00000000
,
00000000
00000000
00000000
00033000
,
00011000
00000000
00000000
00000000
,
00000000
00000000
00000000
00000000
;

//---------------dance-double - ----------------
#NOTES:
     dance-double:
     :
     Medium:
     8:
     0.265351,0.356512,0.249658,0.179754,0.000000,186.000000,161.000000,25.000000,18.000000,0.000000,0.000000,0.265351,0.356512,0.249658,0.179754,0.000000,186.000000,161.000000,25.000000,18.000000,0.000000,0.000000:
00000000
00000000
00000000
00000000
,
00000000
00000000
00000000
00000000
,
00011000
00000100
00000001
00000100
,
00000010
00000001
00000100
00000001
,
00001000
00000001
00000100
00000010
00010000
00000000
00001000
00000000
,
00100000
00010000
10000000
00200000
,
00010000
00302000
00100000
00013000
,
00000010
00001000
00000001
00000020
,
00001000
00020030
00001000
00031000
,
00100000
10010000
01000000
00010000
,
00001000
00000010
00000100
00000001
,
00000010
00000001
00000100
00001000
,
00010000
00100000
01000000
00011000
,
00000010
00000110
00000001
00000010
,
00000200
00000001
00001000
00000310
,
00001000
00010000
00100000
01000000
,
11000000
00110000
00011000
00001001
,
00000001
00000010
00000100
00001000
00000001
00000010
00000100
00000000
,
00002002
00000000
00003003
00000000
00000010
00000100
00000100
00000000
,
00000000
00011000
00100000
10000000
,
01000000
00100000
00010000
00000000
00100000
00000000
01010000
00000000
,
00000000
00011000
00000010
00000001
,
00000100
00000010
00001000
00000000
00000010
00000000
00001000
00000000
,
00000000
00000000
00011000
00000000
00100000
01000000
10010000
00000000
,
01000000
00010000
00100000
01000000
,
10000000
01000000
00100000
00010000
00001000
00000000
00001100
00000000
,
00001000
00000000
00010000
00000000
00000000
00000000
00100000
00010000
,
01000000
00000000
10000000
00000000
00100000
10000000
01000000
00010000
,
00100000
00010000
01000000
00000000
00022000
00000000
00000000
00000000
,
00000000
00000000
00000000
00000000
,
00033000
00001010
00000002
00000023
,
00002030
00023000
02030000
23000000
,
00200000
00000000
30300000
00000000
10010000
00000000
00100000
00100000
,
10000000
01010000
00100000
00001000
,
00010000
00000010
00001001
00000010
,
00000001
00001100
00000010
00000100
,
00001000
00010000
00022000
00000000
,
00000000
00033000
00000010
00000100
,
00001000
00100000
00001000
01000000
,
01000000
00010000
00100000
01000000
,
00010000
00000010
00011000
00000100
,
00000010
00000001
00001001
00000000
,
00011000
00000000
00000000
00000000
,
00000000
00000000
00000000
00000000
;

//---------------dance-double - ----------------
#NOTES:
     dance-double:
     :
     Hard:
     10:
     0.370920,0.398454,0.439398,0.299590,0.000000,260.000000,216.000000,44.000000,30.000000,0.000000,0.000000,0.370920,0.398454,0.439398,0.299590,0.000000,260.000000,216.000000,44.000000,30.000000,0.000000,0.000000:
00000000
00000000
00000000
00000000
,
00000000
00000000
00000000
00000000
,
00011000
00000000
00000100
00000010
00000002
00000000
00000103
00000000
,
00000020
00000001
00000130
00001100
,
00001000
00000001
00000100
00000010
00020000
00000000
00031000
00000000
,
00100000
00000000
01010000
00000000
10000000
01000000
00100000
00200000
,
00000000
00010000
00300000
00002000
00000000
00100000
00003000
00010000
,
00000010
00001000
00000001
00000000
00000100
00000010
00000101
00000000
,
00001000
00000000
00110000
00020000
00000000
00000000
01030000
00000000
,
00100000
00000000
10010000
00000000
11000000
00100000
00010000
00000000
,
00001000
00000010
00000100
00000001
00000001
00000100
00000110
00001000
,
00011000
00000000
00200000
00000000
02300000
00000000
03001000
00010000
,
00001000
00000000
00001020
00000100
00000000
00000130
00000000
00001000
,
00000010
00000100
00000001
00000001
00000011
00000100
00001000
00000200
,
00000000
00000001
00000000
00001000
00000000
00000010
00000300
00001000
,
00010000
00100000
11000000
00000000
00010000
01000000
00100000
20000000
,
00000000
31000000
00100000
00010000
00001000
00000100
00000010
00000002
,
00000000
00000013
00000110
00001100
00000001
00000010
00001100
00000000
,
00002002
00000000
00003003
00000000
00000010
00000001
00000100
00001000
,
00000000
00000000
00011000
00000000
00200000
01000000
00300000
10000000
,
01000000
00100000
00110000
01000000
11000000
00000000
01010000
00000000
,
00010000
00100000
00011000
00000000
00000020
00000100
00000030
00000100
,
00000100
00000000
00011000
00000000
00100000
00100000
10000000
01000000
,
10000000
00000000
20100000
00000000
00000000
01000000
30000000
00010000
,
01000000
00010000
10000000
01000000
00100000
00010000
00001100
00000000
,
00001010
00000000
00000102
00000100
00000000
00000100
00000003
00000100
,
00001000
00000000
00010000
00000000
00000000
00000000
00100000
00010000
,
01000000
00100000
10000000
10000000
01000000
00100000
00010000
00001000
,
00000100
00001000
01000000
00000000
00022000
00000000
00000000
00000000
,
00000000
00033000
01000000
00010000
,
00000100
00001010
00000002
00000023
,
00002030
00023000
02030000
23000000
,
00200000
00000000
30300000
00000000
10000000
01000000
10000000
00000000
,
00010000
00100000
11000000
00000000
00100000
00100000
00010000
00010000
,
00001000
00001000
00000100
00000000
00000001
00001000
00001010
00000001
,
00000110
00000001
00000100
00000010
00000100
00001000
00000101
00000000
,
00001100
00010000
00011000
00000000
,
00002000
00000001
00000000
00003001
00000010
00000100
00001010
00000000
,
00000001
00000100
00000101
00000000
00011000
00000000
00010000
00000000
,
00100000
00010000
10100000
00000000
01000000
10000000
00110000
00000000
,
10000000
00100000
01010000
00000000
00011000
00000100
00001100
00000000
,
00000010
00000100
00001000
00000001
00002002
00000000
00003003
00000000
,
00011000
00000000
00000000
00000000
,
00000000
00000000
00000000
00000000
;

//---------------dance-single - ----------------
#NOTES:
     dance-single:
     :
     Challenge:
     13:
     0.579206,0.700291,0.209713,0.239672,0.554241,406.000000,385.000000,21.000000,24.000000,0.000000,0.000000,0.579206,0.700291,0.209713,0.239672,0.554241,406.000000,385.000000,21.000000,24.000000,0.000000,0.000000:
// measure 0
0000
0000
0000
0000
,  // measure 1
0000
0000
0000
0000
,  // measure 2
0100
0000
0010
0000
1000
0000
0100
0000
0010
0000
0001
0010
0100
0000
0010
0000
,  // measure 3
0001
0000
0010
0000
0100
0000
1000
0000
0010
0000
0100
0010
0001
0000
1000
0000
,  // measure 4
0100
0000
0001
0000
0010
0000
0100
0000
2000
0000
3001
0010
0200
0000
0310
0000
,  // measure 5
0012
0000
0100
0000
0010
0000
1003
0100
,  // measure 6
2100
0000
0000
0000
3010
0000
0000
0010
0001
0000
0010
0000
1000
0000
0100
0000
,  // measure 7
0120
0000
0000
0000
0031
0000
0000
0001
0100
0000
0010
0000
0001
0000
1000
0000
,  // measure 8
1200
0000
0000
0000
0310
0000
0000
0010
0100
0000
0010
0100
0010
0000
0001
0000
,  // measure 9
0200
0000
0000
1300
0100
0000
0010
0000
0001
0000
0000
0001
0010
0000
0100
0000
,  // measure 10
2000
0000
3001
0000
0100
0000
0001
0000
0010
0000
0001
0100
0001
0000
0010
0000
,  // measure 11
1000
0000
0000
1000
0100
0000
0010
0000
0100
0000
0000
0100
0001
0000
1000
0000
,  // measure 12
0001
0010
0001
0010
0100
1000
0100
1000
0010
0000
0100
0000
0001
0000
1000
0000
,  // measure 13
1100
0000
0100
0000
0001
0000
0100
0000
0010
0000
0100
1000
0100
0000
1000
0000
,  // measure 14
0000
1100
0000
1010
0000
0011
0001
0100
,  // measure 15
0010
1000
0010
0000
0100
0000
0010
0000
1000
0100
1000
0000
0100
0000
0010
0000
,  // measure 16
0001
0010
0001
0010
0001
0000
0100
0000
0010
1000
0010
1000
0010
0000
0100
0010
,  // measure 17
1000
0001
0100
0010
1000
0001
1000
0100
0010
0001
1000
0100
0010
0001
0100
0000
,  // measure 18
2002
0000
0000
0000
0000
0000
3003
0000
0001
0010
0100
1000
0001
0100
0010
1000
,  // measure 19
0100
0000
0000
0100
1000
0000
0000
1000
0001
0000
0100
0000
0101
0000
0001
0010
,  // measure 20
0001
0000
0010
0000
0100
0000
1000
0000
0001
0000
0100
0010
0100
0000
0010
0000
,  // measure 21
1000
0000
0000
1000
0100
0000
0000
0100
0010
0000
0001
0000
1001
0000
1000
0001
,  // measure 22
1000
0000
0100
0000
0000
0000
0101
0000
0000
0000
0001
0010
0001
0000
0100
0000
,  // measure 23
0010
1000
0002
0103
0020
0130
1000
0100
,  // measure 24
0000
0000
1001
0000
0000
0000
0110
0000
0000
0000
0010
0100
0010
0000
1000
0000
,  // measure 25
0001
0000
0100
0001
0100
0000
0010
0000
1000
0000
0100
1000
0100
0000
0010
0000
,  // measure 26
0001
0100
0001
0000
1000
0000
0100
0010
0001
1000
0010
0100
0001
1000
0100
0010
,  // measure 27
0001
0010
0100
1000
0010
0001
0010
0100
1000
0001
0010
0100
1000
0100
0010
0001
,  // measure 28
0100
0010
1000
0100
0010
0001
0100
0010
2000
0000
0000
0000
0001
0000
0000
0000
,  // measure 29
3200
0000
0000
0001
0302
0000
0000
0010
,  // measure 30
0013
0000
0000
0010
0100
0000
0010
0000
2000
0000
0000
3100
1000
0000
0010
0000
,  // measure 31
0002
0000
0000
0103
0001
0000
0010
0000
0200
0000
0000
0310
0100
0000
0010
0000
,  // measure 32
1000
0100
0010
0001
1000
0010
0100
0001
0020
0000
0000
0000
1000
0000
0000
0000
,  // measure 33
0230
0010
2300
0100
,  // measure 34
3002
0000
0010
0000
0103
0001
0010
0100
,  // measure 35
1000
0000
0001
0000
0100
0000
0010
0000
1000
0100
0010
0001
1000
0010
0100
0001
,  // measure 36
0010
0100
1000
0001
0100
0010
1000
0000
1010
0000
1001
0000
0001
0010
0100
1000
,  // measure 37
0100
0000
0000
0000
1100
0000
1000
0100
0010
0001
1000
0010
0100
0001
0010
0100
,  // measure 38
1000
0100
0010
0001
0100
0010
1000
0100
0010
0000
0011
0000
0001
0100
0001
0000
,  // measure 39
0100
0010
0100
0000
1001
0000
1000
0100
0010
0001
1000
0010
0100
0001
0010
0100
,  // measure 40
1000
0000
1001
0000
0001
0010
0100
0001
0100
0010
1000
0100
0010
0001
1000
0001
,  // measure 41
0010
0100
1000
0100
0010
0001
0100
0010
1000
0100
1000
0100
0010
0001
0010
0001
,  // measure 42
2002
0000
3003
0000
;
