#VERSION:0.83;
#TITLE:CENTERFOLD(130BPM move it remix);
#SUBTITLE:;
#ARTIST:CAPTAIN JACK;
#TITLETRANSLIT:;
#SUBTITLETRANSLIT:;
#ARTISTTRANSLIT:;
#GENRE:;
#ORIGIN:;
#CREDIT:;
#BANNER:CENTERFOLD(130BPM move it remix).png;
#BACKGROUND:CENTERFOLD(130BPM move it remix)-bg.png;
#PREVIEWVID:;
#JACKET:CENTERFOLD(130BPM move it remix)-jacket.png;
#CDIMAGE:;
#DISCIMAGE:;
#LYRICSPATH:;
#CDTITLE:;
#MUSIC:CENTERFOLD(130BPM move it remix).ogg;
#OFFSET:0.000000;
#SAMPLESTART:52.099998;
#SAMPLELENGTH:15.000000;
#SELECTABLE:YES;
#BPMS:0.000=129.000;
#STOPS:;
#DELAYS:;
#WARPS:;
#TIMESIGNATURES:0.000=4=4;
#TICKCOUNTS:0.000=4;
#COMBOS:0.000=1;
#SPEEDS:0.000=1.000=0.000=0;
#SCROLLS:0.000=1.000;
#FAKES:;
#LABELS:0.000=Song Start;
#BGCHANGES:;
#KEYSOUNDS:;
#ATTACKS:
;

//---------------dance-single - ----------------
#NOTEDATA:;
#CHARTNAME:;
#STEPSTYPE:dance-single;
#DESCRIPTION:;
#CHARTSTYLE:;
#DIFFICULTY:Beginner;
#METER:3;
#RADARVALUES:0.146626,0.153958,0.021608,0.000000,0.000000,95.000000,93.000000,2.000000,0.000000,0.000000,0.000000,0.000000,0.000000,0.000000,0.146626,0.153958,0.021608,0.000000,0.000000,95.000000,93.000000,2.000000,0.000000,0.000000,0.000000,0.000000,0.000000,0.000000;
#CREDIT:;
#NOTES:
0000
0000
0000
0000
,
0000
0000
0000
0000
,
0010
0010
0010
0000
,
0100
0000
0010
0000
,
1000
0000
1000
0000
,
0100
0000
0010
0000
,
1000
0000
1000
0000
,
0100
0000
0100
0000
,
0010
0000
0010
0000
,
1000
0000
0001
0000
,
0010
0000
0100
0000
,
0010
0000
1001
0000
,
0010
0000
0010
0000
,
1000
0000
0001
0000
,
0010
0000
0100
0000
,
0010
0000
1001
0000
,
1000
0000
0001
0000
,
0100
0000
0010
0000
,
1000
0000
0001
0000
,
0100
0000
0010
0000
,
1000
0000
1000
0000
,
0001
0000
1000
0000
,
0010
0000
0100
0000
,
0010
0000
1000
0000
,
0010
0000
0010
0000
,
0001
0000
1000
0000
,
0010
0000
0100
0000
,
1000
0000
0001
0000
,
0001
0000
0001
0000
,
1000
0000
0010
0000
,
1000
0000
1000
0000
,
0001
0000
0010
0000
,
0100
0000
0100
0000
,
0010
0000
0001
0000
,
1000
0000
1000
0000
,
0001
0000
0100
0000
,
0010
0000
0010
0000
,
0001
0000
1000
0000
,
0010
0000
0100
0000
,
0010
0000
1000
0000
,
0010
0000
0010
0000
,
0001
0000
1000
0000
,
0010
0000
0100
0000
,
1000
0000
0001
0000
,
0001
0000
0001
0000
,
1000
0000
0010
0000
,
1000
0000
1000
0000
,
0001
0000
0010
0000
,
0000
0000
0000
0000
;

//---------------dance-single - ----------------
#NOTEDATA:;
#CHARTNAME:;
#STEPSTYPE:dance-single;
#DESCRIPTION:;
#CHARTSTYLE:;
#DIFFICULTY:Easy;
#METER:4;
#RADARVALUES:0.200646,0.232152,0.064824,0.000000,0.000000,130.000000,124.000000,6.000000,0.000000,0.000000,0.000000,0.000000,0.000000,0.000000,0.200646,0.232152,0.064824,0.000000,0.000000,130.000000,124.000000,6.000000,0.000000,0.000000,0.000000,0.000000,0.000000,0.000000;
#CREDIT:;
#NOTES:
0000
0000
0000
0000
,
0000
0000
0000
0000
,
0010
0010
0010
1001
,
0100
0000
0010
0000
,
1000
0001
1000
0001
,
0100
0000
0010
0000
,
1000
0001
1000
0001
,
0100
0000
0100
0000
,
0010
0000
0010
0000
,
1000
0100
0001
0000
,
0010
0000
0100
0000
,
0010
0000
1001
0000
,
0010
0000
0010
0000
,
1000
0100
0001
0000
,
0010
0000
0100
0000
,
0010
0000
1001
0000
,
1000
0000
0001
0000
,
0100
0000
0010
0100
,
1000
0000
0001
0000
,
0100
0000
0010
0100
,
1000
0001
1000
0000
,
0001
0000
1000
0000
,
0010
0000
0100
0000
,
0010
0000
1000
0001
,
0010
0100
0010
0000
,
0001
0000
1000
0000
,
0010
0000
0100
0010
,
1000
0000
0001
1000
,
0001
0000
0001
0000
,
1000
0100
0010
0001
,
1000
0000
1000
0000
,
0001
0100
0010
1001
,
0100
0000
0100
0000
,
0010
1000
0001
0100
,
1000
0000
1000
0000
,
0001
0010
0100
1001
,
0010
0100
0010
0000
,
0001
0000
1000
0000
,
0010
0000
0100
0000
,
0010
0000
1000
0001
,
0010
0100
0010
0000
,
0001
0000
1000
0000
,
0010
0000
0100
0010
,
1000
0000
0001
1000
,
0001
0000
0001
0000
,
1000
0100
0010
0001
,
1000
0000
1000
0000
,
0001
0100
0010
1001
,
0000
0000
0000
0000
;

//---------------dance-single - ----------------
#NOTEDATA:;
#CHARTNAME:;
#STEPSTYPE:dance-single;
#DESCRIPTION:;
#CHARTSTYLE:;
#DIFFICULTY:Medium;
#METER:7;
#RADARVALUES:0.328751,0.335330,0.064824,0.000000,0.000000,213.000000,207.000000,6.000000,0.000000,0.000000,0.000000,0.000000,0.000000,0.000000,0.328751,0.335330,0.064824,0.000000,0.000000,213.000000,207.000000,6.000000,0.000000,0.000000,0.000000,0.000000,0.000000,0.000000;
#CREDIT:;
#NOTES:
0000
0000
0000
0000
,
0000
0000
0000
0000
,
0010
0100
0010
1001
,
1000
0000
0100
0000
0010
0001
0100
0000
,
0010
1000
0100
0000
1000
0000
0001
0010
,
0100
0000
1000
0000
0001
0100
0010
0000
,
1000
0100
0010
0000
0001
0000
1000
0000
,
0100
0000
0100
0000
,
1000
0100
0000
0000
0001
0100
0000
0000
,
1000
0000
0001
0010
0100
0000
0000
0000
,
1000
0000
0001
0000
1000
0100
0010
0000
,
0001
0000
1000
0010
0100
0000
0000
0000
,
1000
0100
0000
0000
0001
0100
0000
0000
,
1000
0000
0010
0100
0001
0000
0000
0000
,
1000
0000
0001
0000
0010
0100
1000
0000
,
0001
0000
1000
0010
0100
0000
0000
0000
,
0001
0000
0010
0000
0100
0000
1000
0010
,
0100
0001
1000
0000
,
0001
0000
0010
0000
0100
0000
1000
0010
,
0100
0001
1000
0000
,
0010
0100
0000
1001
0000
0000
0000
0000
,
1000
0000
0001
0100
0010
0000
1000
0000
,
0001
0010
0100
0000
1000
0000
0000
0000
,
0001
0000
1000
0000
0010
0100
0000
0000
,
0001
1000
0000
0110
0000
0000
0000
0000
,
1000
0000
0001
0010
0100
0000
1000
0000
,
0001
0000
0100
0000
1000
0100
0010
0000
,
0001
0000
1000
0000
0010
0100
0000
0000
,
0001
0000
1000
0000
0001
0010
0100
0000
,
1000
0010
0100
0000
0001
0000
1000
0100
,
0001
0000
1000
0000
0001
0100
1000
0000
,
0001
0010
0100
0000
1000
0000
0010
0100
,
0001
0000
1000
0000
0100
0010
0001
0000
,
1000
0010
0100
0000
0001
0000
1000
0100
,
0001
0000
1000
0000
0001
0100
1000
0000
,
0001
0010
0100
0000
1000
0000
0001
0000
,
0100
0010
0000
1001
0000
0000
0000
0000
,
0001
0000
1000
0010
0100
0000
0001
0000
,
1000
0100
0010
0000
0001
0000
0000
0000
,
1000
0000
0001
0000
0100
0010
0000
0000
,
1000
0001
0000
0110
0000
0000
0000
0000
,
0001
0000
1000
0100
0010
0000
0001
0000
,
1000
0000
0010
0000
0001
0010
0100
0000
,
1000
0000
0001
0000
0100
0010
0000
0000
,
1000
0000
0001
0000
1000
0100
0010
0000
,
0001
0100
0010
0000
1000
0000
0001
0010
,
1000
0000
0001
0000
1000
0010
0001
0000
,
1000
0000
0100
0010
0100
0000
1001
0000
,
0000
0000
0000
0000
;

//---------------dance-single - ----------------
#NOTEDATA:;
#CHARTNAME:;
#STEPSTYPE:dance-single;
#DESCRIPTION:;
#CHARTSTYLE:;
#DIFFICULTY:Hard;
#METER:10;
#RADARVALUES:0.424444,0.412714,0.075628,0.000000,0.097236,275.000000,268.000000,7.000000,0.000000,0.000000,0.000000,0.000000,0.000000,0.000000,0.424444,0.412714,0.075628,0.000000,0.097236,275.000000,268.000000,7.000000,0.000000,0.000000,0.000000,0.000000,0.000000,0.000000;
#CREDIT:;
#NOTES:
0000
0000
0000
0000
,
0000
0000
0000
0000
,
1000
0100
0010
1001
,
1000
0000
0000
0000
0001
0000
0000
1000
0100
0000
0010
0000
0100
0000
0000
0000
,
1000
0000
0010
0000
0100
0000
0001
1000
0001
0000
0100
0000
0010
0000
1000
0000
,
0100
0000
0000
0000
0010
0000
0000
0001
1000
0000
0100
0000
0010
0000
0000
0000
,
0001
0000
0100
0000
0010
0000
1000
0001
1000
0000
0100
0000
0010
0000
0000
0000
,
0001
0100
0000
0000
1000
0100
0000
0000
,
0001
0100
0001
0000
1000
0100
1000
0000
,
1000
0100
0010
0001
1000
0000
0000
0000
,
0001
0100
0010
1000
0100
0010
0001
0000
,
1000
0100
1000
0010
0100
0000
0000
0000
,
0001
0010
0001
0000
1000
0010
1000
0000
,
0001
0010
0100
1000
0001
0000
0000
0000
,
1000
0010
0100
0001
0010
0100
0010
0000
,
0001
0000
1000
0100
0010
0000
0000
0000
,
0001
0100
0001
0000
1000
0000
0001
0100
,
0010
0001
1000
0000
,
1000
0100
1000
0000
0001
0000
1000
0100
,
0010
1000
0001
0000
,
0010
0100
0000
1001
0000
0000
0000
0000
,
1000
0100
0000
0100
0010
0001
1000
0000
,
0001
0100
0010
0000
1000
0100
0000
0000
,
0001
0010
0100
0000
1000
0010
0000
0000
,
0100
0010
0000
1001
0000
0000
0110
0000
,
1000
0001
0000
0001
1000
0100
0010
0000
,
0001
0000
0000
0000
1000
0000
0000
0001
0100
0000
0010
0000
0100
0000
0000
0000
,
0001
0010
0100
0000
1000
0010
0000
0000
,
0001
0000
0000
0000
1000
0000
0000
0001
0100
0000
0010
0000
0100
0000
0000
0000
,
0001
0000
0010
0000
0100
0000
1000
0001
1000
0000
0100
0000
0010
0000
0001
0000
,
0100
0000
0000
0000
0010
0000
0000
1000
0001
0000
0100
0000
0010
0000
0000
0000
,
1000
0000
0100
0000
0010
0000
0001
1000
0001
0000
0100
0000
0010
0000
1000
0000
,
0100
0000
0000
0000
0010
0000
0000
0001
1000
0000
0100
0000
0010
0000
0000
0000
,
0001
0000
0100
0000
0010
0000
1000
0100
1000
0000
0001
0000
0100
0000
0010
0000
,
1000
0000
0000
0000
0001
0000
0000
0010
0100
0000
1000
0000
0001
0000
0000
0000
,
0100
0000
0010
0000
0100
0000
0001
1000
0001
0000
0100
0000
0010
0000
0000
0000
,
1000
0001
0000
0110
0000
0000
0000
0000
,
0001
0010
0000
0010
0100
1000
0001
0000
,
1000
0010
0100
0000
0001
0010
0000
0000
,
1000
0100
0010
0000
0001
0100
0000
0000
,
0010
0100
0000
1001
0000
0000
0110
0000
,
0001
1000
0000
1000
0001
0010
0100
0000
,
1000
0000
0000
0000
0001
0000
0000
1000
0010
0000
0100
0000
0010
0000
0000
0000
,
1000
0100
0010
0000
0001
0100
0000
0000
,
1000
0000
0000
0000
0001
0000
0000
1000
0100
0000
0010
0000
0100
0000
0000
0000
,
1000
0000
0010
0000
0100
0000
0001
1000
0001
0000
0100
0000
0010
0000
1000
0000
,
0100
0000
0000
0000
0010
0000
0000
0001
0100
0000
0010
0000
1000
0000
0000
0000
,
0001
0000
0010
0000
0100
0000
1000
0001
1000
0000
0100
0000
0010
0000
0000
0000
,
0000
0000
0000
0000
;

//---------------dance-double - ----------------
#NOTEDATA:;
#CHARTNAME:;
#STEPSTYPE:dance-double;
#DESCRIPTION:;
#CHARTSTYLE:;
#DIFFICULTY:Easy;
#METER:3;
#RADARVALUES:0.166691,0.232152,0.010804,0.000000,0.000000,108.000000,107.000000,1.000000,0.000000,0.000000,0.000000,0.000000,0.000000,0.000000,0.166691,0.232152,0.010804,0.000000,0.000000,108.000000,107.000000,1.000000,0.000000,0.000000,0.000000,0.000000,0.000000,0.000000;
#CREDIT:;
#NOTES:
00000000
00000000
00000000
00000000
,
00000000
00000000
00000000
00000000
,
00010000
00001000
00010000
00011000
,
00100000
00000000
00100000
00010000
,
10000000
00000000
01000000
00000000
,
00010000
00000000
00001000
00010000
,
00000010
00000000
00000010
00000000
,
00001000
00000000
00000100
00000000
,
00010000
00000000
00010000
00000000
,
00001000
00010000
00000010
00000000
,
00001000
00000000
00000001
00000000
,
00000100
00001000
00010000
00000000
,
00000010
00000000
00000010
00000000
,
00001000
00000001
00000010
00000000
,
00000100
00000000
00010000
00000000
,
00001000
00100000
00010000
00000000
,
10000000
00000000
00000000
00000000
,
00010000
00000000
01000000
00000000
,
00001000
00000000
00000000
00000000
,
00010000
00000000
00000010
00000000
,
00001000
00000000
00000001
00000000
,
00001000
00000000
00000100
00000000
,
00010000
00000000
00001000
00000000
,
00100000
00000000
00010000
00000000
,
10000000
00000000
00010000
00000000
,
01000000
00000000
00001000
00000000
,
00010000
00000000
00001000
00100000
,
00010000
00000000
01000000
00000000
,
00100000
00000000
00100000
10000000
,
01000000
00000000
00010000
00000000
,
00001000
00000000
00001000
00010000
,
00000010
00000000
00001000
00000000
,
00000001
00000000
00000010
00000100
,
00001000
00000000
00000001
00000000
,
00000100
00000000
00001000
00010000
,
00100000
00000000
10000000
00000000
,
01000000
00000000
00100000
00000000
,
00010000
00000000
10000000
00000000
,
01000000
00000000
00010000
00000000
,
00001000
00000000
00000100
00000000
,
00000001
00000000
00001000
00000000
,
00001000
00000000
00000001
00000000
,
00000100
00000000
00001000
00010000
,
01000000
00000000
00100000
00000000
,
00010000
00000000
10000000
00010000
,
01000000
00000000
00001000
00000000
,
00010000
00000000
00000010
00001000
,
00000100
00000000
00010000
00001000
,
00000000
00000000
00000000
00000000
;

//---------------dance-double - ----------------
#NOTEDATA:;
#CHARTNAME:;
#STEPSTYPE:dance-double;
#DESCRIPTION:;
#CHARTSTYLE:;
#DIFFICULTY:Medium;
#METER:7;
#RADARVALUES:0.331838,0.309536,0.000000,0.000000,0.000000,215.000000,215.000000,0.000000,0.000000,0.000000,0.000000,0.000000,0.000000,0.000000,0.331838,0.309536,0.000000,0.000000,0.000000,215.000000,215.000000,0.000000,0.000000,0.000000,0.000000,0.000000,0.000000,0.000000;
#CREDIT:;
#NOTES:
00000000
00000000
00000000
00000000
,
00000000
00000000
00000000
00000000
,
00000000
01000000
00000000
00001000
00000000
00010000
00000010
00001000
,
00000000
00000001
00000000
00000010
00000000
00000100
00000000
00001000
,
00000000
00000010
00000000
00010000
00000000
00001000
00000000
01000000
,
00000000
00010000
00000000
10000000
00000000
01000000
00000000
00100000
,
00000000
00010000
00000000
10000000
00000000
01000000
00010000
00001000
,
00000100
00000001
00000000
00001000
00000100
00001000
00000000
00000001
,
00000000
00000100
00000000
00000100
00000000
00000010
00000000
00000010
,
00000000
00001000
00000000
00000001
00000000
00000100
00000000
00001000
,
00000000
00010000
00000000
01000000
00000000
10000000
00000000
00010000
,
00000000
10000000
00000000
00100000
00000000
01000000
00100000
00000000
,
00000000
10000000
00000000
10000000
00000000
00010000
00000000
00010000
,
00000000
01000000
00000000
00001000
00000000
00010000
00000000
00000010
,
00000000
00001000
00000000
00000100
00000000
00000010
00000000
00000001
,
00000000
00001000
00000000
00000010
00000000
00000100
00000010
00000000
,
00000000
00001000
00000000
00000100
00000000
00010000
00000000
00001000
,
00000000
00100000
00000000
00010000
10000000
00100000
01000000
00010000
,
00000000
10000000
00000000
01000000
00000000
00100000
00000000
00010000
,
00000000
01000000
00000000
00001000
00010000
00000010
00001000
00000001
,
00000000
00000010
00000000
00000010
00000000
00000100
00001000
00000100
,
00000000
00010000
00000000
00010000
00000000
00001000
00100000
00001000
,
00000000
00010000
00000000
00010000
00000000
00000010
00001000
00000010
,
00000000
00000100
00000000
00000100
00000000
00001000
00010000
00001000
,
00000000
00100000
00000000
00100000
00000000
00010000
01000000
00010000
,
00000000
10000000
00000000
10000000
00000000
01000000
00100000
01000000
,
00000000
00100000
00000000
00010000
00000000
01000000
00001000
00010000
,
00000000
00000010
00000000
00000010
00000000
00001000
00000100
00001000
,
00000000
00000010
00000000
00000001
00000000
00000100
00000000
00001000
,
00000000
00010000
00000000
01000000
00000000
10000000
00000000
00010000
,
00000000
01000000
00000000
00100000
00000000
10000000
00000000
01000000
,
00000000
00010000
00000000
00001000
00000000
00000100
00000001
00000010
,
00000000
00000100
00000000
00010000
00000000
00001000
00000000
00100000
,
00000000
00010000
00000000
10000000
00000000
00100000
00000000
01000000
,
00000000
00010000
00000000
10000000
00000000
01000000
00000000
00010000
,
00000000
00001000
00000000
00000100
00000000
00000001
00000010
00000001
,
00000000
00001000
00000000
00001000
00000000
00000100
00010000
00000100
,
00000000
00001000
00000000
00001000
00000000
00000010
00000100
00000010
,
00000000
00001000
00000000
00001000
00000000
00000001
00000010
00000001
,
00000000
00000100
00000000
00000100
00000000
00001000
00010000
00001000
,
00000000
00100000
00000000
00100000
00000000
00010000
01000000
00010000
,
00000000
10000000
00000000
10000000
00000000
01000000
00100000
01000000
,
00000000
10000000
00000000
00010000
00000000
01000000
00100000
10000000
,
00000000
01000000
00000000
01000000
00000000
00010000
00001000
00010000
,
00000010
00000000
00000010
00000000
00001000
00000100
00000010
00000000
,
00000001
00000000
00001000
00000000
00000010
00000100
00001000
00010000
,
01000000
00000000
01000000
00000000
10000000
00010000
01000000
00000000
,
00100000
00000000
00010000
00000000
00001000
00000010
00000001
00000000
,
00000000
00000000
00000000
00000000
;

//---------------dance-double - ----------------
#NOTEDATA:;
#CHARTNAME:;
#STEPSTYPE:dance-double;
#DESCRIPTION:;
#CHARTSTYLE:;
#DIFFICULTY:Hard;
#METER:9;
#RADARVALUES:0.405923,0.386920,0.075628,0.032412,0.048618,263.000000,256.000000,7.000000,3.000000,0.000000,0.000000,0.000000,0.000000,0.000000,0.405923,0.386920,0.075628,0.032412,0.048618,263.000000,256.000000,7.000000,3.000000,0.000000,0.000000,0.000000,0.000000,0.000000;
#CREDIT:;
#NOTES:
00000000
00000000
00000000
00000000
,
00000000
00000000
00000000
00000000
,
10000000
01000000
00010000
00011000
,
00000100
00000000
00000100
00001000
00000010
00000100
00000001
00000000
,
00001000
00000100
00000010
00000000
00000001
00001000
00000010
00000100
,
00000001
00000000
00000001
00001000
00000100
00000010
00000001
00000000
,
00000100
00001000
00010000
00000000
00010000
00001000
00000100
00000000
,
00000001
00000010
00000000
00000000
00000100
00001000
00000000
00000000
,
00000001
00000000
00000000
00000100
00000000
00000000
00001000
00000000
00000000
00000000
00010000
00000000
00001000
00000000
00000000
00000000
,
00100000
00000000
00000000
00010000
00000000
00000000
10000000
00000000
00000000
00000000
00100000
00000000
10000000
00000000
00000000
00000000
,
10000000
00000000
00000000
01000000
00000000
00000000
00010000
00000000
00000000
00000000
00001000
00000000
00010000
00000000
00000000
00000000
,
00000010
00000000
00000000
00001000
00000000
00000000
00000001
00000000
00000000
00000000
00000010
00000000
00000001
00000000
00000000
00000000
,
00001000
00000000
00000000
00000100
00000000
00000000
00010000
00000000
00000000
00000000
00001000
00000000
00100000
00000000
00000000
00000000
,
00010000
00000000
00000000
01000000
00000000
00000000
00100000
00000000
00000000
00000000
10000000
00000000
00010000
00000000
00000000
00000000
,
00010000
00000000
00000000
01000000
00000000
00000000
00001000
00000000
00000000
00000000
00010000
00000000
00000010
00000000
00000000
00000000
,
00001000
00000000
00001000
00000100
00000010
00000000
00000000
00000000
,
00000002
00000000
00000000
00000003
,
00002000
00003000
00010100
00011000
,
00101000
00000000
00000000
00000000
,
02000000
03000000
10010000
01100000
,
10010000
00000000
10000000
01000000
00000000
00100000
00100000
00000000
,
00010000
01000000
00100000
10000000
01000000
00100000
00100000
00000000
,
00010000
01000000
00001000
00010000
00000010
00001000
00001000
00000000
,
00000100
00000010
00000001
00000100
00000010
00001000
00001000
00000000
,
00000001
00000010
00000100
00001000
00000000
00000010
00000010
00000000
,
00000100
00001000
00010000
00000000
01000000
10000000
00010000
00000000
,
00010000
00000000
00000000
00000000
10000000
00000000
00000000
00010000
01000000
00000000
00100000
00000000
00100000
00000000
00000000
00000000
,
10000000
01000000
00010000
00000000
00001000
00010000
00000000
00000000
,
00000010
00000000
00001000
00000001
00000010
00000100
00001000
00000000
,
00000001
00000100
00001000
00000000
00000001
00000010
00000100
00001000
,
00000010
00000000
00010000
00001000
01000000
00010000
10000000
00000000
,
10000000
01000000
00010000
00000000
10000000
00100000
01000000
00010000
,
10000000
00000000
01000000
00010000
00001000
00000100
00000001
00000000
,
00000001
00000010
00001000
00000000
00000001
00000100
00000010
00001000
,
00000100
00000000
00010000
00001000
00100000
00010000
10000000
00000000
,
10000000
00100000
00010000
00000000
10000000
01000000
00010000
00000000
,
00001000
00000100
00000010
00001000
00000000
00000001
00000001
00000000
,
00000010
00000100
00001000
00000010
00000100
00000001
00000001
00000000
,
00001000
00000100
00010000
00001000
00100000
00010000
00010000
00000000
,
10000000
00100000
01000000
00010000
00100000
01000000
01000000
00000000
,
10000000
00100000
00010000
00001000
00000000
00000010
00000010
00000000
,
00000001
00001000
00000010
00000100
00000001
00001000
00000100
00000000
,
00010000
00000000
00000000
00000000
00001000
00000000
00000000
00100000
00010000
00000000
01000000
00000000
01000000
00000000
00000000
00000000
,
00100000
10000000
01000000
00000000
00010000
00001000
00000000
00000000
,
00100000
00000000
00010000
10000000
01000000
00010000
00001000
00000000
,
00000010
00000001
00000100
00000000
00000010
00001000
00000100
00010000
,
00001000
00000000
00000010
00000001
00000100
00001000
00010000
00000000
,
00100000
10000000
01000000
00000000
00010000
00001000
00010000
00000000
,
00000000
00000000
00000000
00000000
;

//---------------dance-single - ----------------
#NOTEDATA:;
#CHARTNAME:;
#STEPSTYPE:dance-single;
#DESCRIPTION:;
#CHARTSTYLE:;
#DIFFICULTY:Challenge;
#METER:13;
#RADARVALUES:0.632808,0.628795,0.475378,0.162061,0.421357,410.000000,366.000000,44.000000,15.000000,0.000000,0.000000,0.000000,0.000000,0.000000,0.632808,0.628795,0.475378,0.162061,0.421357,410.000000,366.000000,44.000000,15.000000,0.000000,0.000000,0.000000,0.000000,0.000000;
#CREDIT:;
#NOTES:
// measure 0
0000
0000
0000
0000
,  // measure 1
0000
0000
0000
0000
,  // measure 2
0000
0000
0000
0000
,  // measure 3
2100
0000
0000
0000
3010
0000
0000
0001
0010
0000
0010
0000
0010
0000
0000
0000
,  // measure 4
0100
0010
0100
0000
0101
0000
0001
0100
0001
0000
0010
0000
1000
0000
0100
0000
,  // measure 5
1200
0000
0000
0000
0310
0000
0000
1000
0001
0000
0001
0000
0001
0000
0000
0000
,  // measure 6
0001
0100
0001
0000
0010
0000
1000
0000
1100
0000
0100
1000
0100
0000
0010
0000
,  // measure 7
0110
0020
0000
1000
1030
0000
1001
0000
,  // measure 8
1010
0000
0100
1000
0000
0010
0100
0000
0110
0000
0100
0001
0000
0010
0001
0000
,  // measure 9
0010
0001
0010
0000
0100
0000
0010
2000
0000
0000
0100
0000
3100
0000
0010
0100
,  // measure 10
0010
0000
1000
0000
0001
0000
0010
0000
1000
0000
0000
1100
0000
0000
0101
0000
,  // measure 11
0001
0000
0010
0000
1000
0000
0010
0000
0200
0000
0000
0000
0001
0000
0301
0010
,  // measure 12
0001
0000
0010
0000
0100
0010
0000
0000
0010
0000
0000
1010
0000
0000
0011
0000
,  // measure 13
0001
0100
0001
0000
1000
0100
1000
0000
1100
0000
0000
0000
0101
0000
0000
0000
,  // measure 14
1000
0000
0010
0000
0100
0000
0001
0000
0010
0000
0000
1001
0000
0000
0110
0000
,  // measure 15
0100
0010
0100
0000
1000
0000
0010
0100
0001
0000
0100
0000
0010
0000
1000
0000
,  // measure 16
0100
0000
1000
0100
1000
0000
0010
0000
0001
0000
0010
0100
1000
0000
0010
0000
,  // measure 17
0100
0010
0001
0000
0010
0000
0100
0000
0120
0000
0000
0000
0130
0000
0000
0000
,  // measure 18
1001
0000
1000
0001
1000
0000
0010
0000
0001
0000
0100
0010
0100
0000
1000
0000
,  // measure 19
0010
0100
0010
0001
0102
0000
0103
0010
,  // measure 20
1000
0010
1000
0010
0000
0000
0200
0000
0000
0000
0310
0000
0100
0000
1000
0100
,  // measure 21
0010
0001
0010
0000
0100
0000
1000
0000
0010
0000
0001
0000
0100
0000
1000
0100
,  // measure 22
1000
0000
0010
0000
0001
0000
0010
0000
1000
0100
0010
0000
0000
0000
0000
0000
,  // measure 23
0001
0000
0010
0000
1000
0000
0100
0000
0001
0010
0100
0000
0000
0000
1000
0000
,  // measure 24
0010
1000
0010
1000
0000
0000
0020
0000
0000
0000
0130
0000
0020
0000
0100
0000
,  // measure 25
0130
0001
0100
0010
0100
0000
1000
0000
0100
0000
0001
0000
0101
0000
0000
0000
,  // measure 26
1010
0000
0000
0000
1100
0000
0000
0100
0001
0000
0001
0000
0001
0000
0000
0000
,  // measure 27
1000
0010
1000
0000
0001
0010
0001
0000
0010
0100
1000
0100
0010
0000
0000
0000
,  // measure 28
1100
0000
0000
0000
0101
0000
0000
0100
0010
0000
0010
0000
0010
0000
0000
0000
,  // measure 29
1000
0010
1000
0000
0010
0000
0001
0010
0001
0000
0010
0000
0100
0000
1000
0000
,  // measure 30
1001
0000
0000
0000
0110
0000
0000
0010
1000
0000
1000
0000
1000
0000
0000
0000
,  // measure 31
1100
0000
0100
0010
0100
0000
0010
0000
0001
0010
0001
0000
0010
0000
0100
0000
,  // measure 32
1010
0000
0000
0000
0011
0000
0000
0100
0010
0000
0010
0000
0010
0000
0000
0000
,  // measure 33
1000
0100
1000
0000
0010
0000
0001
0100
0001
0000
0010
0000
1000
0000
0100
0000
,  // measure 34
0110
0000
0000
0000
1001
0000
0000
0010
0100
0000
0100
0000
0100
0000
0000
0000
,  // measure 35
1000
0010
1000
0000
0010
0000
0001
0100
0001
0000
0010
0000
1000
0000
0010
0000
,  // measure 36
0001
0010
0001
0010
0000
0000
2000
0000
0000
0000
0000
0000
0000
0000
3001
0000
,  // measure 37
1000
0001
1000
0001
1000
0000
0010
0000
0001
0000
0100
0000
0010
0000
0000
0010
,  // measure 38
1000
0000
0010
0000
0001
0000
0010
0000
1000
0100
0010
0000
0000
0000
0000
0000
,  // measure 39
0001
0010
0100
0000
0010
0000
1000
0000
0100
0010
0001
0000
0000
0000
0010
0000
,  // measure 40
1000
0100
1000
0100
0000
0000
0002
0000
0000
0000
1003
0000
0002
0000
1000
0000
,  // measure 41
1003
0100
0010
0001
0100
0000
0100
0000
0100
0000
0100
0000
0100
0000
0000
0000
,  // measure 42
1010
0000
0000
0000
1100
0000
0000
0100
0001
0000
0101
0000
1001
0000
0000
0000
,  // measure 43
1000
0010
1000
0000
0010
0000
0001
0000
0010
0100
0010
0000
0000
0000
0000
0000
,  // measure 44
1001
0000
0000
0000
0110
0000
0000
0010
1000
0000
1100
0000
0101
0000
0000
0000
,  // measure 45
0001
0100
0001
0100
0001
0000
0010
1000
0010
1000
0010
0000
0100
0000
0010
0000
,  // measure 46
1010
0000
0000
0000
0011
0000
0000
0001
0100
0000
0110
0000
1001
0000
0000
0000
,  // measure 47
1000
0000
0100
0010
0100
0000
0010
0100
0010
0000
0001
0000
2002
0000
0000
0000
,  // measure 48
0000
0000
3003
0000
;
