#TITLE:CAPTAIN JACK (GRANDALE REMIX);
#SUBTITLE:;
#ARTIST:CAPTAIN JACK;
#TITLETRANSLIT:;
#SUBTITLETRANSLIT:;
#ARTISTTRANSLIT:;
#GENRE:;
#CREDIT:;
#BANNER:CAPTAIN JACK (GRANDALE REMIX).png;
#BACKGROUND:CAPTAIN JACK (GRANDALE REMIX)-bg.png;
#LYRICSPATH:;
#CDTITLE:;
#MUSIC:CAPTAIN JACK (GRANDALE REMIX).ogg;
#OFFSET:0.000000;
#SAMPLESTART:31.059999;
#SAMPLELENGTH:15.000000;
#SELECTABLE:YES;
#BPMS:0.000000=170.000000
;
#STOPS:
;
#BGCHANGES:;
#KEYSOUNDS:;
#ATTACKS:;

//---------------dance-single - ----------------
#NOTES:
     dance-single:
     :
     Beginner:
     3:
     0.163757,0.273993,0.074556,0.000000,0.000000,123.000000,115.000000,8.000000,0.000000,0.000000,0.000000,0.163757,0.273993,0.074556,0.000000,0.000000,123.000000,115.000000,8.000000,0.000000,0.000000,0.000000:
0000
0000
0000
0000
,
0000
0000
0000
0000
,
0000
0000
0000
0000
,
0000
0000
0000
0000
,
0000
0000
0000
0000
,
0000
0000
0000
0000
,
0001
0000
0000
0000
,
0001
0000
0000
0000
,
1000
0000
0000
0000
,
1000
0000
0000
0000
,
1001
0000
0000
0000
,
0000
0000
0000
0000
,
0000
0000
0000
0000
,
0000
0000
0000
0000
,
1000
0000
0000
0000
,
1000
0000
0000
0000
,
0001
0000
0000
0000
,
0001
0000
0000
0000
,
0100
0000
0000
0000
,
0100
0000
0000
0000
,
1000
0000
0000
0000
,
1000
0000
0000
0000
,
0010
0000
0000
0000
,
0100
0000
0000
0000
,
0001
0000
0001
0000
,
1000
0000
1000
0000
,
0010
0000
1001
0000
,
1001
0000
0100
0000
,
0010
0010
0010
0000
,
0100
0100
0100
0000
,
1000
0000
1000
0000
,
1000
0000
1000
0000
,
0001
0000
0100
0000
,
0001
0000
0100
0000
,
0010
0000
0100
0000
,
0010
0000
0100
0000
,
1000
0000
1001
0000
,
1000
0000
1001
0000
,
1001
0000
0000
0000
,
1000
0000
1000
0000
,
1000
0000
1000
0000
,
0001
0000
0100
0000
,
1001
0000
0000
0000
,
1000
0000
1000
0000
,
1000
0000
1000
0000
,
0001
0000
0100
0100
,
0100
0000
1000
1000
,
1000
0000
0100
0100
,
0100
0000
0001
0000
,
0100
0000
1000
0000
,
0100
0000
0001
0001
,
0001
0000
0100
0100
,
0100
0000
1000
0000
,
0100
0000
0001
0001
,
0000
0000
0000
0000
,
1000
1000
0000
0000
,
0001
0001
0000
0000
,
1000
1000
0000
0000
,
0000
0000
0000
0000
,
1000
1000
0000
0000
,
0001
0001
0000
0000
,
1000
1000
0000
0000
,
0001
0000
0001
0000
,
1000
0000
1000
0000
,
0001
0000
0100
0000
,
0001
0000
0100
0000
,
1000
0000
1000
0000
,
0001
0000
0001
0000
,
1000
0000
0100
0000
,
1000
0000
0100
0000
,
1001
0000
0000
0000
,
0000
0000
0000
0000
,
1000
0000
1000
0000
,
0001
0001
0001
0000
,
0000
0000
0000
0000
;

//---------------dance-single - ----------------
#NOTES:
     dance-single:
     :
     Easy:
     6:
     0.363460,0.479488,0.344821,0.260946,0.000000,273.000000,236.000000,37.000000,28.000000,0.000000,0.000000,0.363460,0.479488,0.344821,0.260946,0.000000,273.000000,236.000000,37.000000,28.000000,0.000000,0.000000:
0000
0000
0000
0000
,
0000
0000
0000
0000
,
0000
0000
0000
0000
,
0000
0000
0000
0000
,
0000
0000
0000
0000
,
0000
0000
0000
0000
,
0001
0000
0001
0000
,
1000
0000
1000
0000
,
0010
0000
0010
0000
,
0100
0000
0100
0000
,
2002
0000
0000
0000
,
0000
0000
0000
3003
,
1000
0000
1000
0000
,
0001
0001
0001
0000
,
1000
1000
0001
0001
,
1000
1000
0001
0001
,
0010
0010
0100
0100
,
0010
0010
0100
0100
,
1001
1001
0100
0100
,
1001
1001
0100
0100
,
0001
0001
0100
0100
,
1000
1000
0100
0100
,
0010
1000
1001
0100
,
0100
0001
1001
0100
,
1000
0001
0110
0001
,
1000
0100
0110
0001
,
0001
0001
1000
0100
,
1000
1000
0001
0100
,
0010
0010
1001
0010
,
0100
0100
1001
0100
,
0010
0001
2002
3003
,
0100
1000
2002
3003
,
1000
0001
0220
0330
,
0001
1000
0220
0330
,
0002
1000
0103
0000
,
2000
0001
3100
0000
,
0010
0100
2002
3003
,
0010
0100
2002
3003
,
1001
0100
0100
0100
,
1001
0100
1001
0100
,
0010
0010
2002
3003
,
1000
1000
0100
0100
,
0110
0001
0001
0001
,
0110
0001
0110
1000
,
0100
0100
0220
0330
,
0001
0001
1000
0100
,
1000
1000
0100
0100
,
0001
0001
0100
0100
,
0020
1030
0020
1030
,
0100
0001
0010
1000
,
0001
0001
0100
0100
,
1000
1000
0100
0100
,
0020
0031
0020
0031
,
0100
1000
0010
0001
,
1001
1001
0100
0100
,
1001
1001
0001
0100
,
1001
1001
0100
0100
,
1001
1001
1000
0100
,
1000
0002
0100
0103
,
0001
2000
0100
3100
,
0010
0001
0100
0010
,
1000
0100
0010
0001
,
1000
1000
0100
0100
,
0001
0001
0100
1000
,
0100
0001
0100
1000
,
0100
0001
0100
1000
,
0100
0100
0001
0010
,
0100
0100
1000
0010
,
1000
1000
0010
0001
,
0001
0001
0010
1000
,
2002
0000
0000
0000
,
0000
0000
0000
3003
,
0001
0100
1000
0100
,
1001
1001
0110
0000
,
0000
0000
0000
0000
;

//---------------dance-single - ----------------
#NOTES:
     dance-single:
     :
     Medium:
     10:
     0.487276,0.617533,0.307543,0.149112,0.074556,366.000000,333.000000,33.000000,16.000000,0.000000,0.000000,0.487276,0.617533,0.307543,0.149112,0.074556,366.000000,333.000000,33.000000,16.000000,0.000000,0.000000:
0000
0000
0000
0000
,
0000
0000
0000
0000
,
0000
0000
0000
0000
,
0000
0000
0000
0000
,
0000
0000
0000
0000
,
0000
0000
0000
0000
,
0001
0001
0001
0001
,
1000
1000
1000
1000
,
0010
0010
0010
0010
,
0100
0100
0100
0100
,
2002
0000
0000
0000
,
0000
0000
0000
3003
,
0001
0100
1000
0100
,
1001
1001
0110
0000
,
0000
0000
0010
0000
0100
0000
0000
0000
0010
0000
0000
0010
0000
0000
1000
0000
,
0000
0000
0001
0000
0100
0000
0000
0000
0001
0000
0000
0001
0000
0000
1000
0000
,
0000
0000
1000
0000
0001
0000
0000
0000
1000
0000
0000
1000
0000
0000
0100
0000
,
0000
0000
0001
0000
1000
0000
0000
0000
0001
0000
0000
0001
0000
0000
0100
0000
,
0000
0000
0010
0000
0100
0000
0000
0000
0100
0000
0000
0100
0000
0000
0001
0000
,
0000
0000
0100
0000
0010
0000
0000
0000
1000
0000
0000
1000
0000
0000
0100
0000
,
0000
0000
1000
0000
0100
0000
0000
0000
0100
0000
0000
0100
0000
0000
0010
0000
,
0000
0000
0001
0000
0100
0000
0000
0000
0100
0000
0000
0100
0000
0000
0010
0000
,
1001
0000
0100
0000
0010
0001
0100
0000
,
1001
0000
0010
0000
0100
1000
0010
0000
,
0001
0100
0010
0000
1000
0100
0010
0000
,
1000
0010
0100
0000
0001
0010
0100
0000
,
0001
0010
1000
0000
0001
0010
1000
0000
,
1000
0100
0001
0000
1000
0100
0001
0000
,
1000
0001
0100
0000
0001
1000
0100
0000
,
0001
1000
0010
0000
1000
0001
0010
0000
,
0010
0001
1000
0100
0020
0000
0030
0000
,
0100
1000
0001
0010
0200
0000
0300
0000
,
1000
0100
0010
0001
0200
0000
0300
0000
,
0001
0010
0100
1000
0020
0000
0030
0000
,
0001
1000
0001
1000
0200
0000
0300
0000
,
1000
0001
1000
0001
0020
0000
0030
0000
,
0010
0001
0100
0001
0020
0000
0030
0000
,
0100
1000
0010
1000
0200
0000
0300
0000
,
2002
0000
0000
3003
,
0010
0001
0100
0001
1000
0100
1000
0010
,
1000
0001
0100
0010
1000
0001
0000
0000
,
0100
0100
0100
0100
,
2002
0000
0000
3003
,
0100
1000
0010
1000
0001
0010
0001
0100
,
0001
1000
0010
0100
0001
1000
0000
0000
,
0010
0010
1001
1100
,
0001
0100
0001
0000
1000
0100
1000
0000
,
1000
0010
1000
0000
0001
0010
0001
0000
,
0010
0001
0100
0000
0010
0001
0100
0000
,
0010
0001
0010
0001
0010
0001
0100
0000
,
1000
0010
1000
0000
0001
0010
0001
0000
,
0001
0100
0001
0000
1000
0100
1000
0000
,
0100
1000
0010
0000
0100
1000
0010
0000
,
0100
1000
0100
1000
0100
1000
0010
0000
,
1001
0000
1001
0000
0010
0001
0100
0000
,
1001
0000
1001
0000
0100
1000
0001
0000
,
1001
0000
1001
0000
0010
1000
0100
0000
,
1001
0000
1001
0000
0100
0001
1000
0000
,
1001
0000
1100
0000
0010
0001
0100
0000
,
1001
0000
1010
0000
0100
1000
0001
0000
,
1001
0000
0101
0000
0010
1000
0100
0000
,
1001
0000
0011
0000
0100
0001
1000
0000
,
0000
0000
0001
0000
1000
0000
0000
0000
0001
0000
0000
0001
0000
0000
0010
0000
,
0000
0000
1000
0000
0001
0000
0000
0000
1000
0000
0000
1000
0000
0000
0010
0000
,
0000
0000
0100
0000
0010
0000
0000
0000
0010
0000
0000
0010
0000
0000
1000
0000
,
0000
0000
0010
0000
0100
0000
0000
0000
0001
0000
0000
0001
0000
0000
0010
0000
,
0000
0000
0001
0000
0010
0000
0000
0000
0010
0000
0000
0010
0000
0000
0100
0000
,
0000
0000
1000
0000
0010
0000
0000
0000
0010
0000
0000
0010
0000
0000
0100
0000
,
0000
0000
0001
0000
1000
0000
0000
0000
0110
0000
0000
0110
0000
0000
1001
0000
,
0000
0000
0010
0000
0100
0000
0000
0000
1001
0000
0000
1001
0000
0000
0110
0000
,
2002
0000
0000
0000
,
0000
0000
0000
3003
,
0100
1000
0010
1000
0001
0010
0001
0100
,
0001
1000
0010
0100
0001
1000
0000
0000
,
0000
0000
0000
0000
;

//---------------dance-single - ----------------
#NOTES:
     dance-single:
     :
     Hard:
     13:
     0.581802,0.617533,0.298224,0.149112,0.195709,437.000000,405.000000,32.000000,16.000000,0.000000,0.000000,0.581802,0.617533,0.298224,0.149112,0.195709,437.000000,405.000000,32.000000,16.000000,0.000000,0.000000:
0000
0000
0000
0000
,
0000
0000
0000
0000
,
0000
0000
0000
0000
,
0000
0000
0000
0000
,
0000
0000
0000
0000
,
0000
0000
0000
0000
,
0001
0001
1000
1000
,
0001
0001
1000
1000
,
0001
1000
0001
1000
,
0010
0001
0100
1000
,
2002
0000
0000
0000
,
0000
0000
0000
3003
,
0100
1000
0010
1000
0001
0010
0001
0100
,
0001
1000
0010
0100
0001
1000
0000
0000
,
0000
0000
0001
0000
1000
0000
0000
0000
0001
0000
0001
0100
0000
0001
0100
0000
,
0000
0000
0010
0000
0100
0000
0000
0000
0001
0000
0010
0001
0000
0010
0001
0000
,
0000
0000
1000
0000
0001
0000
0000
0000
1000
0000
1000
0100
0000
1000
0100
0000
,
0000
0000
0001
0000
1000
0000
0000
0000
0001
0000
0001
0100
0000
0001
0100
0000
,
0000
0000
0010
0000
0100
0000
0000
0000
0100
0000
0001
1000
0000
0001
1000
0000
,
0000
0000
0100
0000
0010
0000
0000
0000
1000
0000
1000
0001
0000
0100
0001
0000
,
0000
0000
1000
0000
0100
0000
0000
0000
0100
0000
0100
0010
0000
0100
0010
0000
,
0000
0000
0001
0000
0100
0000
0000
0000
0100
0000
0010
1000
0000
0010
1000
0000
,
1001
0000
0101
0000
0010
0001
0100
0000
,
1001
0000
1100
0000
0010
1000
0100
0000
,
0001
0100
0010
0001
1000
0100
0010
0000
,
1000
0100
0010
1000
0001
0100
0010
0000
,
0001
0010
1000
0001
0001
0010
1000
0000
,
1000
0010
0001
1000
1000
0010
0001
0000
,
1000
0001
0100
0100
0001
1000
0100
0000
,
0001
1000
0100
0100
1000
0001
0100
0000
,
0010
0001
1000
0100
0020
0001
0031
0000
,
0010
1000
0001
0100
0020
1000
1030
0000
,
1000
0100
0010
0001
0200
0001
0301
0000
,
0001
0100
0010
1000
0200
1000
1300
0000
,
0001
1000
0001
1000
0200
0010
0310
0000
,
1000
0001
1000
0001
0200
0010
0310
0000
,
0010
0001
0010
0000
0001
0000
1000
0000
0100
0000
0000
0000
0000
0000
0000
0000
,
0010
1000
0010
0000
1000
0000
0001
0000
0100
0000
0000
0000
0000
0000
0000
0000
,
2002
0000
0000
3003
,
0100
0000
1000
0000
0010
0000
1000
0000
0001
0010
0000
0000
0001
0010
0001
0000
,
1000
0100
0010
0100
1000
0001
0000
0000
,
0000
0000
0000
0000
,
2002
0000
0000
3003
,
0100
0000
0001
0000
0010
0000
0001
0000
1000
0010
0000
0000
1000
0010
1000
0000
,
0001
0100
0010
0100
0001
1000
0000
0000
,
0010
0000
0000
0000
0010
0000
0000
0000
0100
1000
0000
0000
0001
0010
0000
0000
,
0001
0100
0001
0001
1000
0100
1000
0000
,
1000
0100
1000
1000
0001
0100
0001
0000
,
0010
0100
1001
0000
0010
0100
1001
0000
,
0010
0100
0010
0100
0010
0100
1001
0000
,
1000
0200
1000
1300
0001
0100
0001
0000
,
0001
0200
0001
0301
1000
0100
1000
0000
,
0100
0010
1001
0000
0100
0010
1001
0000
,
0100
0010
0100
0010
0100
0010
1001
0000
,
0000
1010
0000
1001
0100
0010
0001
0100
,
0000
0101
0000
1001
0100
0010
1000
0001
,
0000
1100
0000
1001
0100
0010
0001
1000
,
0000
0011
0000
1001
0100
0010
1000
0100
,
0000
0011
0000
1001
0100
0010
1000
0100
,
0000
1100
0000
1001
0100
0010
0001
1000
,
0000
0101
0000
1001
0100
0010
1000
0001
,
0000
1010
0000
1001
0100
0010
0001
0100
,
0000
0000
0001
0000
1000
0000
0000
0000
0001
0000
0001
0100
0000
0001
0100
0000
,
0000
0000
1000
0000
0001
0000
0000
0000
1000
0000
1000
0100
0000
1000
0100
0000
,
0000
0000
0010
0000
0100
0000
0000
0000
0100
0000
1000
0001
0000
1000
0001
0000
,
0000
0000
0100
0000
0010
0000
0000
0000
0001
0000
0001
1000
0000
0100
1000
0000
,
0000
0000
0001
0000
0100
0000
0000
0000
0100
0000
0100
0010
0000
0100
0010
0000
,
0000
0000
1000
0000
0100
0000
0000
0000
0100
0000
0010
0001
0000
0010
0001
0000
,
0000
0000
0001
0000
1000
0000
0000
0000
0110
0000
0010
0100
0000
0001
1000
0000
,
0000
0000
0010
0000
0100
0000
0000
0000
1001
0000
1000
0001
0000
0100
0010
0000
,
2002
0000
0000
0000
,
0000
0000
0000
3003
,
0100
0000
1000
0000
0010
0000
1000
0000
0001
0010
0000
0000
0001
0010
0001
0000
,
1000
0100
0010
0100
1000
0001
0000
0000
,
0000
0000
0000
0000
;

//---------------dance-single - ----------------
#NOTES:
     dance-single:
     :
     Challenge:
     11:
     0.439347,0.548918,0.214348,0.149112,0.074556,330.000000,307.000000,23.000000,16.000000,132.000000,0.000000,0.439347,0.548918,0.214348,0.149112,0.074556,330.000000,307.000000,23.000000,16.000000,132.000000,0.000000:
0000
0000
0000
0000
,
0000
0000
0000
0000
,
0000
0000
0000
0000
,
0000
0000
0000
0000
,
0000
0000
0000
0000
,
0000
0000
0000
0000
,
MMMM
0001
0001
0001
,
1000
1000
1000
1000
,
MMMM
0010
0010
0010
,
0100
0100
0100
MMMM
,
2002
0000
0000
0000
,
0000
0000
0000
3003
,
0001
0100
1000
0100
,
1001
MMMM
0110
0000
,
0000
0000
0010
0000
0100
0000
0000
0000
0010
0000
0000
0010
0000
0000
1000
0000
,
0000
0000
0001
0000
0100
0000
0000
0000
0001
0000
0000
0001
0000
0000
1000
0000
,
0000
0000
1000
0000
0001
0000
0000
0000
1000
0000
0000
1000
0000
0000
0100
0000
,
0000
0000
0001
0000
1000
0000
0000
0000
0001
0000
0000
0001
0000
0000
MMMM
0000
,
0000
0000
0010
0000
0100
0000
0000
0000
0100
0000
0000
0100
0000
0000
0001
0000
,
0000
0000
0100
0000
0010
0000
0000
0000
1000
0000
0000
1000
0000
0000
MMMM
0000
,
0000
0000
1000
0000
0100
0000
0000
0000
0100
0000
0000
0100
0000
0000
0010
0000
,
0000
0000
0001
0000
0100
0000
0000
0000
0100
0000
0000
0100
0000
0000
MMMM
0000
,
1001
0000
0100
0000
0010
0001
0100
0000
,
1001
0000
0010
0000
0100
1000
0010
0000
,
0001
0100
0010
0000
1000
0100
0010
0000
,
1000
0010
0100
0000
0001
0010
0100
0000
,
0001
0010
1000
0000
0001
0010
1000
0000
,
1000
0100
0001
0000
1000
0100
0001
0000
,
1000
0001
0100
0000
0001
1000
0100
0000
,
0001
1000
0010
0000
1000
0001
0010
0000
,
0010
0001
1000
MMMM
0020
0000
0030
0000
,
0100
1000
0001
MMMM
0200
0000
0300
0000
,
1000
0100
0010
MMMM
0200
0000
0300
0000
,
0001
0010
0100
MMMM
0020
0000
0030
0000
,
0001
1000
0001
MMMM
0200
0000
0300
0000
,
1000
0001
1000
MMMM
0020
0000
0030
0000
,
0010
0001
0100
MMMM
0020
0000
0030
0000
,
0100
1000
0010
MMMM
0200
0000
0300
0000
,
2002
0000
0000
3003
,
0010
0001
0100
0001
1000
0100
1000
0010
,
1000
0001
0100
0010
1000
0001
MMMM
0000
,
0100
0100
0100
0100
,
2002
0000
0000
3003
,
0100
1000
0010
1000
0001
0010
0001
0100
,
0001
1000
0010
0100
0001
1000
MMMM
0000
,
0010
0010
1001
1100
,
0001
0100
0001
0000
1000
0100
1000
0000
,
1000
0010
1000
0000
0001
0010
0001
0000
,
0010
0001
0100
MMMM
0010
0001
0100
MMMM
,
0010
0001
0010
0001
0010
0001
0100
MMMM
,
1000
0010
1000
0000
0001
0010
0001
0000
,
0001
0100
0001
0000
1000
0100
1000
0000
,
0100
1000
0010
MMMM
0100
1000
0010
MMMM
,
0100
1000
0100
1000
0100
1000
0010
0000
,
1001
0000
MMMM
0000
0010
0001
0100
0000
,
1001
0000
MMMM
0000
0100
1000
0001
0000
,
1001
0000
MMMM
0000
0010
1000
0100
0000
,
1001
0000
MMMM
0000
0100
0001
1000
0000
,
MMMM
0000
1100
0000
0010
0001
0100
0000
,
MMMM
0000
1010
0000
0100
1000
0001
0000
,
MMMM
0000
0101
0000
0010
1000
0100
0000
,
MMMM
0000
0011
0000
0100
0001
1000
0000
,
0000
0000
0001
0000
1000
0000
0000
0000
0001
0000
0000
0001
0000
0000
0010
0000
,
0000
0000
1000
0000
0001
0000
0000
0000
1000
0000
0000
1000
0000
0000
0010
0000
,
0000
0000
0100
0000
0010
0000
0000
0000
0010
0000
0000
0010
0000
0000
1000
0000
,
0000
0000
0010
0000
0100
0000
0000
0000
0001
0000
0000
0001
0000
0000
MMMM
0000
,
0000
0000
0001
0000
0010
0000
0000
0000
0010
0000
0000
0010
0000
0000
0100
0000
,
0000
0000
1000
0000
0010
0000
0000
0000
0010
0000
0000
0010
0000
0000
MMMM
0000
,
0000
0000
0001
0000
1000
0000
0000
0000
0110
0000
0000
0110
0000
0000
MMMM
0000
,
0000
0000
0010
0000
0100
0000
0000
0000
1001
0000
0000
1001
0000
0000
0110
0000
,
2002
0000
0000
0000
,
0000
0000
0000
3003
,
0100
1000
0010
1000
0001
0010
0001
0100
,
0001
1000
0010
0100
0001
1000
0000
0000
,
0000
0000
0000
0000
;

//---------------dance-double - ----------------
#NOTES:
     dance-double:
     :
     Easy:
     7:
     0.326182,0.479488,0.391419,0.121153,0.000000,245.000000,203.000000,42.000000,13.000000,0.000000,0.000000,0.326182,0.479488,0.391419,0.121153,0.000000,245.000000,203.000000,42.000000,13.000000,0.000000,0.000000:
00000000
00000000
00000000
00000000
,
00000000
00000000
00000000
00000000
,
00000000
00000000
00000000
00000000
,
00000000
00000000
00000000
00000000
,
00000000
00000000
00000000
00000000
,
00000000
00000000
00000000
00000000
,
00000010
00000000
00001000
00000000
,
00010000
00000000
00001000
00000000
,
00010000
00000000
00100000
00000000
,
00010000
00000000
00001000
00000000
,
00022000
00000000
00000000
00000000
,
00000000
00000000
00000000
00033000
,
00001000
00000010
00000001
00000100
,
00000010
00001000
00001001
00000000
,
00000010
00000010
00000010
00000010
,
00001000
00001000
00001000
00001000
,
00010000
00010000
00010000
00010000
,
00001000
00001000
00001000
00001000
,
00100000
00100000
00100000
00100000
,
00010000
00010000
00010000
00010000
,
01000000
01000000
01000000
01000000
,
00001000
00001000
00001000
00000000
,
00011000
00010100
00000000
00000000
,
00011000
00101000
00000000
00000000
,
00010000
10000000
01000000
00100000
,
00010000
10000000
01000000
00100000
,
00001000
00010000
00000100
00000010
,
00001000
00010000
00000100
00000010
,
00000001
00000100
00000010
00001000
,
00000001
00000100
00000010
00001000
,
00001100
00011000
00110000
00000000
,
00001100
00011000
00110000
00000000
,
01000000
00100000
10010000
00000000
,
01000000
00100000
10010000
00000000
,
10010000
01010000
00011000
00000000
,
00001001
00001100
00011000
00000000
,
00000100
00000010
00001001
00000000
,
00000100
00000010
00001001
00000000
,
00022000
00000000
00000000
00033000
,
01000000
00100000
10000000
01000000
,
00100000
00010000
01000000
00000000
,
00000000
00000000
00000000
00000000
,
00022000
00000000
00000000
00033000
,
00000100
00000010
00000001
00000100
,
00000010
00001000
00000100
00000000
,
00000000
00000000
00000000
00000000
,
00010000
00001000
00100000
00010000
,
01000000
00100000
01000000
00010000
,
10000000
10000000
00010000
00010000
,
00100000
00000000
00001000
00000000
00010000
00000100
00000010
00000000
,
00000001
00000100
00000010
00001000
,
00000100
00010000
00001000
00100000
,
00010000
00010000
10000000
10000000
,
01000000
00000000
00100000
00000000
00001000
00010000
00000200
00000000
,
00000000
00000000
00000300
00010000
,
00001000
00200000
00000000
00000000
,
00300000
00010000
10000000
00010000
,
10000000
00000000
00000000
00000000
,
02200000
00000000
03300000
00001000
,
00010000
00000200
00000000
00000300
,
00001000
00000001
00001000
00000001
,
00000000
00000000
00000000
00000000
,
00001000
00000100
00000011
00001100
,
00010000
00001000
01010000
10100000
,
00010000
01000000
00011000
00001010
,
00000100
00000010
00001010
00011000
,
01000000
00100000
11000000
00110000
,
00001000
00010000
00001010
00000101
,
00001000
00000010
00011000
10010000
,
01000000
00100000
10010000
00000000
,
00022000
00000000
00000000
00000000
,
00000000
00000000
00000000
00033000
,
00010000
00100000
10000000
01000000
,
00100000
00001000
00010100
00000000
,
00000000
00000000
00000000
00000000
;

//---------------dance-double - ----------------
#NOTES:
     dance-double:
     :
     Medium:
     11:
     0.418046,0.548918,0.400738,0.260946,0.000000,314.000000,271.000000,43.000000,28.000000,0.000000,0.000000,0.418046,0.548918,0.400738,0.260946,0.000000,314.000000,271.000000,43.000000,28.000000,0.000000,0.000000:
00000000
00000000
00000000
00000000
,
00000000
00000000
00000000
00000000
,
00000000
00000000
00000000
00000000
,
00000000
00000000
00000000
00000000
,
00000000
00000000
00000000
00000000
,
00000000
00000000
00000000
00000000
,
00000001
00001000
00000001
00001000
,
00000100
00001000
00000100
00001000
,
00000100
00010000
00000100
00010000
,
00001000
00010000
00001000
00010000
,
00022000
00000000
00000000
00000000
,
00000000
00000000
00000000
00033000
,
00010000
00100000
10000000
01000000
,
00100000
00001000
00010100
00000000
,
00001000
00000100
00001000
00000100
,
00010000
00000100
00010000
00000100
,
00010000
00001000
00010000
00001000
,
00100000
00001000
00100000
00001000
,
00010000
00001000
00010000
00001000
,
00010000
00000100
00010000
00000100
,
00010000
00001000
01000000
00001000
,
00010000
00000010
00010000
00001000
,
00011000
00000000
00010100
00000000
00001000
00000010
00001000
00000000
,
00011000
00000000
01001000
00000000
00010000
00100000
00010000
00000000
,
10000000
00000000
00100000
00000000
01000000
00100000
10000000
00000000
,
10000000
00000000
00100000
00000000
01000000
00100000
10000000
00000000
,
00010000
00100000
00010000
00000000
01000000
00100000
01000000
00000000
,
00010000
00100000
00010000
00000000
01000000
00100000
01000000
00000000
,
00010000
10000000
00010000
10000000
00010000
10000000
00010000
00000000
,
00001000
00010000
00001000
00010000
00001000
00010000
00001000
00000000
,
00011000
00011000
00220000
00330000
,
00011000
00011000
00002020
00003030
,
00000100
00000001
00000100
00000000
00002002
00000000
00003003
00000000
,
00010000
00001000
00010000
00000000
00220000
00000000
00330000
00000000
,
10010000
00011000
00000220
00000330
,
00001001
00011000
02200000
03300000
,
10000000
00010000
01000000
00000000
20020000
00000000
30030000
00000000
,
00001000
00010000
00000100
00000000
00000220
00000000
00000330
00000000
,
00002002
00000000
00000000
00003003
,
00000100
00000010
00001000
00000100
,
00010000
00000000
00001000
00000000
00100000
00010000
00000000
00000000
,
00000000
00000000
00000000
00000000
,
20020000
00000000
00000000
30030000
,
01000000
00100000
00010000
01000000
,
00001000
00000000
00010000
00000000
00000010
00001000
00000000
00000000
,
00000000
00000000
00001001
00000110
,
00000001
00001000
00000001
00000000
00001000
00000000
00001000
00000000
,
00000100
00010000
00000100
00000000
00010000
00000000
00010000
00000000
,
00001000
00010000
00001000
00000000
00010000
00001000
00010000
00000000
,
00001000
01000000
00010000
10000000
01000000
00100000
00010000
00000000
,
10000000
00010000
10000000
00000000
00010000
00000000
00010000
00000000
,
01000000
00001000
01000000
00000000
00001000
00000000
00001000
00000000
,
00010000
00001000
00010000
00000000
00001000
00010000
00001000
00000000
,
00010000
00000100
00001000
00000001
00000100
00000010
00002000
00000000
,
00000000
00000000
00000000
00000000
00003000
00000010
00001000
00000010
,
00001000
00000010
00002000
00000000
00000000
00000000
00000000
00000000
,
00003000
00000100
00010000
00000100
,
00010000
00000000
00000000
00000000
,
00012000
00000000
00000000
00000000
00003000
00100000
00010000
00100000
,
00010000
00100000
00020000
00000000
00000000
00000000
00030000
00000000
,
10000000
00010000
10000000
00010000
01000000
00100000
01000000
00000000
,
00000000
00000000
00000000
00000000
,
00001000
00100000
00001000
00000000
00011000
00000000
00011000
00000000
,
00000100
00010000
00000100
00000000
00011000
00000000
00011000
00000000
,
01000000
00010000
10000000
00000000
11000000
00000000
11000000
00000000
,
00010000
01000000
00001000
00000000
00011000
00000000
00011000
00000000
,
00000100
00001000
00000010
00000000
00010010
00000000
00011000
00000000
,
00100000
00010000
01000000
00000000
01001000
00000000
00011000
00000000
,
00000010
00001000
00000100
00000000
00000011
00000000
00001100
00000000
,
00010000
00001000
00010000
00000000
00110000
00000000
00000000
00000000
,
20020000
00000000
00000000
00000000
,
00000000
00000000
00000000
30030000
,
00010000
00000000
00100000
00000000
01000000
00100000
01000000
00000000
,
10000000
00010000
01000000
00001000
00010000
00000100
00000000
00000000
,
00000000
00000000
00000000
00000000
;

//---------------dance-double - ----------------
#NOTES:
     dance-double:
     :
     Hard:
     14:
     0.564495,0.686148,0.242307,0.186390,0.153772,424.000000,398.000000,26.000000,20.000000,0.000000,0.000000,0.564495,0.686148,0.242307,0.186390,0.153772,424.000000,398.000000,26.000000,20.000000,0.000000,0.000000:
00000000
00000000
00000000
00000000
,
00000000
00000000
00000000
00000000
,
00000000
00000000
00000000
00000000
,
00000000
00000000
00000000
00000000
,
00000000
00000000
00000000
00000000
,
00000000
00000000
00000000
00000000
,
10000000
00010000
00100000
00001000
,
00000010
00000001
00000100
00001000
,
00010000
00001000
01000000
00010000
,
10000000
00100000
01000000
00010000
,
20020000
00000000
00000000
00000000
,
00000000
00000000
00000000
30030000
,
00010000
00000000
01000000
00000000
00100000
01000000
00100000
00000000
,
10000000
00010000
00100000
00001000
00010000
00000010
00000000
00000000
,
00000000
00000000
00000100
00000000
00000000
00000000
00000010
00000000
00000100
00000000
00000000
00000010
00000000
00000000
00000100
00000000
,
00000000
00000000
00000001
00000000
00000000
00000000
00000100
00000000
00000001
00000000
00000000
00001000
00000000
00000000
00000100
00000000
,
00000000
00000000
00010000
00000000
00000000
00000000
00001000
00000000
00010000
00000000
00000000
00001000
00000000
00000000
00010000
00000000
,
00000000
00000000
00001000
00000000
00000000
00000000
00100000
00000000
00010000
00000000
00000000
10000000
00000000
00000000
01000000
00000000
,
00000000
00000000
00100000
00000000
00000000
00000000
00001000
00000000
00010000
00000000
00000000
00000100
00000000
00000000
00001000
00000000
,
00000000
00000000
00000001
00000000
00000000
00000000
00000010
00000000
00000100
00000000
00000000
00010000
00000000
00000000
00001000
00000000
,
00000000
00000000
00100000
00000000
00000000
00000000
00010000
00000000
01000000
00000000
00000000
00100000
00000000
00000000
10000000
00000000
,
00000000
00000000
00010000
00000000
00000000
00000000
00100000
00000000
00001000
00000000
00000000
00010000
00000000
00000000
00000100
00000000
,
00010000
00000000
00001000
00000000
00010000
00000000
00000000
00000000
00001000
00010000
00001000
00000000
01000000
00000000
00000000
00000000
,
00010000
00000000
10000000
00000000
00010000
00000000
00000000
00000000
10000000
00010000
10000000
00000000
00100000
00000000
00000000
00000000
,
10000000
00010000
01000000
00001000
00010000
00000100
00000010
00000000
,
00000001
00001000
00000100
00010000
00001000
01000000
00100000
00000000
,
10000000
01000000
10000000
00010000
01000000
00001000
00010000
00000000
,
00001000
00010000
00000100
00001000
00000010
00000100
00000001
00000000
,
00000010
00000100
00001000
00000010
00010000
00011000
00101000
00000000
,
01000000
10000000
00100000
01000000
00001000
00011000
00010100
00000000
,
00001000
00000010
00000100
00000001
00000020
00000000
00000030
00000000
,
00000001
00000100
00000010
00010000
00002000
00000000
00003000
00000000
,
01000000
00100000
10000000
01000000
00220000
00000000
00330000
00000000
,
00001000
00010000
00000100
00000010
00002002
00000000
00003003
00000000
,
00000100
00000010
00000001
00000101
00000220
00000000
00000330
00000000
,
00001000
00000100
00010000
00011000
02002000
00000000
03003000
00000000
,
00010000
01000000
00010000
00000000
01000000
00000000
00100000
00000000
10000000
00000000
00000000
00000000
00000000
00000000
00000000
00000000
,
01000000
00100000
01000000
00000000
00100000
00000000
00010000
00000000
01000000
00000000
00000000
00000000
00000000
00000000
00000000
00000000
,
00022000
00000000
00000000
00033000
,
10000000
00100000
10000000
01000000
10000000
00010000
10000000
00100000
,
01000000
00001000
00010000
00000100
00010000
00000010
00010000
00001000
,
00010000
00000100
00001000
00000001
00001000
00000010
00001000
00000100
,
00020200
00000000
00000000
00030300
,
00000010
00000100
00000010
00001000
00000010
00000001
00000010
00000100
,
00000001
00001000
00000100
00010000
00000100
00000010
00000100
00010000
,
00001000
00100000
00001000
01000000
01010000
00000000
10010000
00000000
,
00010000
01000000
00010000
00100000
00001000
00010000
00001000
00010000
,
00000100
00001000
00000010
00000100
00000001
00000010
00000100
00000000
,
00000010
00000100
00000010
00000000
00000100
00000000
00000000
00000000
00000001
00000100
00000001
00000000
00000100
00000000
00000000
00000000
,
00000010
00001000
00000100
00010000
00011000
00101000
00110000
00000000
,
00010000
01000000
00010000
00100000
00001000
00010000
00001000
00010000
,
00000100
00001000
00000010
00000100
00000001
00000010
00000100
00000000
,
00000010
00000100
00000010
00000000
00000100
00000000
00000000
00000000
00000001
00000100
00000001
00000000
00000100
00000000
00000000
00000000
,
00000010
00001000
00000100
00010000
00011000
00101000
00110000
00000000
,
01000000
10000000
00100000
01000000
00001000
00010000
00000100
00000010
,
00000001
00000100
00000010
00001000
00000100
00000010
00000001
00000100
,
00000000
00000000
00000001
00000001
00002000
00000000
00003010
00000010
,
00020000
00000000
00000000
00030000
,
00001000
00100000
00010000
10000000
01000000
00100000
00010000
01000000
,
00001000
00010000
00000010
00001000
00000100
00000010
00001000
00010000
,
00001000
01000000
00001000
01000000
01010000
10010000
01100000
00000000
,
00000000
00000000
00000000
00000000
,
00001000
00000000
00000001
00000000
00000100
00000000
00000010
00000000
00001000
00000100
00000000
00000010
00000000
00000000
00000001
00000000
,
00000100
00000000
00000010
00000000
00001000
00000000
00000100
00000000
00010000
00001000
00000000
00100000
00000000
00000000
00010000
00000000
,
10000000
00000000
01000000
00000000
00100000
00000000
00010000
00000000
01000000
00010000
00000000
01000000
00000000
00000000
00001000
00000000
,
00010000
00000000
00000100
00000000
00000010
00000000
00000001
00000000
00000100
00000001
00000000
00000010
00000000
00000000
00000100
00000000
,
00010000
00000000
00001000
00000000
01000000
00000000
00010000
00000000
10000000
01000000
00000000
00100000
00000000
00000000
00010000
00000000
,
01000000
00000000
00010000
00000000
00100000
00000000
00001000
00000000
00010000
00001000
00000000
00010000
00000000
00000000
00000100
00000000
,
00001000
00000000
00000010
00000000
00000100
00000000
00000001
00000000
00000010
00000100
00000000
00001000
00000000
00000000
00000010
00000000
,
00010000
00000000
00001000
00000000
01000000
00000000
00010000
00000000
00100000
01000000
00000000
10000000
00000000
00000000
00010000
00000000
,
02002000
00000000
00000000
00000000
,
00000000
00000000
00000000
03003000
,
00010000
00000000
00001000
00000000
00100000
00000000
00010000
00000000
10000000
00100000
00000000
00000000
01000000
00000000
00010000
00000000
,
00100000
00001000
00010000
00000100
00000010
00001001
00000000
00000000
,
00000000
00000000
00000000
00000000
;

//---------------dance-double - ----------------
#NOTES:
     dance-double:
     :
     Challenge:
     12:
     0.364791,0.548918,0.270265,0.260946,0.000000,274.000000,245.000000,29.000000,28.000000,256.000000,0.000000,0.364791,0.548918,0.270265,0.260946,0.000000,274.000000,245.000000,29.000000,28.000000,256.000000,0.000000:
00000000
00000000
00000000
00000000
,
00000000
00000000
00000000
00000000
,
00000000
00000000
00000000
00000000
,
00000000
00000000
00000000
00000000
,
00000000
00000000
00000000
00000000
,
00000000
00000000
00000000
00000000
,
MMMMMMMM
00001000
00000001
00001000
,
00000100
00001000
00000100
00001000
,
MMMMMMMM
00010000
00000100
00010000
,
00001000
00010000
00001000
MMMMMMMM
,
00022000
00000000
00000000
00000000
,
00000000
00000000
00000000
00033000
,
00010000
00100000
10000000
01000000
,
00100000
00001000
00010100
00000000
,
00001000
00000100
00001000
MMMMMMMM
,
00010000
00000100
00010000
00000100
,
00010000
00001000
00010000
MMMMMMMM
,
00100000
00001000
00100000
00001000
,
00010000
00001000
00010000
MMMMMMMM
,
00010000
00000100
00010000
00000100
,
00010000
00001000
01000000
00001000
,
00010000
00000010
00010000
00001000
,
00011000
00000000
MMMMMMMM
00000000
00001000
00000010
00001000
00000000
,
00011000
00000000
MMMMMMMM
00000000
00010000
00100000
00010000
00000000
,
10000000
00000000
00100000
00000000
01000000
00100000
10000000
00000000
,
10000000
00000000
00100000
00000000
01000000
00100000
10000000
00000000
,
00010000
00100000
00010000
00000000
01000000
00100000
01000000
00000000
,
00010000
00100000
00010000
00000000
01000000
00100000
01000000
00000000
,
00010000
10000000
00010000
10000000
00010000
10000000
00010000
00000000
,
00001000
00010000
00001000
00010000
00001000
00010000
00001000
00000000
,
00011000
MMMMMMMM
00220000
00330000
,
00011000
MMMMMMMM
00002020
00003030
,
00000100
00000001
00000100
MMMMMMMM
00002002
00000000
00003003
00000000
,
00010000
00001000
00010000
MMMMMMMM
00220000
00000000
00330000
00000000
,
MMMMMMMM
00011000
00000220
00000330
,
MMMMMMMM
00011000
02200000
03300000
,
10000000
00010000
01000000
00000000
20020000
00000000
30030000
00000000
,
00001000
00010000
00000100
00000000
00000220
00000000
00000330
00000000
,
00002002
00000000
00000000
00003003
,
00000100
00000010
00001000
00000100
,
00010000
00000000
00001000
00000000
00100000
00010000
MMMMMMMM
00000000
,
00000000
00000000
00000000
00000000
,
20020000
00000000
00000000
30030000
,
01000000
00100000
00010000
01000000
,
00001000
00000000
00010000
00000000
00000010
00001000
MMMMMMMM
00000000
,
00000000
00000000
00001001
00000110
,
00000001
00001000
00000001
00000000
00001000
00000000
MMMMMMMM
00000000
,
00000100
00010000
00000100
00000000
00010000
00000000
MMMMMMMM
00000000
,
00001000
00010000
00001000
00000000
00010000
00001000
00010000
00000000
,
00001000
01000000
00010000
10000000
01000000
00100000
00010000
00000000
,
10000000
00010000
10000000
00000000
00010000
00000000
MMMMMMMM
00000000
,
01000000
00001000
01000000
00000000
00001000
00000000
MMMMMMMM
00000000
,
00010000
00001000
00010000
00000000
00001000
00010000
00001000
00000000
,
00010000
00000100
00001000
00000001
00000100
00000010
00002000
00000000
,
00000000
00000000
00003000
00000000
MMMMMMMM
00000010
00001000
00000010
,
00001000
00000010
00002000
00000000
00000000
00000000
00000000
00000000
,
00003000
00000100
MMMMMMMM
MMMMMMMM
,
00010000
00000000
00000000
00000000
,
00012000
00000000
00000000
00000000
00003000
00100000
00010000
00100000
,
00010000
00100000
00020000
00000000
00030000
00000000
MMMMMMMM
00000000
,
10000000
00010000
10000000
00010000
01000000
00100000
01000000
00000000
,
00000000
00000000
00000000
00000000
,
00001000
00100000
00001000
00000000
00011000
00000000
MMMMMMMM
00000000
,
00000100
00010000
00000100
00000000
00011000
00000000
MMMMMMMM
00000000
,
01000000
00010000
10000000
00000000
11000000
00000000
MMMMMMMM
00000000
,
00010000
01000000
00001000
00000000
00011000
00000000
MMMMMMMM
00000000
,
00000100
00001000
00000010
00000000
00010010
00000000
MMMMMMMM
00000000
,
00100000
00010000
01000000
00000000
01001000
00000000
MMMMMMMM
00000000
,
00000010
00001000
00000100
00000000
00000011
00000000
MMMMMMMM
00000000
,
00010000
00001000
00010000
00000000
MMMMMMMM
00000000
00000000
00000000
,
20020000
00000000
00000000
00000000
,
00000000
00000000
00000000
30030000
,
00010000
00000000
00100000
00000000
01000000
00100000
01000000
00000000
,
10000000
00010000
01000000
00001000
00010000
00000100
00000000
00000000
,
00000000
00000000
00000000
00000000
;

//---------------dance-single - Edit----------------
#NOTES:
     dance-single:
     :
     Edit:
     17:
     1.109019,1.166451,0.456655,0.158431,1.407243,833.000000,784.000000,49.000000,17.000000,0.000000,0.000000,1.109019,1.166451,0.456655,0.158431,1.407243,833.000000,784.000000,49.000000,17.000000,0.000000,0.000000:
// measure 0
0000
0000
0000
0000
,  // measure 1
0000
0000
0000
0000
,  // measure 2
0000
0000
0000
0000
,  // measure 3
0000
0000
0000
0000
,  // measure 4
0000
0000
0000
0000
,  // measure 5
0000
0000
0000
0000
,  // measure 6
1000
0001
1000
0001
1001
1001
1001
0000
,  // measure 7
0001
1000
0001
1000
1001
1001
1001
0000
,  // measure 8
0100
0010
0100
0010
0110
0110
0110
0000
,  // measure 9
1000
0010
1000
0000
0001
0100
0001
0000
1000
0100
1000
0000
0010
0001
0100
0010
,  // measure 10
1000
0001
1000
0001
1000
0001
1000
0001
1000
0001
1000
0001
1000
0001
1000
0001
,  // measure 11
1000
0001
1000
0001
1000
0001
1000
0001
1000
0001
1000
0001
1000
0001
1000
0001
,  // measure 12
1000
0001
1000
0000
0001
0100
0010
0000
1000
0010
0000
0100
0010
0000
1000
0001
,  // measure 13
0010
0001
0100
0010
1000
0000
1001
0000
0001
0010
0100
1000
0010
0000
0100
0001
,  // measure 14
1000
0000
0010
0100
0001
0000
1000
0010
0100
0000
0001
0010
0000
0010
1000
0001
,  // measure 15
0010
0000
0001
0100
0010
0000
1000
0100
0010
0000
1000
0100
0000
0100
1000
0001
,  // measure 16
0010
0000
0001
0010
0100
0000
1000
0010
0100
0000
0001
0010
0000
1000
0010
0001
,  // measure 17
0100
0000
0000
0000
0000
0000
0010
0000
0000
1000
0000
0000
0001
0000
0000
0000
0000
0000
0100
0000
0000
0001
0000
0000
1000
0000
0000
0000
0000
0000
0010
0000
0000
0100
0000
0000
0000
0000
0000
0100
0000
0000
0010
0000
0100
0000
0001
0000
,  // measure 18
1000
0000
0100
0010
1000
0000
0010
0100
0001
0000
1000
0100
0000
0100
1000
0100
,  // measure 19
0010
0000
0001
0010
0000
0010
0001
0100
0010
0000
1000
0010
0000
0010
0100
0001
,  // measure 20
1000
0100
0010
0100
1000
0100
0010
0001
1000
0010
0100
0001
0010
0001
0100
0010
,  // measure 21
1000
0010
0100
0001
1000
0100
0010
0001
0010
0100
1000
0001
0100
0010
1000
0100
,  // measure 22
0010
0000
0000
0000
0101
0000
0000
0000
0001
1000
0100
0000
1100
0000
0000
0000
,  // measure 23
0010
0000
0000
0000
1100
0000
0000
0000
1000
0001
0100
0000
0101
0000
0000
0000
,  // measure 24
1000
0100
0001
0100
1000
0100
0001
0100
1000
0000
1100
0000
1010
0000
0000
0000
,  // measure 25
0001
0100
1000
0100
0001
0100
1000
0100
0001
0000
0011
0000
0101
0000
0001
0010
,  // measure 26
0100
1000
0010
0100
0001
0000
1001
0000
0010
0001
1000
0000
1001
0000
0000
0000
,  // measure 27
1000
0100
0010
0001
0100
0000
0110
0000
0010
0001
0100
0000
0110
0000
1000
0100
,  // measure 28
1000
0100
0010
0001
1001
0101
0011
0000
,  // measure 29
0001
0000
0010
0000
0100
0000
1000
0000
1010
0000
1100
0000
1000
0100
0010
0001
,  // measure 30
0100
0000
0000
0010
1000
0000
0000
0100
0020
0000
1000
0000
0031
0000
0010
0100
,  // measure 31
1000
0000
0000
1000
0100
0000
0000
0001
0020
0000
1000
0000
0031
0000
0100
0010
,  // measure 32
1000
0000
1010
0000
0100
0001
1000
0010
0200
0000
0001
0000
1300
0000
0010
0100
,  // measure 33
0001
0000
0011
0000
0001
0010
0100
1000
0200
0000
1300
0100
0001
0000
0001
0010
,  // measure 34
0100
0000
0000
0100
1000
0000
0000
0001
2000
0000
0010
0000
3100
0000
1000
0010
,  // measure 35
0100
0000
0000
0100
1000
0000
0000
1000
0002
0000
0010
0000
0103
0000
0010
0001
,  // measure 36
1000
0001
0010
0001
0100
0000
0101
0000
0002
0000
0010
0000
1003
0000
0001
0010
,  // measure 37
0100
1000
0010
0100
0001
0000
1001
0000
2000
0000
0100
0000
3010
0001
0100
0010
,  // measure 38
1000
0001
1000
0001
1000
0001
1000
0001
1000
0001
1000
0001
1000
0001
1000
0001
,  // measure 39
1000
0000
1001
0000
0101
0000
0001
0000
0010
0100
0000
0100
1000
0000
0010
1000
,  // measure 40
0100
0000
0010
0001
1000
0000
1000
0100
0010
0001
0020
0000
0000
0000
1000
0000
,  // measure 41
0000
0100
0000
0001
0000
0100
0000
1030
,  // measure 42
0001
1000
0001
1000
0001
1000
0001
1000
0001
1000
0001
1000
0001
1000
0001
1000
,  // measure 43
0001
0000
0011
0000
0110
0000
0100
0000
1000
0010
0000
0010
0100
0000
0001
0010
,  // measure 44
1000
0000
0010
0100
0001
0000
1000
0100
0010
0001
0100
0000
0010
0001
1000
0001
,  // measure 45
0010
0000
0100
0000
0010
0000
0100
0000
1000
0000
0001
0000
1000
0000
0001
0000
1000
0100
0000
0000
0000
0000
0000
0000
0010
0001
0000
0000
0000
0000
0000
0000
,  // measure 46
1000
0001
1000
0100
0010
0001
0100
0010
0100
0000
0110
0000
0110
0000
0000
0000
,  // measure 47
0001
0000
0010
0000
0100
0000
1000
0000
0010
0000
0100
0000
0001
0000
0010
0000
0100
0000
0000
0000
0110
0000
0000
0000
0110
0000
0000
0000
0000
0000
0000
1000
,  // measure 48
0200
0000
0000
0000
0010
0000
0000
0000
0310
0000
0000
0000
0000
0000
0000
0001
0200
0000
0000
0000
0010
0000
0000
0000
0310
0000
0000
0000
0000
0000
0000
0010
,  // measure 49
1000
0000
0000
0000
0010
1000
0000
0000
1000
0010
0000
0000
0010
1000
0000
0000
1000
0010
0000
0000
0001
0000
0010
0000
0100
0000
0000
0000
1000
0000
0100
0000
,  // measure 50
0010
0001
1000
0010
0100
0001
1000
0100
0001
0000
1001
0000
1001
0000
0000
0000
,  // measure 51
0010
0000
0001
0000
0100
0000
0010
0000
1000
0000
0100
0000
0010
0000
0001
0000
1000
0000
0000
0000
1001
0000
0000
0000
1001
0000
0000
0000
0000
0000
0000
0001
,  // measure 52
0020
0000
0000
0000
0100
0000
0000
0000
0130
0000
0000
0000
0000
0000
0000
1000
0020
0000
0000
0000
0100
0000
0000
0000
0130
0000
0000
0000
0000
0000
0000
0001
,  // measure 53
0100
0000
0000
0000
0001
0100
0000
0000
0100
0001
0000
0000
0001
0100
0000
0000
0100
0001
0000
0000
1000
0000
0100
0000
0010
0000
0001
0000
0100
0000
0010
0000
,  // measure 54
1000
0100
0010
0100
1000
0010
0100
0010
0002
0000
0010
0000
0100
0000
1003
0000
,  // measure 55
0001
0010
0100
1000
0010
0100
0001
1000
0100
0010
0001
0010
0100
1000
0010
0100
,  // measure 56
0020
1000
0001
0001
,  // measure 57
1030
0200
1000
0000
0001
0000
0001
0000
,  // measure 58
1300
0010
0100
0001
1000
0100
0010
0001
2000
0000
0100
0000
0010
0000
3001
0000
,  // measure 59
0010
0100
0001
1000
0100
0010
1000
0001
0010
0100
0001
1000
0100
0010
0001
1000
,  // measure 60
0010
0001
0100
0001
0010
0000
1100
0000
1000
0100
0010
0001
0100
0000
0101
0000
,  // measure 61
1000
0100
0001
0000
1001
0000
0110
0000
0001
0100
1000
0000
0110
0000
0001
1000
,  // measure 62
0100
0000
0010
1000
0100
1000
0010
0000
0100
0001
0000
0100
0010
0000
0010
0100
,  // measure 63
1000
0000
0010
1000
0100
0001
0010
0000
1000
0001
0000
0001
0010
0000
0100
0010
,  // measure 64
1000
0000
0100
1000
0010
1000
0100
0000
0010
0001
0000
0100
0010
0000
0100
1000
,  // measure 65
0010
0000
0000
0000
0000
0000
0100
0000
0000
0001
0000
0000
0010
0000
0000
0001
0000
0000
0100
0000
0000
0000
0000
0000
1000
0000
0000
0100
0000
0000
0000
0000
0000
0100
0000
0000
0010
0000
0000
0100
0000
0000
0001
0000
0010
0000
0100
0000
,  // measure 66
1000
0000
0010
1000
0001
0000
0100
0001
0010
0001
0000
1000
0010
0000
0100
0001
,  // measure 67
1000
0010
0100
0001
1000
0100
0010
0100
0001
0010
0000
0010
0100
1000
0010
0100
,  // measure 68
0001
1000
0010
0100
0001
0010
1000
0100
0010
0100
0000
0100
0010
1000
0001
0010
,  // measure 69
0100
0000
0000
1000
0000
0000
0100
0000
0000
1000
0000
0000
0010
0000
0000
0100
0000
0000
0010
0000
0000
0100
0000
0000
0001
0000
0000
0010
0000
0000
0001
0000
0000
0010
0000
0000
1000
0000
0100
0000
0010
0000
0001
0000
0000
0010
0000
0000
,  // measure 70
0100
0010
0100
0010
0100
0010
0100
0010
0100
0010
0100
0010
0100
0010
1000
0001
,  // measure 71
0010
0100
0010
0100
0010
0100
0010
0100
0010
0100
0010
0100
0010
0100
1000
0001
,  // measure 72
0010
0000
0100
0001
1000
0000
0010
0100
0001
0010
0000
0010
0100
0000
1000
0010
,  // measure 73
0100
0000
0001
1000
0100
0000
0010
0001
1000
0000
1010
0000
0000
0000
0000
0000
;
