#VERSION:0.83;
#TITLE:CAN'T TAKE MY EYES OFF YOU (70's Remix);
#SUBTITLE:;
#ARTIST:BEAT BOX;
#TITLETRANSLIT:;
#SUBTITLETRANSLIT:;
#ARTISTTRANSLIT:;
#GENRE:;
#ORIGIN:;
#CREDIT:;
#BANNER:CAN'T TAKE MY EYES OFF YOU (70's Remix).png;
#BACKGROUND:CAN'T TAKE MY EYES OFF YOU (70's Remix)-bg.png;
#PREVIEWVID:;
#JACKET:CAN'T TAKE MY EYES OFF YOU (70'S Remix)-jacket.png;
#CDIMAGE:;
#DISCIMAGE:;
#LYRICSPATH:;
#CDTITLE:;
#MUSIC:CAN'T TAKE MY EYES OFF YOU (70's Remix).ogg;
#OFFSET:0.000000;
#SAMPLESTART:16.563000;
#SAMPLELENGTH:15.000000;
#SELECTABLE:YES;
#DISPLAYBPM:134.000000;
#BPMS:0.000=134.300,
4.000=134.000;
#STOPS:;
#DELAYS:;
#WARPS:;
#TIMESIGNATURES:0.000=4=4;
#TICKCOUNTS:0.000=4;
#COMBOS:0.000=1;
#SPEEDS:0.000=1.000=0.000=0;
#SCROLLS:0.000=1.000;
#FAKES:;
#LABELS:0.000=Song Start;
#BGCHANGES:;
#KEYSOUNDS:;
#ATTACKS:
;

//---------------dance-single - ----------------
#NOTEDATA:;
#CHARTNAME:;
#STEPSTYPE:dance-single;
#DESCRIPTION:;
#CHARTSTYLE:;
#DIFFICULTY:Easy;
#METER:5;
#RADARVALUES:0.219605,0.274123,0.075249,0.000000,0.000000,143.000000,136.000000,7.000000,0.000000,0.000000,0.000000,0.000000,0.000000,0.000000,0.219605,0.274123,0.075249,0.000000,0.000000,143.000000,136.000000,7.000000,0.000000,0.000000,0.000000,0.000000,0.000000,0.000000;
#CREDIT:;
#DISPLAYBPM:134.000000;
#NOTES:
0000
0000
0000
0000
,
0000
0000
0000
0000
,
0000
0000
0000
0000
,
0000
0000
0000
0000
,
0000
0000
0000
0000
,
1000
0000
0001
0000
,
1000
0000
0001
0000
,
1000
0000
0001
0000
,
1001
0010
0010
0010
,
0001
0000
1000
0000
,
0100
1001
0000
0100
,
0000
0001
0000
0100
,
0000
1000
0000
0100
,
0000
0001
0000
0100
,
0000
1000
0000
0100
,
0000
0001
0000
0100
,
0000
1001
0000
0100
,
0010
0010
0010
0010
,
1001
0100
0001
0100
,
1000
0100
1000
0100
,
0001
0100
0001
0100
,
1000
0100
1000
0100
,
0010
1000
0100
0001
,
0100
1000
0010
0001
,
1000
0100
0001
0100
,
1000
0001
0100
0100
,
1000
0000
0001
0000
,
1000
0000
0001
0000
,
1000
0000
0001
0000
,
1000
0000
0001
0000
,
1000
1000
0001
0001
,
1000
1000
0001
0001
,
1000
0001
1000
0001
,
0010
0000
0000
0000
,
1000
0000
0100
0000
,
0001
0000
0100
0000
,
1000
0000
0100
0000
,
0001
0000
0100
0000
,
1000
0000
0100
0000
,
0001
0000
0100
0000
,
1000
0000
0100
0000
,
0010
0010
0010
0010
,
1001
0100
1000
0100
,
0001
0100
0001
0100
,
1000
0100
1000
0100
,
0001
0100
0001
0100
,
1000
0100
1000
0100
,
0001
0100
0001
0100
,
1000
0100
1000
0100
,
1001
0100
0000
0100
,
0000
0100
0000
0100
,
1001
0000
0000
0000
;

//---------------dance-single - ----------------
#NOTEDATA:;
#CHARTNAME:;
#STEPSTYPE:dance-single;
#DESCRIPTION:;
#CHARTSTYLE:;
#DIFFICULTY:Medium;
#METER:7;
#RADARVALUES:0.316355,0.356360,0.021500,0.000000,0.000000,206.000000,204.000000,2.000000,0.000000,0.000000,0.000000,0.000000,0.000000,0.000000,0.316355,0.356360,0.021500,0.000000,0.000000,206.000000,204.000000,2.000000,0.000000,0.000000,0.000000,0.000000,0.000000,0.000000;
#CREDIT:;
#DISPLAYBPM:134.000000;
#NOTES:
0000
0000
0000
0000
,
0000
0000
0000
0000
,
0000
0000
0000
0000
,
0000
0000
0000
0000
,
0000
0000
0000
0000
,
0010
0100
0010
1000
,
0100
0010
0001
0100
,
0010
0100
0010
1000
,
0100
0001
0100
1000
,
0010
0001
1000
0100
,
1001
0100
0100
0100
,
0001
0100
0010
1000
,
0100
0001
0100
1000
,
0010
0100
0001
0010
,
1000
0001
0100
0001
,
0100
0010
1000
0100
,
0001
0100
1000
0100
,
1000
0100
0010
0001
,
0010
0000
0001
0000
1000
0100
0001
0000
,
0100
0000
1000
0000
0001
0100
1000
0000
,
0100
0000
0001
0000
1000
0100
0001
0000
,
0100
0000
1000
0000
0001
0100
1000
0000
,
0100
0001
1000
0100
,
0001
0100
1000
1000
,
0001
0001
1000
1000
,
0001
0100
1000
0001
,
1000
1000
0100
0100
,
0001
0001
0100
0100
,
0010
0000
0010
0000
1000
0100
0001
0000
,
0100
0000
1000
0000
0001
0100
1000
0000
,
0100
0000
0001
0000
1000
0100
0001
0000
,
0100
0000
1000
0000
0010
0001
1000
0000
,
0001
0000
0100
0000
1000
0100
0001
0000
,
1000
0001
1000
0100
,
0001
0100
1000
0100
,
0001
0000
1000
0000
0001
0100
1000
0000
,
0100
0000
0001
0000
1000
0100
0001
0000
,
0100
0000
1000
0000
0001
0100
1000
0000
,
0100
0000
0001
0000
1000
0100
0001
0000
,
0001
0100
1000
0000
1000
0100
0001
0000
,
1000
0100
0001
0000
0001
0100
1000
0000
,
1000
0100
0001
0000
0001
0100
1000
0000
,
0001
0100
0001
0100
,
0010
0001
0010
0001
,
0010
1000
0010
1000
,
1000
0100
1000
0100
,
0001
0100
0001
0100
,
0010
1000
0010
1000
,
0010
0001
0010
0001
,
1000
0100
1000
0100
,
0001
0100
0001
0100
,
1001
0000
0000
0000
;

//---------------dance-single - ----------------
#NOTEDATA:;
#CHARTNAME:;
#STEPSTYPE:dance-single;
#DESCRIPTION:;
#CHARTSTYLE:;
#DIFFICULTY:Hard;
#METER:12;
#RADARVALUES:0.511389,0.493421,0.139749,0.000000,0.000000,333.000000,320.000000,13.000000,0.000000,0.000000,0.000000,0.000000,0.000000,0.000000,0.511389,0.493421,0.139749,0.000000,0.000000,333.000000,320.000000,13.000000,0.000000,0.000000,0.000000,0.000000,0.000000,0.000000;
#CREDIT:;
#DISPLAYBPM:134.000000;
#NOTES:
0000
0000
0000
0000
,
0000
0000
0000
0000
,
0000
0000
0000
0000
,
0000
0000
0000
0000
,
0000
0000
0000
0000
,
0010
1000
0100
0000
0010
0001
0100
0000
,
0010
1000
0100
0001
0100
1000
0010
0000
,
1000
0100
0001
0000
0100
1000
0010
0000
,
1000
0100
0001
0100
1000
0010
0001
0010
,
1000
0100
0001
0100
1000
0010
0001
0010
,
0001
0000
0010
0000
1000
0100
0001
0000
,
0010
0000
0001
0000
0100
0000
0001
0100
,
1000
0000
0010
0000
1000
0100
0001
0000
,
1000
0000
0001
0000
0010
1000
0100
0000
,
1000
0000
0001
0000
1000
0100
0001
0000
,
0010
0010
0001
0001
1000
1000
0001
0001
,
0100
0001
0100
0001
1000
0100
1000
0100
,
0010
0001
1000
0100
0010
1000
0001
0100
,
1001
0000
0100
0001
0100
0100
0100
0000
,
1001
0000
0100
1000
0010
0010
0010
0000
,
1001
0000
0010
1000
0100
0100
0100
0000
,
1001
0000
0100
0001
0010
0010
0010
0000
,
1000
0100
0001
0100
1000
0010
0001
0010
,
1000
0100
0001
0100
1000
0010
0010
0000
,
0010
1000
0100
0001
0100
1000
0010
1000
,
0100
0001
0100
1000
0010
0001
0010
1000
,
0001
0001
1000
1000
,
0010
1000
0100
0010
0001
0100
0010
1000
,
0100
0010
0001
0100
0010
1000
0100
0001
,
0100
1000
0010
0001
0010
1000
0100
0001
,
0100
1000
0100
0010
0001
0100
0010
1000
,
0100
0010
0001
0100
0010
1000
0010
0001
,
0010
1000
0100
0010
0001
0100
0010
1000
,
0100
0010
0001
0100
1000
0100
0001
0010
,
1000
0010
0001
1000
0100
0010
0001
0100
,
0010
1000
0100
0010
0001
0100
0010
1000
,
0001
0010
0001
0100
0010
1000
0100
0001
,
0100
1000
0001
0100
0010
1000
0001
0010
,
0001
0100
1000
0100
0001
0010
1000
0010
,
0001
1000
0100
0010
0001
0100
0010
1000
,
0100
0001
0100
1000
0010
0001
0010
1000
,
0001
0010
1000
0010
0001
1000
0001
1000
,
0001
0101
1000
1100
,
0001
0100
1000
0100
0001
0010
1000
0010
,
0001
0011
1000
1010
,
0001
0010
1000
0010
0001
0100
1000
0100
,
0001
0011
1000
1100
,
0100
1000
0010
0001
0010
1000
0100
0001
,
1000
1010
0001
0101
,
0010
0001
0100
1000
0100
0001
0010
0001
,
1000
0100
0001
0100
1000
0100
0001
0100
,
1001
0000
0000
0000
;

//---------------dance-double - ----------------
#NOTEDATA:;
#CHARTNAME:;
#STEPSTYPE:dance-double;
#DESCRIPTION:;
#CHARTSTYLE:;
#DIFFICULTY:Easy;
#METER:3;
#RADARVALUES:0.297926,0.438596,0.096749,0.000000,0.000000,194.000000,185.000000,9.000000,0.000000,0.000000,0.000000,0.000000,0.000000,0.000000,0.297926,0.438596,0.096749,0.000000,0.000000,194.000000,185.000000,9.000000,0.000000,0.000000,0.000000,0.000000,0.000000,0.000000;
#CREDIT:;
#DISPLAYBPM:134.000000;
#NOTES:
00000000
00000000
00000000
00000000
,
00000000
00000000
00000000
00000000
,
00000000
00000000
00000000
00000000
,
00000000
00000000
00000000
00000000
,
00000000
00000000
00000000
00000000
,
00010000
00001000
00010000
00100000
,
10000000
01000000
00010000
00001000
,
00000100
00000001
00000010
00001000
,
00000001
00000100
00001000
00010000
,
00001000
00010000
00100000
10000000
,
00010000
00010000
10000000
00010000
,
10000000
01000000
00010000
00001000
,
00000100
00001000
00010000
01000000
,
00010000
00001000
00000100
00001000
,
00010000
01000000
10000000
00100000
,
00010000
00001000
00000100
00001000
,
00010000
00001000
00010000
01000000
,
00010000
00001000
00000100
00000001
,
00000010
00001000
00010000
01000000
,
00010000
00001000
00000100
00001000
,
00010000
01000000
00010000
00001000
,
00010000
00010000
00100000
10000000
,
00100000
10000000
01000000
00010000
,
00000010
00000001
00000010
00001000
,
00000100
00000001
00000100
00001000
,
00100000
10000000
01000000
00010000
,
00001000
00001000
00010000
00010000
,
00001000
00001000
00010000
00010000
,
00001000
00000100
00000001
00000010
,
00001000
00010000
00001000
00000100
,
00001000
00010000
01000000
00010000
,
00000010
00000001
00000010
00001000
,
00000100
00001000
00000010
00000001
,
00000010
00010000
01000000
10000000
,
00100000
00010000
00001000
00000100
,
00000001
00001000
00000100
00001000
,
00100000
10000000
01000000
00010000
,
00001000
00000100
00000001
00000010
,
00001000
00010000
00001000
00010000
,
01000000
00010000
00001000
00000100
,
00001000
00010000
01000000
00010000
,
00001000
00010000
00011000
00011000
,
00100000
00010000
00001000
00000010
,
00001000
00010000
00100000
00010000
,
00001000
00000010
00001000
00010000
,
00100000
00100000
00010000
00010000
,
00000010
00000010
00001000
00001000
,
00000001
00000001
00001000
00001000
,
00010000
00010000
00100000
00100000
,
10010000
10010000
01000000
01000000
,
10010000
01100000
00011000
00000110
,
00001001
00000000
00000000
00000000
;

//---------------dance-double - ----------------
#NOTEDATA:;
#CHARTNAME:;
#STEPSTYPE:dance-double;
#DESCRIPTION:;
#CHARTSTYLE:;
#DIFFICULTY:Medium;
#METER:6;
#RADARVALUES:0.330176,0.493421,0.053750,0.000000,0.000000,215.000000,210.000000,5.000000,0.000000,0.000000,0.000000,0.000000,0.000000,0.000000,0.330176,0.493421,0.053750,0.000000,0.000000,215.000000,210.000000,5.000000,0.000000,0.000000,0.000000,0.000000,0.000000,0.000000;
#CREDIT:;
#DISPLAYBPM:134.000000;
#NOTES:
00000000
00000000
00000000
00000000
,
00000000
00000000
00000000
00000000
,
00000000
00000000
00000000
00000000
,
00000000
00000000
00000000
00000000
,
00000000
00000000
00000000
00000000
,
00000010
00001000
00000100
00010000
,
00100000
10000000
01000000
00010000
,
00001000
00000100
00000001
00000010
,
00001000
00010000
00100000
00010000
,
00001000
00000010
00001000
00010000
,
00001000
00010000
00010000
00001000
,
00010000
01000000
10000000
10000000
,
01000000
00010000
00001000
00010000
,
00001000
00000100
00000001
00000001
,
00000010
00001000
00010000
00010000
,
00100000
10000000
01000000
00010000
,
00001000
00000100
00000001
00000010
,
00001000
00010000
00010000
00010000
,
00100000
10000000
01000000
00010000
00001000
00000000
00001000
00000000
,
00010000
01000000
10000000
00100000
10000000
00000000
10000000
00000000
,
00100000
00010000
00001000
00000100
00000001
00000000
00000001
00000000
,
00000010
00001000
00010000
01000000
10000000
00000000
10000000
00000000
,
00100000
00010000
00001000
00000010
,
00001000
00010000
00100000
10000000
,
01000000
10000000
00100000
00010000
,
00001000
00001000
00010000
00010000
,
00001000
00000100
00001000
00000100
,
00000001
00000100
00000001
00000100
,
00000001
00001000
00000100
00010000
,
00100000
00010000
00001000
00010000
,
01000000
10000000
00010000
10000000
,
00010000
01000000
00010000
00010000
,
00001000
00001000
00010000
00010000
,
00001000
00000100
00000001
00000000
00001000
00000000
00001000
00000000
,
00010000
00001000
00010000
01000000
,
10000000
00100000
00010000
00001000
,
00001000
00000100
00000001
00000010
,
00001000
00010000
00001000
00010000
,
00100000
10000000
01000000
10010000
,
01000000
00010000
00001000
00011000
,
00000100
00000001
00001000
00001001
,
00000100
00001000
00100000
10010000
,
00010000
10000000
00010000
01000000
,
10000000
01000000
00010000
00000000
00001000
00000100
00000001
00000000
,
00001000
00000001
00001000
00000100
,
00000001
00000100
00001000
00000000
00010000
01000000
10000000
00000000
,
00100000
01000000
00100000
01000000
,
00100000
10000000
01000000
00010000
01000000
10000000
00100000
00010000
,
00001000
00000100
00001000
00000100
,
00000010
00000001
00000100
00001000
00000100
00000001
00000010
00001000
,
00000001
00001000
00000100
00010000
00001000
00010000
00001000
00010000
,
00011000
00000000
00000000
00000000
;

//---------------dance-double - ----------------
#NOTEDATA:;
#CHARTNAME:;
#STEPSTYPE:dance-double;
#DESCRIPTION:;
#CHARTSTYLE:;
#DIFFICULTY:Hard;
#METER:8;
#RADARVALUES:0.489889,0.493421,0.064499,0.000000,0.000000,319.000000,313.000000,6.000000,0.000000,0.000000,0.000000,0.000000,0.000000,0.000000,0.489889,0.493421,0.064499,0.000000,0.000000,319.000000,313.000000,6.000000,0.000000,0.000000,0.000000,0.000000,0.000000,0.000000;
#CREDIT:;
#DISPLAYBPM:134.000000;
#NOTES:
00000000
00000000
00000000
00000000
,
00000000
00000000
00000000
00000000
,
00000000
00000000
00000000
00000000
,
00000000
00000000
00000000
00000000
,
00000000
00000000
00000000
00000000
,
00100000
00010000
00001000
00000000
00000010
00001000
00010000
00000000
,
00100000
00010000
00001000
00000010
00001000
00010000
00010000
00000000
,
00001000
00000100
00000001
00000000
00000010
00001000
00010000
00000000
,
00100000
10000000
01000000
00010000
00000010
00000001
00000010
00001000
,
00000001
00001000
00000001
00001000
00000010
00000000
00000010
00000000
,
00000001
00000000
00001000
00000000
00000001
00000100
00001000
00000000
,
00010000
01000000
10000000
00000000
01000000
00010000
00001000
00000000
,
00000100
00000001
00000010
00000000
00000001
00000100
00001000
00000000
,
00100000
00010000
00100000
00000000
00010000
10000000
01000000
00000000
,
00010000
00001000
00000100
00000000
00001000
00010000
00001000
00000000
,
00010000
00100000
00010000
00000000
00001000
00000010
00001000
00000000
,
00010000
01000000
00010000
00000000
00001000
00010000
00001000
00000000
,
00101000
00000000
00010010
00000000
00000001
00000100
00001000
00000000
,
00010000
01000000
10000000
00000000
01000000
01000000
01000000
00000000
,
10010000
00000000
01000000
00000000
00010000
00001000
00000100
00000000
,
00001001
00000000
00000010
00000000
00001000
01000000
10000000
00000000
,
10010000
00000000
00100000
10000000
01000000
01000000
01000000
00000000
,
00100000
10000000
01000000
00010000
00001000
00000100
00000001
00000010
,
00001000
00010000
00100000
10000000
01000000
00010000
00001000
00000000
,
00010000
01000000
10000000
00010000
00000100
00001000
00100000
10000000
,
00100000
00010000
01000000
00001000
00000100
00001000
00010000
01000000
,
10000000
10000000
00010000
00010000
,
00100000
10000000
01000000
00010000
00001000
00000100
00000001
00000010
,
00001000
00010000
00100000
10000000
01000000
00010000
00001000
00010000
,
01000000
10000000
00100000
00010000
00100000
10000000
01000000
00010000
,
00001000
00000100
00000001
00000010
00001000
00010000
00001000
00010000
,
00001000
00000010
00001000
00100000
00010000
00100000
00001000
00000100
,
00001000
00100000
10000000
00100000
00010000
10000000
00010000
01000000
,
00001000
00000010
00000001
00000100
00001000
00100000
00010000
01000000
,
00010000
00100000
00010000
00000100
00001000
00010000
01000000
00010000
,
00001000
00010000
00000010
00000001
00000010
00001000
00000100
00001000
,
00100000
10000000
01000000
00010000
01000000
10000000
00010000
10000000
,
00010000
00000100
00000001
00001000
00000001
00000100
00001000
00010000
,
00001000
00100000
00010000
01000000
00010000
00100000
00010000
00000100
,
00001000
00010000
01000000
00010000
00001000
00000100
00001000
00010000
,
00001000
00100000
10000000
00100000
00010000
10000000
01000000
00010000
,
00000010
00001000
00000001
00001000
00000100
00001000
00000100
00001000
,
00100000
00100000
01000000
01000000
,
00010000
10000000
01000000
00010000
00001000
00000100
00000001
00001000
,
00000010
00000010
00000100
00000100
,
00000010
00001000
00000100
00001000
00100000
10000000
01000000
00010000
,
00001000
00001000
00010000
00010000
,
00001000
00010000
01000000
00010000
00001000
00000100
00001000
00010000
,
01000000
01000000
10000000
10000000
,
00100000
00010000
00000100
00000001
00000100
00001000
00000010
00001000
,
00000100
00001000
00100000
10000000
01000000
00010000
00001000
00010000
,
00011000
00000000
00000000
00000000
;

//---------------dance-single - ----------------
#NOTEDATA:;
#CHARTNAME:;
#STEPSTYPE:dance-single;
#DESCRIPTION:;
#CHARTSTYLE:;
#DIFFICULTY:Beginner;
#METER:5;
#RADARVALUES:0.144356,0.328947,0.107499,0.193498,0.000000,94.000000,84.000000,10.000000,18.000000,0.000000,0.000000,0.000000,0.000000,0.000000,0.144356,0.328947,0.107499,0.193498,0.000000,94.000000,84.000000,10.000000,18.000000,0.000000,0.000000,0.000000,0.000000,0.000000;
#CREDIT:;
#DISPLAYBPM:134.000000;
#NOTES:
0000
0000
0000
0000
,
0000
0000
0000
0000
,
0000
0000
0000
0000
,
0000
0000
0000
0000
,
0000
0000
0000
0000
,
2000
0000
3000
0000
,
0002
0000
0003
0000
,
0200
0000
0300
0000
,
0220
0000
0000
0330
,
0000
0100
0000
0010
,
0000
1000
0000
0001
,
0000
1000
0000
0100
,
0000
0010
0000
0001
,
0000
0100
0000
0010
,
0000
1000
0000
0001
,
0002
0000
0000
0000
,
0003
0000
0000
0000
,
0000
1000
0000
0001
,
0000
0100
0000
0010
,
0000
1000
0000
0001
,
0000
0010
0000
0100
,
0000
1000
0000
0010
,
0200
0000
0000
0300
,
0000
0000
0000
0000
,
0020
0000
0000
0000
,
0030
0000
0100
0100
,
0200
0000
0000
0000
,
0300
0000
1000
1000
,
2000
0000
0000
0000
,
3000
0000
0010
0010
,
0020
0000
0000
0000
,
0030
0000
0001
0001
,
0002
0000
0000
0000
,
0003
0000
0001
1000
,
0002
0000
0000
0000
,
0003
0000
0100
0010
,
0200
0000
0000
0000
,
0300
0000
0010
1000
,
0020
0000
0000
0000
,
0030
0000
1000
0001
,
2000
0000
0000
0000
,
3000
0000
0000
0000
,
1000
1001
0001
1001
,
0010
0001
0100
0010
,
0100
0110
0010
0110
,
0010
1000
0001
1000
,
0100
0110
0010
0110
,
0010
0001
1000
0001
,
1000
1001
0001
1001
,
0002
0000
0000
0000
,
2000
0000
3003
0000
,
1001
0000
0000
0000
;

//---------------dance-single - ----------------
#NOTEDATA:;
#CHARTNAME:;
#STEPSTYPE:dance-single;
#DESCRIPTION:;
#CHARTSTYLE:;
#DIFFICULTY:Challenge;
#METER:13;
#RADARVALUES:0.565138,0.794956,0.526746,0.171999,0.225748,368.000000,319.000000,49.000000,16.000000,0.000000,0.000000,0.000000,0.000000,0.000000,0.565138,0.794956,0.526746,0.171999,0.225748,368.000000,319.000000,49.000000,16.000000,0.000000,0.000000,0.000000,0.000000,0.000000;
#CREDIT:;
#DISPLAYBPM:134.000000;
#NOTES:
// measure 0
0000
0000
0000
0000
,  // measure 1
0000
0000
0000
0000
,  // measure 2
0000
0000
0000
0000
,  // measure 3
0000
0000
0000
0000
,  // measure 4
0000
0000
0000
0000
,  // measure 5
0010
0001
0100
0001
0010
0001
0101
0000
,  // measure 6
0010
1000
0100
1000
0010
1000
1100
0000
,  // measure 7
0010
1000
0001
1000
0010
1000
1001
0000
,  // measure 8
0100
0010
0100
0010
1000
0001
1000
0001
,  // measure 9
0100
0010
0100
0010
0100
0010
0100
0010
1000
0001
1000
0001
1000
0001
1000
0001
,  // measure 10
1000
0000
0100
0000
0001
0000
0101
0000
0001
0000
0010
0000
1000
0001
1000
0000
,  // measure 11
0010
0000
0001
0000
0010
0000
0110
0000
0100
0000
1000
0000
0010
1000
0010
0000
,  // measure 12
0100
0000
0001
0000
0100
0000
0110
0000
0010
0000
0001
0000
1000
0001
1000
0000
,  // measure 13
0010
0000
0100
0000
1000
0000
1010
0000
0010
0000
0100
0000
0001
0010
0001
0000
,  // measure 14
0100
0001
1000
2002
3003
0001
0101
0000
,  // measure 15
1000
0100
0001
0000
0100
0000
1000
0100
0001
0000
0100
0000
1000
0100
0001
0000
,  // measure 16
0100
0000
1000
0000
0100
0000
0001
0000
0100
0000
1000
0000
0100
0001
1000
0001
,  // measure 17
0010
0101
1100
1010
,  // measure 18
0010
0000
1000
0000
0001
0000
0101
0000
0001
0000
0100
0000
0010
1000
0010
0000
,  // measure 19
1000
0000
0100
0000
0010
0000
0011
0000
0001
0000
0100
0000
0010
0001
0010
0000
,  // measure 20
0110
0000
0100
0000
1000
0000
1001
0000
0001
0000
1000
0000
0010
1000
0010
0000
,  // measure 21
0100
0000
0010
0000
1000
0000
1001
0000
0010
0000
0001
0000
1000
0001
1000
0000
,  // measure 22
0002
0000
0000
0203
0000
0000
0320
0000
,  // measure 23
0000
1030
0000
0000
1100
0000
0101
0000
,  // measure 24
2000
0000
0000
3020
0000
0000
0230
0000
,  // measure 25
0000
0000
0301
0000
0000
0000
0000
0000
1001
0000
0000
0110
0000
0000
1001
0000
,  // measure 26
0012
0100
1000
0100
,  // measure 27
0010
0000
0103
0000
1000
0100
0001
0010
,  // measure 28
2010
0100
0010
0100
,  // measure 29
0001
0000
3100
0000
0100
0010
0001
1000
,  // measure 30
2100
0010
0001
0100
,  // measure 31
0010
0000
3001
0000
1000
0001
0010
0100
,  // measure 32
0102
1000
0010
0100
,  // measure 33
1000
0000
0103
0000
0100
0010
1000
0010
,  // measure 34
0120
0001
1000
0001
,  // measure 35
0100
0000
1030
0000
0001
0100
1000
0100
,  // measure 36
0210
0001
1000
0010
,  // measure 37
0001
0000
0000
0000
1300
0000
0000
0000
0110
0000
0000
1001
0000
0000
0110
0000
,  // measure 38
1020
0100
0001
0100
,  // measure 39
1000
0000
0000
0000
0031
0000
0000
0000
0101
0000
0000
1010
0000
0000
0101
0000
,  // measure 40
0210
0000
0301
1000
0100
0001
1001
1000
,  // measure 41
0001
0010
0100
1000
0010
0100
0001
1000
,  // measure 42
0100
1000
0000
0000
1010
0000
0000
0000
0001
0010
0000
0000
0110
0000
0000
0000
,  // measure 43
1000
0000
0000
0100
0000
0000
0001
0000
0000
0010
0000
0000
1000
0000
0000
0100
0000
0000
0001
0000
0000
0010
0100
0000
,  // measure 44
0001
0010
0000
0000
0110
0000
0000
0000
1000
0100
0000
0000
1001
0000
0000
0000
,  // measure 45
1000
0001
0100
0001
0010
0001
0100
1000
,  // measure 46
0010
0001
0000
0000
1100
0000
0000
0000
0001
0100
0000
0000
1010
0000
0000
0000
,  // measure 47
1000
0000
0000
0100
0000
0000
0001
0000
0000
0100
0000
0000
1000
0000
0000
0100
0000
0000
0001
0000
0000
0100
0010
0000
,  // measure 48
1000
0100
0000
0000
1001
0000
0000
0000
0001
0100
0000
0000
0110
0000
0000
0000
,  // measure 49
1001
0001
1001
1000
1010
0010
0110
0100
,  // measure 50
0001
1000
0001
1000
0001
1000
0001
1000
0001
1000
0001
1000
0001
1000
0001
1000
,  // measure 51
0001
0000
0000
0000
;
