#TITLE:Butterfly (2008 X-edit);
#SUBTITLE:;
#ARTIST:SMiLE.dk;
#TITLETRANSLIT:;
#SUBTITLETRANSLIT:;
#ARTISTTRANSLIT:;
#GENRE:;
#CREDIT:;
#BANNER:Butterfly (2008 X-edit).png;
#BACKGROUND:Butterfly (2008 X-edit)-bg.png;
#LYRICSPATH:;
#CDTITLE:;
#MUSIC:Butterfly (2008 X-edit).ogg;
#OFFSET:0.000000;
#SAMPLESTART:39.119999;
#SAMPLELENGTH:15.000000;
#SELECTABLE:YES;
#DISPLAYBPM:135.000000;
#BPMS:0.000000=135.337997
,4.000000=134.923004
;
#STOPS:
;
#BGCHANGES:;
#KEYSOUNDS:;
#ATTACKS:;

//---------------dance-single - ----------------
#NOTES:
     dance-single:
     :
     Beginner:
     2:
     0.106029,0.163945,0.000000,0.050836,0.000000,73.000000,73.000000,0.000000,5.000000,0.000000,0.000000,0.106029,0.163945,0.000000,0.050836,0.000000,73.000000,73.000000,0.000000,5.000000,0.000000,0.000000:
0000
0000
0000
0000
,
0000
0000
0000
0000
,
0000
0000
0000
0000
,
0000
0000
0000
0000
,
0000
0000
0000
0000
,
0000
0000
0000
0000
,
0000
0000
0000
0001
,
0000
0000
0000
0001
,
0000
0000
0000
1000
,
0000
0000
0000
1000
,
0000
0000
0001
0001
,
0000
0000
1000
1000
,
0000
0000
0000
0001
,
0000
0000
0000
1000
,
0000
0000
0001
0001
,
0000
0000
1000
1000
,
0000
0000
0000
0001
,
0000
0000
0000
0000
,
0000
0010
0010
0000
,
0001
0000
1000
0000
,
0001
0000
0001
0000
,
1000
0000
1000
0000
,
0000
0010
0010
0000
,
0001
0000
1000
0000
,
0001
0000
0001
0000
,
1000
0000
1000
0000
,
0000
0000
0000
0100
,
0000
0000
0000
0100
,
0000
0000
0000
0100
,
0000
0000
0000
0000
,
2000
0000
0000
3000
,
0000
0000
0000
0000
,
0002
0000
0000
0003
,
0000
0000
0000
0000
,
0010
0010
0010
0000
,
1000
0000
0001
0000
,
1000
0000
1000
0000
,
0001
0000
0001
0000
,
0010
0010
0010
0000
,
1000
0000
0001
0000
,
1000
0000
1000
0000
,
0001
0000
0001
0000
,
0000
0000
0000
0100
,
0000
0000
0000
0100
,
0000
0000
0000
0100
,
0000
0000
0000
0100
,
0000
1000
0000
1000
,
0000
0001
0000
0001
,
0000
1000
0000
0001
,
0000
1000
0000
0001
,
0002
0000
0003
0000
,
2000
0000
3000
0000
,
0020
0000
0030
0000
,
0100
0100
0100
0100
,
0000
0000
0000
0000
;

//---------------dance-single - ----------------
#NOTES:
     dance-single:
     :
     Easy:
     5:
     0.248369,0.273242,0.132173,0.020334,0.000000,171.000000,158.000000,13.000000,2.000000,0.000000,0.000000,0.248369,0.273242,0.132173,0.020334,0.000000,171.000000,158.000000,13.000000,2.000000,0.000000,0.000000:
0000
0000
0000
0000
,
0000
0000
0000
0000
,
0000
0000
0000
0000
,
0000
0000
0000
0000
,
0000
0000
0000
0000
,
0000
0000
0000
0000
,
0010
0001
0010
0001
,
0010
1000
0010
1000
,
0010
0001
0010
1000
,
0010
0001
0000
0000
,
0001
0000
0001
1001
,
1000
0000
1000
1001
,
0000
0001
0100
1000
,
0010
0001
1000
1001
,
0001
0000
0001
1001
,
1000
0000
1000
1001
,
0000
0001
0100
1000
,
0010
0001
1000
1001
,
0000
0010
0010
1001
,
0001
0010
1000
0100
,
0010
0100
1000
0000
,
0001
1000
0100
0010
,
0000
0010
0010
1001
,
0001
0010
1000
0100
,
0010
0100
0001
0000
,
1000
0001
0010
0100
,
0100
0001
0100
0001
,
0100
1000
0100
1000
,
0100
0001
0100
0001
,
0100
0000
1000
1001
,
0200
0000
0000
0000
,
0000
0000
0000
0300
,
0002
0000
0000
0000
,
1003
0000
0000
0000
,
0000
0010
0010
1001
,
0001
0010
1000
0100
,
0010
0100
1000
0000
,
0001
1000
0100
0010
,
0000
0010
0010
1001
,
0001
0010
1000
0100
,
0010
0100
0001
0000
,
1000
0001
0010
0100
,
0000
0100
0001
0100
,
1000
0100
0001
0100
,
1000
0100
0001
0100
,
1000
0010
0100
1001
,
0000
0100
1000
0100
,
0001
0100
1000
0100
,
0001
0100
1000
0100
,
0001
0010
0100
1001
,
0000
0010
0010
0010
,
0001
0001
1000
1000
,
0001
0100
1000
0000
,
0001
0010
0100
1000
,
0000
0000
0000
0000
;

//---------------dance-single - ----------------
#NOTES:
     dance-single:
     :
     Medium:
     8:
     0.342778,0.409863,0.284680,0.071170,0.000000,236.000000,208.000000,28.000000,7.000000,0.000000,0.000000,0.342778,0.409863,0.284680,0.071170,0.000000,236.000000,208.000000,28.000000,7.000000,0.000000,0.000000:
0000
0000
0000
0000
,
0000
0000
0000
0000
,
0000
0000
0000
0000
,
0000
0000
0000
0000
,
0000
0000
0000
0000
,
0000
0000
0000
0000
,
0001
0000
0100
0000
0001
0000
1000
0100
,
0001
0000
0100
0000
1000
0000
0001
0100
,
1000
0000
0100
0000
0001
0000
1000
0100
,
0001
0000
0100
0000
1000
0000
0100
0010
,
0020
0000
0130
0000
1001
0000
1000
0100
,
0020
0000
0130
0000
1001
0000
0001
0100
,
1000
0000
0100
0000
0001
0000
0100
1000
,
0100
0000
0001
0000
1000
0000
0100
0001
,
0020
0000
0130
0000
1001
0000
0001
0100
,
0020
0000
0130
0000
1001
0000
1000
0100
,
0001
0000
0100
0000
1000
0000
0100
0001
,
0100
0000
1000
0000
0001
0000
1000
0001
,
1001
0000
0010
0000
1001
0000
1000
0100
,
0010
0011
1100
0000
,
0001
0000
0100
0000
1000
0010
0001
0000
,
0100
0000
1000
0000
0001
0000
0100
1000
,
0010
0000
0010
0000
1001
0000
0001
0100
,
0010
1010
0101
0000
,
1000
0000
0100
0000
0001
0010
1000
0000
,
0100
0000
0001
0000
1000
0000
0001
1000
,
1001
0000
0010
0000
0001
0000
0010
0001
,
0010
0000
0001
0000
0010
0000
0001
0010
,
1000
0000
0010
0000
1000
0000
0010
1000
,
0100
0001
0010
1001
,
0200
0000
0000
0000
,
0001
0000
0000
0300
,
0020
0000
0000
0000
,
2000
0000
0000
3030
,
1001
0000
0010
0000
1001
0000
1000
0100
,
0010
0011
1100
0000
,
0001
0000
0100
0000
1000
0010
0001
0000
,
0100
0000
1000
0000
0001
0000
0100
1000
,
0010
0000
0010
0000
1001
0000
0001
0100
,
0010
1010
0101
0000
,
1000
0000
0100
0000
0001
0010
1000
0000
,
0100
0000
0001
0000
1000
0000
0001
1000
,
1001
0000
0010
0000
0001
0000
0010
0001
,
0010
0000
1000
0000
0010
0000
1000
0010
,
0001
0000
0010
0000
0001
0000
0010
0001
,
0100
0000
1000
0000
0001
0000
1000
0001
,
1001
0000
0100
0000
1000
0000
0100
1000
,
0100
0000
0001
0000
0100
0000
0001
0100
,
1000
0000
0100
0000
1000
0000
0100
1000
,
0010
0001
1000
1001
,
0000
0010
0010
1001
,
0001
0011
1000
1100
,
0010
0100
1100
0000
,
0001
1000
0100
0011
,
0000
0000
0000
0000
;

//---------------dance-single - ----------------
#NOTES:
     dance-single:
     :
     Hard:
     11:
     0.492380,0.519160,0.233844,0.142340,0.188092,339.000000,316.000000,23.000000,14.000000,0.000000,0.000000,0.492380,0.519160,0.233844,0.142340,0.188092,339.000000,316.000000,23.000000,14.000000,0.000000,0.000000:
0000
0000
0000
0000
,
0000
0000
0000
0000
,
0000
0000
0000
0000
,
0000
0000
0000
0000
,
0000
0000
0000
0000
,
0000
0000
0000
0000
,
1000
0000
0100
0000
1000
0000
0100
1000
0000
0100
1000
0000
0100
0000
1000
0000
,
0001
0000
0100
0000
0001
0000
0100
0001
0000
0100
0001
0000
0010
0000
0001
0000
,
1000
0000
0001
0000
1000
0000
0001
1000
0000
0001
1000
0000
0001
0000
1000
0000
,
0010
0000
0100
0000
0010
0000
0100
0010
0000
0100
0010
0000
0100
0000
0100
0000
,
0010
0000
0000
0100
0001
0000
1000
0000
0010
0000
0000
0000
1100
0000
0000
0000
,
0001
0000
0000
1000
0010
0000
0100
0000
0001
0000
1000
0000
1010
0000
0000
0000
,
0100
0000
0000
0100
0001
0000
0000
0001
0100
0000
0000
0100
1000
0000
0000
1000
,
0010
1000
0010
0001
0010
0100
0110
0000
,
0001
0000
0000
1000
0010
0000
0100
0000
0001
0000
0000
0000
1010
0000
0000
0000
,
0100
0000
0000
0001
0010
0000
0100
0000
1000
0000
0001
0000
0011
0000
0000
0000
,
0100
0000
0000
0100
1000
0000
0000
1000
0100
0000
0000
0100
0001
0000
0000
0001
,
0010
0001
0010
1000
0010
0100
0110
0000
,
0021
0000
1000
0000
0031
0000
0001
0100
,
0001
0010
1000
0100
0001
1000
1001
0000
,
0010
1000
0000
0000
0001
0000
0001
0000
0010
0001
0000
0000
1000
0000
1000
0000
,
0001
0010
1000
0010
0001
0100
0110
0000
,
0201
0000
1000
0000
0301
0000
1000
0010
,
1000
0100
0001
0010
1000
0001
1001
0000
,
0100
0001
0000
0000
1000
0000
1000
0000
0100
1000
0000
0000
0001
0000
0001
0000
,
1000
0100
0001
0100
1000
0010
0110
0000
,
0001
0000
0000
0010
0001
0000
1000
0000
0100
0000
0010
0000
0010
0000
0100
0000
,
1000
0000
0000
0010
1000
0000
0001
0000
0100
0000
0010
0000
0010
0000
0100
0000
,
0001
0000
0000
1000
0100
0000
0010
0000
0001
0000
1000
0000
1000
0000
0010
0000
,
0100
0001
0010
1001
,
0200
0000
0000
0000
,
2000
0000
0000
3300
,
0020
0000
0000
0000
,
0002
0000
0000
0033
,
1200
0000
0001
0000
1300
0000
1000
0100
,
1000
0010
0001
0100
1000
0001
1001
0000
,
0100
0001
0000
0000
0010
0000
0010
0000
0100
1000
0000
0000
0010
0000
0010
0000
,
1000
0100
0001
0100
1000
0010
0110
0000
,
1020
0000
0001
0000
1030
0000
0001
0010
,
0001
0100
1000
0010
0001
1000
1001
0000
,
0010
1000
0000
0000
0100
0000
0100
0000
0010
0001
0000
0000
0100
0000
0100
0000
,
0001
0010
1000
0010
0001
0100
0110
0010
,
1000
0000
0000
0100
1000
0000
0001
0000
0020
0000
0100
0000
0130
0000
0010
0000
,
0001
0000
0000
0100
0001
0000
1000
0000
0020
0000
0100
0000
0130
0000
0010
0000
,
1000
0000
0000
0001
0010
0000
0100
0000
2000
0000
0001
0000
3001
0000
0100
0000
,
0010
1000
0001
1000
0100
0100
0110
0000
,
0001
0000
0000
0100
0001
0000
1000
0000
0020
0000
0100
0000
0130
0000
0010
0000
,
1000
0000
0000
0100
1000
0000
0001
0000
0020
0000
0100
0000
0130
0000
0010
0000
,
0001
0000
0000
1000
0010
0000
0100
0000
0002
0000
1000
0000
1003
0000
0100
0000
,
0010
0001
1000
0001
0100
0000
0110
0000
,
0010
0010
0100
0100
,
0010
1000
0100
1000
0010
0000
0101
0000
,
1000
0100
0001
0000
0001
0100
1000
0000
,
0010
0001
0100
1000
0010
0000
1001
0000
,
0000
0000
0000
0000
;

//---------------dance-single - ----------------
#NOTES:
     dance-single:
     :
     Challenge:
     5:
     0.228035,0.273242,0.061003,0.020334,0.000000,157.000000,151.000000,6.000000,2.000000,44.000000,0.000000,0.228035,0.273242,0.061003,0.020334,0.000000,157.000000,151.000000,6.000000,2.000000,44.000000,0.000000:
0000
0000
0000
0000
,
0000
0000
0000
0000
,
0000
0000
0000
0000
,
0000
0000
0000
0000
,
0000
0000
0000
0000
,
0000
0000
0000
0000
,
0010
0001
0010
0001
,
0010
1000
0010
1000
,
0010
0001
0010
1000
,
0010
0001
0000
0000
,
0001
0000
0001
MMMM
,
1000
0000
1000
MMMM
,
0000
0001
0100
1000
,
0010
0001
1000
1001
,
0001
0000
0001
MMMM
,
1000
0000
1000
MMMM
,
0000
0001
0100
1000
,
0010
0001
1000
1001
,
0000
0010
0010
1001
,
0001
0010
1000
0100
,
0010
0100
1000
MMMM
,
0001
1000
0100
0010
,
0000
0010
0010
1001
,
0001
0010
1000
0100
,
0010
0100
0001
MMMM
,
1000
0001
0010
0100
,
0100
0001
0100
0001
,
0100
1000
0100
1000
,
0100
0001
0100
0001
,
0100
0000
1000
MMMM
,
0200
0000
0000
0000
,
0000
0000
0000
0300
,
0002
0000
0000
0000
,
1003
0000
0000
0000
,
0000
0010
0010
1001
,
0001
0010
1000
0100
,
0010
0100
1000
MMMM
,
0001
1000
0100
0010
,
0000
0010
0010
1001
,
0001
0010
1000
0100
,
0010
0100
0001
MMMM
,
1000
0001
0010
0100
,
0000
0100
0001
0100
,
1000
0100
0001
0100
,
1000
0100
0001
0100
,
1000
0010
0100
MMMM
,
0000
0100
1000
0100
,
0001
0100
1000
0100
,
0001
0100
1000
0100
,
0001
0010
0100
MMMM
,
0000
0010
0010
0010
,
0001
0001
1000
1000
,
0001
0100
1000
0000
,
0001
0010
0100
1000
,
0000
0000
0000
0000
;

//---------------dance-double - ----------------
#NOTES:
     dance-double:
     :
     Easy:
     5:
     0.262893,0.300566,0.132173,0.000000,0.000000,181.000000,168.000000,13.000000,0.000000,0.000000,0.000000,0.262893,0.300566,0.132173,0.000000,0.000000,181.000000,168.000000,13.000000,0.000000,0.000000,0.000000:
00000000
00000000
00000000
00000000
,
00000000
00000000
00000000
00000000
,
00000000
00000000
00000000
00000000
,
00000000
00000000
00000000
00000000
,
00000000
00000000
00000000
00000000
,
00000000
00000000
00000000
00000000
,
00100000
10000000
00100000
10000000
,
00010000
01000000
00010000
01000000
,
00001000
00010000
00001000
00010000
,
00000100
00001000
00000100
00001000
,
00010000
00000000
00001000
00011000
,
00000010
00000001
00001000
00001001
,
00010000
01000000
10000000
00100000
,
01000000
00010000
00001000
00011000
,
00001000
00000000
00010000
00011000
,
00100000
10000000
00010000
10010000
,
00001000
00000100
00000001
00000010
,
00000100
00001000
00010000
00011000
,
00000000
00000010
00000010
00000010
,
00000001
00001000
00000001
00001000
,
00010000
01000000
10000000
00100000
,
01000000
00010000
00001000
00011000
,
00000000
00100000
00100000
00100000
,
10000000
00010000
10000000
00010000
,
00001000
00000100
00000001
00000010
,
00000100
00001000
00010000
00011000
,
00001000
00000001
00000010
00000001
,
00000010
00000001
00000010
00000001
,
00010000
10000000
00100000
10000000
,
00100000
10000000
01000000
00000000
,
01000000
00000000
00000000
00000000
,
00010000
00000000
00000000
00000000
,
00001000
00000000
00000000
00000000
,
00000100
00000000
00000000
00000000
,
00000000
00000010
00000010
00000010
,
00000001
00001000
00000001
00001000
,
00010000
01000000
10000000
00100000
,
01000000
00010000
00001000
00011000
,
00000000
00100000
00100000
00100000
,
10000000
00010000
10000000
00010000
,
00001000
00000100
00000001
00000010
,
00000100
00001000
00010000
00011000
,
00001000
00000001
00000010
00000001
,
00000010
00001000
00000010
00001000
,
00000010
00000001
00000010
00000001
,
00000100
00001000
00010000
00011000
,
00010000
10000000
00100000
10000000
,
00100000
00010000
00100000
00010000
,
00100000
10000000
00100000
10000000
,
01000000
00010000
00001000
00011000
,
00000010
00000000
00000001
00000000
,
00000100
00001000
00010000
00000000
,
01000000
00000000
10000000
00000000
,
00100000
00010000
01000000
10010000
,
00000000
00000000
00000000
00000000
;

//---------------dance-double - ----------------
#NOTES:
     dance-double:
     :
     Medium:
     7:
     0.319539,0.355215,0.244012,0.000000,0.000000,220.000000,196.000000,24.000000,0.000000,0.000000,0.000000,0.319539,0.355215,0.244012,0.000000,0.000000,220.000000,196.000000,24.000000,0.000000,0.000000,0.000000:
00000000
00000000
00000000
00000000
,
00000000
00000000
00000000
00000000
,
00000000
00000000
00000000
00000000
,
00000000
00000000
00000000
00000000
,
00000000
00000000
00000000
00000000
,
00000000
00000000
00000000
00000000
,
10000000
00000000
00100000
00000000
01000000
00001000
00010000
00000000
,
00000100
00000000
00000010
00000000
00000001
00001000
00000100
00000000
,
00010000
00000000
01000000
00000000
00100000
00010000
01000000
00000000
,
00100000
10000000
01000000
00010000
,
00001000
00010000
00011000
00000100
,
00001000
00000000
00000010
00000000
00001001
00000000
00001000
00010000
,
01000000
10000000
00010000
00001000
,
00000100
00000001
00001000
00010000
,
00010000
00001000
00011000
01000000
,
00010000
00000000
00100000
00000000
10010000
00000000
00010000
00001000
,
00000100
00000001
00001000
00010000
,
01000000
10000000
00010000
00001000
,
00011000
00000010
00000010
00001001
,
00010000
00110000
10000000
11000000
,
00010000
00000000
00001000
00000000
00000100
00000001
00000010
00000000
,
00001000
00010000
01000000
10000000
,
00000000
00100000
00100000
10010000
,
00001000
00001010
00000001
00000101
,
00001000
00000000
00010000
00000000
01000000
10000000
00100000
00000000
,
00010000
00000000
00001000
00000000
00000100
00000000
00001000
00000001
,
00001001
00000000
00000010
00000000
00000001
00000000
00000010
00000001
,
00000010
00000001
00000010
00001000
,
00010000
00000000
00100000
00000000
10000000
00000000
00100000
10000000
,
00100000
01000000
00010000
10010000
,
00100000
00000000
00000000
00000000
,
00010000
00000000
00000000
00000000
,
00001000
00000000
00000000
00000000
,
00000010
00000000
00000000
00000000
,
00011000
00000010
00000010
00001001
,
00010000
00110000
10000000
11000000
,
00010000
00000000
00001000
00000000
00000100
00000001
00000010
00000000
,
00001000
00010000
01000000
10000000
,
00000000
00100000
00100000
10010000
,
00001000
00001010
00000001
00000101
,
00001000
00000000
00010000
00000000
01000000
10000000
00100000
00000000
,
00010000
00001000
00000100
00000001
,
00001001
00000000
00000010
00000000
00000001
00000000
00000010
00000001
,
00000010
00000000
00001000
00000000
00000010
00000000
00001000
00000010
,
00000001
00000000
00000010
00000000
00000001
00000000
00000010
00000001
,
00000100
00000010
00001000
00010000
,
10010000
00000000
00100000
00000000
10000000
00000000
00100000
10000000
,
00100000
00000000
00010000
00000000
00100000
00000000
00010000
00100000
,
10000000
00000000
00100000
00000000
10000000
00000000
00100000
10000000
,
01000000
00010000
00100000
00011000
,
00000000
00000010
00000010
00001001
,
00010000
00100000
10000000
01000000
,
00010000
00000000
00001000
00000000
00000100
00000001
00000010
00000000
,
00001000
00010000
01000000
10000000
,
00000000
00000000
00000000
00000000
;

//---------------dance-double - ----------------
#NOTES:
     dance-double:
     :
     Hard:
     12:
     0.504000,0.519160,0.254179,0.081337,0.198259,347.000000,322.000000,25.000000,8.000000,0.000000,0.000000,0.504000,0.519160,0.254179,0.081337,0.198259,347.000000,322.000000,25.000000,8.000000,0.000000,0.000000:
00000000
00000000
00000000
00000000
,
00000000
00000000
00000000
00000000
,
00000000
00000000
00000000
00000000
,
00000000
00000000
00000000
00000000
,
00000000
00000000
00000000
00000000
,
00000000
00000000
00000000
00000000
,
00100000
00000000
10000000
00000000
00100000
00000000
01000000
00100000
00000000
10000000
00100000
00000000
01000000
00000000
00001000
00000000
,
00010000
00000000
00001000
00000000
01000000
00000000
00001000
00010000
00000000
00001000
00000010
00000000
00000001
00000000
00000100
00000000
,
00001000
00000000
00000100
00000000
00000010
00000000
00000100
00000001
00000000
00000100
00000010
00000000
00010000
00000000
00001000
00000000
,
00100000
00000000
01000000
00000000
00100000
00000000
00010000
10000000
00000000
00100000
01000000
00000000
00010000
00000000
01000000
00000000
,
00100000
00000000
00000000
10000000
01000000
00000000
00010000
00000000
01000000
00000000
00000000
00000000
01100000
00000000
00000000
00000000
,
00010000
00000000
00000000
00000010
00000100
00000000
00000001
00000000
00000010
00000000
00000100
00000000
00000110
00000000
00000000
00000000
,
00000010
00000000
00000000
00000010
00000001
00000000
00000000
00000001
00000010
00000000
00000000
00000010
00001000
00000000
00000000
00001000
,
00010000
01000000
10000000
01000000
00010000
00001000
00011000
00000000
,
00000010
00000000
00000000
00000100
00000001
00000000
00000100
00000000
00000010
00000000
00001000
00000000
00000100
00000000
00000010
00000000
,
00000001
00000000
00000000
00000100
00001000
00000000
00010000
00000000
01000000
00000000
00100000
00000000
01100000
00000000
00000000
00000000
,
00100000
00000000
00000000
00100000
10000000
00000000
00000000
10000000
00100000
00000000
00000000
00100000
00010000
00000000
00000000
00010000
,
00001000
00000100
00000001
00000100
00001000
00010000
00011000
00000000
,
01020000
00000000
00001000
00000000
01030000
00000000
00001000
00000010
,
00000001
00001000
00000010
00000100
00001000
00010000
00011000
00000000
,
00001000
00010000
00000000
00000000
01000000
00000000
01000000
00000000
00100000
00001000
00000000
00000000
00010000
00000000
00010000
00000000
,
00001000
00000010
00000001
00000010
00001000
00010000
00011000
00000000
,
00002100
00000000
00010000
00000000
00003100
00000000
00010000
00100000
,
10000000
00010000
00100000
01000000
00010000
00001000
00011000
00000000
,
00010000
00001000
00000000
00000000
00000100
00000000
00000100
00000000
00000010
00010000
00000000
00000000
00001000
00000000
00001000
00000000
,
00010000
00100000
10000000
00100000
00010000
00001000
00011000
00000000
,
00000100
00000000
00000000
00000010
00001000
00000000
00000001
00000000
00000010
00000000
00001000
00000000
00010000
00000000
01000000
00000000
,
01000000
00000000
00000000
00100000
00010000
00000000
10000000
00000000
00100000
00000000
00010000
00000000
00001000
00000000
00000100
00000000
,
00000010
00000000
00000000
00000100
00001000
00000000
00010000
00000000
00100000
00000000
01000000
00000000
00010000
00000000
00100000
00000000
,
01000000
00100000
00010000
00001000
00000100
00000000
00000110
00000000
,
00000002
00000000
00000000
00000000
,
00002000
00000000
00000000
00000003
,
00000020
00000000
00000000
00003000
,
00000200
00000000
00000000
00000330
,
00000201
00000000
00001000
00000000
00000301
00000000
00000100
00010000
,
00001000
00100000
01000000
10000000
00100000
01000000
10100000
00000000
,
10000000
01000000
00000000
00000000
00010000
00000000
00010000
00000000
00001000
00000010
00000000
00000000
00000001
00000000
00000001
00000000
,
00000010
00001000
00010000
01000000
10000000
00100000
01100000
00000000
,
12000000
00000000
00010000
00000000
13000000
00000000
01000000
00001000
,
00010000
00000010
00000100
00000001
00000010
00000100
00000011
00000000
,
00000001
00000100
00000000
00000000
00001000
00000000
00001000
00000000
00010000
00100000
00000000
00000000
10000000
00000000
10000000
00000000
,
00100000
00010000
00001000
00000100
00000001
00000010
00000110
00000000
,
00000001
00000000
00000000
00000100
00001000
00000000
00000010
00000000
00010000
00000000
00001000
00000000
01000000
00000000
00100000
00000000
,
10000000
00000000
00000000
01000000
00010000
00000000
00100000
00000000
00001000
00000000
00010000
00000000
00000100
00000000
00000010
00000000
,
00000100
00000000
00000000
00000001
00000100
00000000
00001000
00000000
00000010
00000000
00010000
00000000
00001000
00000000
01000000
00000000
,
00100000
10000000
01000000
00100000
00001000
01000000
01100000
00000000
,
00100000
00000000
00000000
01000000
00010000
00000000
10000000
00000000
01000000
00000000
00010000
00000000
00001000
00000000
00000010
00000000
,
00000010
00000000
00000000
00000100
00001000
00000000
00000001
00000000
00000100
00000000
00001000
00000000
00010000
00000000
00100000
00000000
,
01000000
00000000
00000000
00100000
00010000
00000000
00001000
00000000
00000100
00000000
00000010
00000000
00001000
00000000
00000100
00000000
,
00000010
00000100
00001000
00010000
00100000
00000000
01100000
00000000
,
10100000
10100000
01010000
11000000
,
00010000
00001000
00000100
00000001
00000010
00000001
00000100
00000000
,
00000010
00010000
00000000
00000000
00001000
00000000
00001000
00000000
01000000
00010000
00000000
00000000
00100000
00000000
00100000
00000000
,
01000000
10000000
00100000
00010000
00001000
00000000
00011000
00000000
,
00000000
00000000
00000000
00000000
;

//---------------dance-double - ----------------
#NOTES:
     dance-double:
     :
     Challenge:
     5:
     0.239654,0.273242,0.071170,0.000000,0.000000,165.000000,158.000000,7.000000,0.000000,88.000000,0.000000,0.239654,0.273242,0.071170,0.000000,0.000000,165.000000,158.000000,7.000000,0.000000,88.000000,0.000000:
00000000
00000000
00000000
00000000
,
00000000
00000000
00000000
00000000
,
00000000
00000000
00000000
00000000
,
00000000
00000000
00000000
00000000
,
00000000
00000000
00000000
00000000
,
00000000
00000000
00000000
00000000
,
00100000
10000000
00100000
10000000
,
00010000
01000000
00010000
01000000
,
00001000
00010000
00001000
00010000
,
00000100
00001000
00000100
00001000
,
00010000
00000000
00001000
MMMMMMMM
,
00000010
00000001
00001000
MMMMMMMM
,
00010000
01000000
10000000
00100000
,
01000000
00010000
00001000
00011000
,
00001000
00000000
00010000
MMMMMMMM
,
00100000
10000000
00010000
MMMMMMMM
,
00001000
00000100
00000001
00000010
,
00000100
00001000
00010000
00011000
,
00000000
00000010
00000010
00000010
,
00000001
00001000
00000001
00001000
,
00010000
01000000
10000000
MMMMMMMM
,
01000000
00010000
00001000
00011000
,
00000000
00100000
00100000
00100000
,
10000000
00010000
10000000
00010000
,
00001000
00000100
00000001
MMMMMMMM
,
00000100
00001000
00010000
00011000
,
00001000
00000001
00000010
00000001
,
00000010
00000001
00000010
00000001
,
00010000
10000000
00100000
10000000
,
00100000
10000000
01000000
MMMMMMMM
,
01000000
00000000
00000000
00000000
,
00010000
00000000
00000000
00000000
,
00001000
00000000
00000000
00000000
,
00000100
00000000
00000000
00000000
,
00000000
00000010
00000010
00000010
,
00000001
00001000
00000001
00001000
,
00010000
01000000
10000000
MMMMMMMM
,
01000000
00010000
00001000
00011000
,
00000000
00100000
00100000
00100000
,
10000000
00010000
10000000
00010000
,
00001000
00000100
00000001
MMMMMMMM
,
00000100
00001000
00010000
00011000
,
00001000
00000001
00000010
00000001
,
00000010
00001000
00000010
00001000
,
00000010
00000001
00000010
00000001
,
00000100
00001000
00010000
MMMMMMMM
,
00010000
10000000
00100000
10000000
,
00100000
00010000
00100000
00010000
,
00100000
10000000
00100000
10000000
,
01000000
00010000
00001000
MMMMMMMM
,
00000010
00000000
00000001
00000000
,
00000100
00001000
00010000
00000000
,
01000000
00000000
10000000
00000000
,
00100000
00010000
01000000
10010000
,
00000000
00000000
00000000
00000000
;

//---------------dance-single - Edit----------------
#NOTES:
     dance-single:
     :
     Edit:
     14:
     0.618744,0.874375,0.193176,0.274513,0.523608,426.000000,407.000000,19.000000,27.000000,100.000000,0.000000,0.618744,0.874375,0.193176,0.274513,0.523608,426.000000,407.000000,19.000000,27.000000,100.000000,0.000000:
// measure 0
0000
0000
0000
0000
,  // measure 1
0000
0000
0000
0000
,  // measure 2
0000
0000
0000
0000
,  // measure 3
0000
0000
0000
0000
,  // measure 4
0000
0000
0000
0000
,  // measure 5
0000
0000
0000
0000
0000
0000
1001
MMMM
,  // measure 6
1000
0000
0100
0000
0001
0000
0100
1000
0000
0100
0001
0000
1000
0100
0010
0000
,  // measure 7
0001
0000
0010
0000
1000
0000
0010
0001
0000
1000
0010
0000
1000
0010
0001
0000
,  // measure 8
0100
0000
0010
0000
1000
0000
0010
0100
0000
1000
0100
0000
1000
0100
0010
0000
,  // measure 9
0001
0000
0100
0000
0010
0000
0100
0001
0000
0010
0001
0000
0010
0001
0100
0000
,  // measure 10
0010
0000
MMMM
0000
0100
0000
0010
0000
0001
0000
MMMM
0000
1000
0010
0100
0000
,  // measure 11
0010
0000
MMMM
0000
0100
0000
0010
0000
1000
0000
MMMM
0000
0010
0100
1000
0000
,  // measure 12
0200
0000
0000
1300
0020
0000
0000
0130
0002
0000
0000
0013
2000
0000
0000
3100
,  // measure 13
0010
0001
0010
MMMM
0010
0000
1001
0000
,  // measure 14
0100
0000
MMMM
0000
0001
0000
0100
0000
0010
0000
MMMM
0000
1000
0100
0010
0000
,  // measure 15
0001
0000
MMMM
0000
0010
0000
0100
0000
0010
0000
MMMM
0000
1000
0001
0010
0000
,  // measure 16
0200
0000
0000
0310
2000
0000
0000
3100
0020
0000
0000
1030
0002
0000
0000
0013
,  // measure 17
0100
0001
0100
MMMM
0100
0000
1001
0000
,  // measure 18
0200
0000
0010
0001
0310
0000
0100
0001
,  // measure 19
1000
0010
0001
0100
0010
0000
MMMM
0000
,  // measure 20
0010
1000
0000
0000
0100
0000
0001
0000
1000
0100
0000
0000
0010
0000
0001
0000
,  // measure 21
0100
0000
0010
1000
0001
0000
0100
0001
1000
0000
0000
0000
MMMM
0000
0000
0000
,  // measure 22
0020
0000
0100
1000
0130
0000
0100
0001
,  // measure 23
1000
0010
0001
0100
1000
0000
MMMM
0000
,  // measure 24
0010
0001
0000
0000
0100
0000
0010
0000
1000
0100
0000
0000
0010
0000
0100
0000
,  // measure 25
0001
0000
0010
0100
1000
0000
1000
0100
0010
0000
0000
0000
MMMM
0000
0000
0000
,  // measure 26
1000
0000
0100
0010
0001
0000
0001
0010
0200
0000
0001
0000
1300
0100
0010
0001
,  // measure 27
0100
0000
0010
0100
1000
0000
1000
0100
0020
0000
0001
0000
1030
0010
0100
0001
,  // measure 28
0010
0000
0100
0010
1000
0000
1000
0100
0002
0000
0010
0000
0103
0010
1000
0001
,  // measure 29
0010
0100
0001
1000
0100
0000
MMMM
0000
,  // measure 30
0100
0010
0100
0010
0100
0010
0100
0010
0100
0010
0100
0010
0100
0010
0100
0010
,  // measure 31
0100
0010
0100
0000
0110
0000
0010
0100
0010
0100
0010
0000
0110
0000
0110
0000
,  // measure 32
0001
1000
0001
1000
0001
1000
0001
1000
0001
1000
0001
1000
0001
1000
0001
1000
,  // measure 33
1000
0001
1000
0001
1000
0001
1000
0001
1000
0001
1000
0000
MMMM
0000
0000
0000
,  // measure 34
2000
0000
0001
0010
3100
0000
1000
0100
,  // measure 35
0001
0010
0100
1000
0010
0000
MMMM
0000
,  // measure 36
1000
0100
0000
0000
0110
0000
0010
0000
0001
0010
0000
0000
0110
0000
0100
0000
,  // measure 37
1000
0000
0100
0010
0001
0000
1000
0010
0100
0000
0000
0000
MMMM
0000
0000
0000
,  // measure 38
0002
0000
0010
0100
1003
0000
1000
0010
,  // measure 39
0001
0100
1000
0100
0001
0000
MMMM
0000
,  // measure 40
0010
0001
0000
0000
1001
0000
1000
0000
0100
1000
0000
0000
1001
0000
0001
0000
,  // measure 41
1000
0000
0100
0010
0001
0000
0010
0001
0100
0000
0000
0000
MMMM
0000
0000
0000
,  // measure 42
0100
0000
0010
1000
0001
0000
0100
0001
2000
0000
0010
0000
3100
0010
0001
0010
,  // measure 43
1000
0000
0010
1000
0100
0000
0010
0001
0200
0000
0010
0000
1300
0100
0010
0001
,  // measure 44
0010
0000
0001
0100
0010
0000
1000
0100
0020
0000
0001
0000
0130
0010
1000
0100
,  // measure 45
0010
0000
0001
0100
1000
0000
0010
0001
0100
0000
0000
0000
MMMM
0000
0000
0000
,  // measure 46
0020
0001
0130
0002
0010
0103
2000
0010
,  // measure 47
3100
0020
1000
0031
0200
0001
1300
0002
,  // measure 48
0010
0103
2000
0010
3001
0200
0010
1300
,  // measure 49
1000
0100
1000
0000
0010
0001
0100
1000
0100
0001
0010
0100
0010
0000
MMMM
0000
,  // measure 50
1100
0000
0000
0100
0010
0000
0001
0000
0101
0000
0000
0100
0010
0000
1000
0000
,  // measure 51
0001
0000
0010
0100
1000
0000
1000
0100
0010
0000
MMMM
0000
0011
0000
0101
0000
,  // measure 52
0100
0010
0010
0000
1010
0000
1100
0000
1000
0100
0100
0000
0101
0000
1001
0000
,  // measure 53
1010
0000
0010
1000
0100
0000
0010
0001
2000
0000
3000
0000
MMMM
0000
0000
0000
;
