#VERSION:0.83;
#TITLE:Burn Baby Burn;
#SUBTITLE:;
#ARTIST:SLOTH MUSIC PROJECT feat.ANDY L;
#TITLETRANSLIT:;
#SUBTITLETRANSLIT:;
#ARTISTTRANSLIT:;
#GENRE:;
#ORIGIN:;
#CREDIT:;
#BANNER:Burn Baby Burn.png;
#BACKGROUND:Burn Baby Burn-bg.png;
#PREVIEWVID:;
#JACKET:Burn Baby Burn-jacket.png;
#CDIMAGE:;
#DISCIMAGE:;
#LYRICSPATH:;
#CDTITLE:;
#MUSIC:Burn Baby Burn.ogg;
#OFFSET:0.000000;
#SAMPLESTART:44.619999;
#SAMPLELENGTH:15.000000;
#SELECTABLE:YES;
#DISPLAYBPM:156.000000;
#BPMS:0.000=156.522,
4.000=155.994,
148.000=156.003;
#STOPS:148.000=1.540;
#DELAYS:;
#WARPS:;
#TIMESIGNATURES:0.000=4=4;
#TICKCOUNTS:0.000=4;
#COMBOS:0.000=1;
#SPEEDS:0.000=1.000=0.000=0;
#SCROLLS:0.000=1.000;
#FAKES:;
#LABELS:0.000=Song Start;
#BGCHANGES:;
#KEYSOUNDS:;
#ATTACKS:
;

//---------------dance-single - ----------------
#NOTEDATA:;
#CHARTNAME:;
#STEPSTYPE:dance-single;
#DESCRIPTION:;
#CHARTSTYLE:;
#DIFFICULTY:Beginner;
#METER:3;
#RADARVALUES:0.169382,0.199512,0.045603,0.000000,0.000000,104.000000,100.000000,4.000000,0.000000,0.000000,0.000000,0.000000,0.000000,0.000000,0.169382,0.199512,0.045603,0.000000,0.000000,104.000000,100.000000,4.000000,0.000000,0.000000,0.000000,0.000000,0.000000,0.000000;
#CREDIT:;
#DISPLAYBPM:156.000000;
#NOTES:
0000
0000
0000
0000
,
0000
0000
0000
0000
,
0000
0000
0000
0000
,
0010
0000
0010
0000
,
0010
0000
0010
0000
,
0001
0000
0001
0000
,
1000
0000
1000
0000
,
0001
0000
0001
0000
,
1000
0000
1000
0000
,
0010
0000
0010
0000
,
0100
0000
0100
0000
,
0010
0000
0010
0000
,
0100
0000
0100
0000
,
0001
0000
1000
0000
,
0001
0000
1000
1000
,
1000
0000
0001
0000
,
1000
0000
0010
0010
,
0010
0000
0100
0000
,
0010
0000
0100
0000
,
0001
0000
1000
0000
,
1001
0000
0000
0000
,
1000
0000
0001
0000
,
1000
0000
0001
0001
,
0001
0000
1000
0000
,
0001
0000
0010
0010
,
0010
0000
0100
0000
,
0010
0000
0100
0000
,
1000
0000
0001
0000
,
1001
0000
0000
0000
,
0010
0010
0010
0000
,
0100
0100
0100
0000
,
0001
0000
0010
0000
,
0001
0000
0010
0000
,
1000
1000
1000
0000
,
0001
0001
0001
0000
,
1000
0000
0010
0000
,
1000
0000
0010
0000
,
1001
0000
0000
0000
,
0001
0000
0100
0000
,
0001
0000
0100
0000
,
1000
0000
0100
0000
,
1000
0000
0100
0000
,
0001
0000
1000
0000
,
0001
0000
1000
0000
,
0010
0000
0001
0000
,
0010
0000
0001
0000
,
0100
0000
1000
0000
,
0100
0000
1000
0000
,
0010
0000
1000
0000
,
0010
0000
0001
0000
,
0110
0000
0000
0000
,
0000
0000
0000
0000
;

//---------------dance-single - ----------------
#NOTEDATA:;
#CHARTNAME:;
#STEPSTYPE:dance-single;
#DESCRIPTION:;
#CHARTSTYLE:;
#DIFFICULTY:Easy;
#METER:5;
#RADARVALUES:0.245929,0.290718,0.068404,0.205212,0.000000,151.000000,145.000000,6.000000,18.000000,0.000000,0.000000,0.000000,0.000000,0.000000,0.245929,0.290718,0.068404,0.205212,0.000000,151.000000,145.000000,6.000000,18.000000,0.000000,0.000000,0.000000,0.000000,0.000000;
#CREDIT:;
#DISPLAYBPM:156.000000;
#NOTES:
0000
0000
0000
0000
,
0000
0000
0000
0000
,
0000
0000
0000
0000
,
0010
0000
0100
0000
,
0010
0010
0010
0010
,
2000
0000
0000
3010
0000
0000
0000
0000
,
0002
0000
0000
0013
0000
0000
0000
0000
,
2000
0000
0000
3100
0000
0000
0000
0000
,
0002
0000
0000
0103
0000
0000
0000
0000
,
0020
0000
0000
0130
0000
0000
0000
0000
,
0002
0000
0000
1003
0000
0000
0000
0000
,
0200
0000
0000
0301
0000
0000
0000
0000
,
2000
0000
0000
3001
0000
0000
0000
0000
,
0010
1000
0010
1000
,
0001
0000
0100
0100
,
0001
1000
0001
1000
,
0010
0000
0001
0001
,
1000
0100
0001
0100
,
1000
0000
0010
0010
,
1000
0100
0010
0001
,
0010
0100
1000
0000
,
0010
0001
0010
0001
,
1000
0000
0100
0100
,
1000
0001
1000
0001
,
0010
0000
1000
1000
,
0001
0100
1000
0100
,
0001
0000
0010
0010
,
0001
0100
0010
1000
,
0010
0100
0001
0000
,
0010
0100
0110
0000
,
0001
1000
1001
0000
,
0010
0100
0010
1000
,
0001
0010
0001
0000
,
0010
0100
0110
0000
,
1000
0001
1001
0000
,
0100
0010
1000
0001
,
0010
0100
0010
0100
,
0110
0000
0000
0000
,
0010
0001
0010
0000
,
0010
1000
0010
0000
,
0001
0001
1000
1000
,
0001
1000
0010
0100
,
0002
0003
2000
3000
,
0002
0003
2000
3000
,
0020
0030
0200
0300
,
0020
0030
0200
0300
,
1000
1000
0100
0100
,
0010
0010
0001
0001
,
0100
0010
1000
0100
,
0010
0001
0100
0010
,
0220
0000
0000
0000
,
0330
0000
0000
0000
,
0000
0000
0000
0000
;

//---------------dance-single - ----------------
#NOTEDATA:;
#CHARTNAME:;
#STEPSTYPE:dance-single;
#DESCRIPTION:;
#CHARTSTYLE:;
#DIFFICULTY:Medium;
#METER:8;
#RADARVALUES:0.395767,0.436076,0.228014,0.228014,0.000000,243.000000,223.000000,20.000000,20.000000,0.000000,0.000000,0.000000,0.000000,0.000000,0.395767,0.436076,0.228014,0.228014,0.000000,243.000000,223.000000,20.000000,20.000000,0.000000,0.000000,0.000000,0.000000,0.000000;
#CREDIT:;
#DISPLAYBPM:156.000000;
#NOTES:
0000
0000
0000
0000
,
0000
0000
0000
0000
,
0000
0000
0000
0000
,
0010
0000
0100
0000
,
0010
0001
0100
1000
,
2010
0001
0010
3001
,
0012
1000
0010
1003
,
2100
0001
0100
3001
,
0102
1000
0100
1003
,
0210
0001
0010
0001
,
1000
0001
1000
0301
,
0021
0100
0001
0100
,
0001
1000
0001
1030
,
0001
0000
0100
0010
0100
0000
1000
0000
,
0001
0100
0010
0000
1000
0000
0001
1000
,
1000
0000
0100
0010
0100
0000
0001
0000
,
1000
0100
0010
0000
0001
0000
1000
0001
,
1000
0000
0010
0100
0010
0000
0001
0000
,
1000
0010
0100
0000
0001
0000
1000
0100
,
1000
0100
0001
0010
,
1000
0100
0001
0110
,
1000
0000
0100
0010
0100
0000
0001
0000
,
1000
0100
0010
0000
0001
0000
1000
0001
,
0001
0000
0100
0010
0100
0000
1000
0000
,
0001
0100
0010
0000
1000
0000
0001
1000
,
0001
0000
0010
0100
0010
0000
1000
0000
,
0001
0010
0100
0000
1000
0000
0001
0100
,
0001
0100
1000
0010
,
0001
0100
1000
0110
,
0001
1000
0001
1000
0010
0000
0110
0000
,
0002
0103
2000
3010
,
0001
0010
0100
0000
1000
0000
0001
0100
,
0010
0100
1000
1010
,
1000
0001
1000
0001
0100
0000
0110
0000
,
2000
3010
0002
0103
,
1000
0010
0100
0000
0001
0000
1000
0100
,
0010
0100
0001
0011
,
0110
0100
1000
0010
,
0001
0100
0010
0000
1000
0000
0001
0000
,
1000
0100
1000
0000
0100
0000
0110
0000
,
0001
0100
1000
0000
0100
0000
0001
0000
,
1000
0100
0001
0000
0100
0000
1000
0000
,
0010
0020
0130
0200
,
0301
0002
1003
2000
,
3010
0020
1030
2000
,
3100
0200
0301
0002
,
0103
0110
1000
1100
,
0001
0011
0100
0110
,
1000
0100
1000
0000
0001
0100
0001
0000
,
0010
1000
0100
0001
0100
1000
0010
0000
,
0220
0000
0330
0000
,
1001
0000
0000
0000
,
0000
0000
0000
0000
;

//---------------dance-single - ----------------
#NOTEDATA:;
#CHARTNAME:;
#STEPSTYPE:dance-single;
#DESCRIPTION:;
#CHARTSTYLE:;
#DIFFICULTY:Hard;
#METER:12;
#RADARVALUES:0.486972,0.523292,0.171010,0.022801,0.068404,299.000000,284.000000,15.000000,2.000000,0.000000,0.000000,0.000000,0.000000,0.000000,0.486972,0.523292,0.171010,0.022801,0.068404,299.000000,284.000000,15.000000,2.000000,0.000000,0.000000,0.000000,0.000000,0.000000;
#CREDIT:;
#DISPLAYBPM:156.000000;
#NOTES:
0000
0000
0000
0000
,
0000
0000
0000
0000
,
0000
0000
0000
0000
,
0010
0010
0000
0000
0100
0100
0000
0000
,
0010
0010
0001
0001
0100
0100
1000
1000
,
0000
0000
0001
0000
0000
0000
0100
0000
0000
0000
0010
0000
0000
0000
1000
0100
,
0000
0000
0010
0000
0000
0000
0001
0000
0000
0000
0100
0000
0000
0000
0010
1000
,
0000
0000
0100
0000
0000
0000
0010
0000
0000
0000
0001
0000
0000
0000
0100
0010
,
0000
0000
0001
0000
0000
0000
1000
0000
0000
0000
0010
0000
0000
0000
0100
0010
,
0000
0000
0001
0000
0000
0000
1000
0000
0000
0000
0100
0000
0000
0000
0010
0001
,
0000
0000
0010
0000
0000
0000
0100
0000
0000
0000
0001
0000
0000
0000
1000
0010
,
0000
0000
0100
0000
0000
0000
0001
0000
0000
0000
0010
0000
0000
0000
0100
1000
,
0000
0000
0010
0000
0000
0000
0001
0000
0000
0000
1000
0000
0000
0000
0100
0010
,
0000
0001
0000
0010
1000
0010
0000
0100
,
0000
0001
0010
1000
0000
0001
0000
0100
,
0000
0001
0000
0010
0100
0001
0000
1000
,
0000
0100
0001
0010
0000
0001
0000
0100
,
0000
1000
0000
0001
0100
0010
0000
0001
,
0000
1000
1000
0100
0000
0001
0000
0001
,
1000
0010
0001
0100
0001
0100
0010
0001
,
1000
0010
0001
0100
0010
0001
1000
0000
,
0000
1000
0000
0100
0001
0100
0000
0010
,
0000
1000
0100
0001
0000
1000
0000
0010
,
0000
1000
0000
0100
0010
1000
0000
0001
,
0000
0010
1000
0100
0000
1000
0000
0010
,
0000
0001
0000
1000
0010
0100
0000
1000
,
0000
0001
0001
0010
0000
1000
0000
1000
,
0001
0100
1000
0010
1000
0010
0100
1000
,
0001
0100
1000
0010
0100
1000
0001
0000
,
1000
0100
0000
0000
0001
0100
0000
0000
0010
0000
1000
0000
0100
0000
0000
0000
,
0010
0001
0010
0100
0010
0001
0100
0000
,
0110
0000
1001
0000
0010
1000
0100
0000
,
0001
0100
1000
0010
0000
1000
1001
0000
,
0001
0100
0000
0000
1000
0100
0000
0000
0010
0000
0001
0000
0100
0000
0000
0000
,
0010
1000
0010
0100
0010
1000
0100
0000
,
0110
0000
1001
0000
0010
0001
0100
0000
,
1000
0100
0001
0010
0000
0001
1001
0000
,
0110
0001
1000
0100
0010
0001
0100
0000
,
1100
0000
0101
0000
0010
1000
0100
0000
,
0010
0001
0100
0000
1000
0100
0001
0000
,
0110
1100
1001
0101
,
1000
0100
0010
0000
0001
1000
0010
0000
,
1000
0100
1000
0100
0010
0001
0010
0001
,
0100
1000
0100
1000
0100
0001
0100
0000
,
1000
0100
0010
0100
1000
0100
0010
0100
,
1000
0100
0001
0100
1000
0100
0001
0000
,
1000
0010
0100
0010
1000
0010
0100
0010
,
1000
0010
0001
0010
1000
0010
0001
0010
,
1000
0100
0001
0100
1000
0100
0001
0100
,
1000
0100
0010
0001
0100
0010
1000
0100
,
2200
0000
0000
3300
,
0101
0000
0000
0000
,
0000
0000
0000
0000
;

//---------------dance-double - ----------------
#NOTEDATA:;
#CHARTNAME:;
#STEPSTYPE:dance-double;
#DESCRIPTION:;
#CHARTSTYLE:;
#DIFFICULTY:Easy;
#METER:5;
#RADARVALUES:0.247558,0.290718,0.068404,0.114007,0.000000,152.000000,146.000000,6.000000,10.000000,0.000000,0.000000,0.000000,0.000000,0.000000,0.247558,0.290718,0.068404,0.114007,0.000000,152.000000,146.000000,6.000000,10.000000,0.000000,0.000000,0.000000,0.000000,0.000000;
#CREDIT:;
#DISPLAYBPM:156.000000;
#NOTES:
00000000
00000000
00000000
00000000
,
00000000
00000000
00000000
00000000
,
00000000
00000000
00000000
00000000
,
00001000
00000000
00001000
00000000
,
00010000
00010000
00001000
00001000
,
00000010
00000000
00000000
00000001
00000000
00000000
00000000
00000000
,
00000100
00000000
00000000
00001000
00000000
00000000
00000000
00000000
,
00010000
00000000
00000000
00100000
00000000
00000000
00000000
00000000
,
10000000
00000000
00000000
01000000
00000000
00000000
00000000
00000000
,
00010000
00000000
00000000
00001000
00000000
00000000
00000000
00000000
,
00000100
00000000
00000000
00000001
00000000
00000000
00000000
00000000
,
00000100
00000000
00000000
00001000
00000000
00000000
00000000
00000000
,
00010000
00000000
00000000
01000000
00000000
00000000
00000000
00000000
,
00100000
00010000
01000000
10000000
,
01000000
00000000
00010000
00010000
,
10000000
01000000
00010000
00001000
,
00000100
00000000
00000010
00000010
,
00001000
00000100
00000010
00000001
,
00000100
00000000
00001000
00001000
,
00010000
01000000
00010000
00001000
,
00010000
00000010
00010000
00000000
,
00000010
00001000
00000100
00000001
,
00000100
00000000
00001000
00001000
,
00000001
00000100
00001000
00010000
,
01000000
00000000
00100000
00100000
,
00010000
01000000
00100000
10000000
,
01000000
00000000
00010000
00010000
,
00001000
00000100
00001000
00010000
,
00001000
00100000
00001000
00000000
,
00110000
01010000
00100000
00100000
,
10000000
01000000
00010000
00000000
,
00001000
00001000
00010000
00010000
,
00000010
00001000
00000100
00000000
,
00001001
00000110
00000001
00000001
,
00000100
00001000
00010000
00000000
,
00100000
00100000
10000000
10000000
,
01000000
00010000
00001000
00010000
,
00011000
00000000
00000000
00000000
,
00000010
00000010
00000001
00000001
,
00001000
00000100
00000010
00000000
,
00000001
00000100
00001000
00000000
,
00010000
00100000
10000000
00000000
,
02000000
03000000
00020000
00030000
,
00002000
00003000
00000200
00000300
,
00000002
00000003
00000020
00000030
,
00002000
00003000
00020000
00030000
,
01000000
01000000
10000000
10000000
,
00100000
00100000
00010000
00010000
,
00001000
00000100
00000001
00000010
,
00001000
00010000
01000000
10000000
,
02200000
00000000
00000000
00000000
,
03300000
00000000
00000000
00000000
,
00000000
00000000
00000000
00000000
;

//---------------dance-double - ----------------
#NOTEDATA:;
#CHARTNAME:;
#STEPSTYPE:dance-double;
#DESCRIPTION:;
#CHARTSTYLE:;
#DIFFICULTY:Medium;
#METER:8;
#RADARVALUES:0.394138,0.436076,0.273617,0.114007,0.000000,242.000000,218.000000,24.000000,10.000000,0.000000,0.000000,0.000000,0.000000,0.000000,0.394138,0.436076,0.273617,0.114007,0.000000,242.000000,218.000000,24.000000,10.000000,0.000000,0.000000,0.000000,0.000000,0.000000;
#CREDIT:;
#DISPLAYBPM:156.000000;
#NOTES:
00000000
00000000
00000000
00000000
,
00000000
00000000
00000000
00000000
,
00000000
00000000
00000000
00000000
,
00011000
00000000
00000100
00000000
,
00011000
01000000
00011000
00000010
,
00000101
00000010
00001000
00000001
,
00000100
00001000
00010000
01000000
,
11000000
00010000
00100000
01000000
,
00010000
00001000
00000100
00000001
,
00000011
00001000
00000100
00000010
,
00001000
00010000
01000000
10000000
,
10100000
00010000
00100000
01000000
,
10000000
00100000
00010000
00001000
,
00000100
00000000
00000001
00001000
00000001
00000000
00000010
00000000
,
00000100
00001000
00000100
00000000
00001000
00000000
00000010
00000010
,
00000100
00000000
00001000
00000100
00001000
00000000
00010000
00000000
,
00100000
00010000
00100000
00000000
01000000
00000000
00010000
00010000
,
10000000
00000000
01000000
10000000
01000000
00000000
00100000
00000000
,
00010000
10000000
00010000
00000000
01000000
00000000
00100000
00100000
,
00010000
00001000
00000010
00000011
,
00000001
00000100
00001000
00011000
,
01000000
00000000
10000000
00010000
10000000
00000000
00100000
00000000
,
01000000
00010000
01000000
00000000
00010000
00000000
00100000
00100000
,
01000000
00000000
00010000
01000000
00010000
00000000
00001000
00000000
,
00000010
00001000
00000010
00000000
00000100
00000000
00001000
00001000
,
00000001
00000000
00000100
00000001
00000100
00000000
00000010
00000000
,
00001000
00000001
00001000
00000000
00000100
00000000
00000010
00000010
,
00001000
00010000
00100000
10100000
,
10000000
01000000
00010000
00011000
,
00010100
00000000
01001000
00000000
00100000
00100000
00100000
00000000
,
10000000
01000000
00010000
00001000
,
00000010
00000000
00000010
00000000
00000001
00000100
00000001
00000000
,
00001000
00000100
00000010
00000001
,
00000101
00000000
00001100
00000000
00000010
00000010
00000010
00000000
,
00000001
00000100
00001000
00010000
,
00100000
00000000
00100000
00000000
10000000
01000000
10000000
00000000
,
00010000
00100000
01100000
10010000
,
01100000
00010000
00001000
00000100
,
00000010
00000000
00000010
00000000
00001000
00000001
00000010
00000000
,
00000100
00001000
00000010
00000100
,
00001000
00010000
01000000
00000000
10000000
00000000
01000000
00000000
,
00010000
00001000
00000100
00000000
00000001
00000000
00000100
00000000
,
00001000
00002000
00013000
00020000
,
01030000
02000000
13000000
20000000
,
30100000
00200000
00310000
00020000
,
00031000
00002000
00003100
00000200
,
00000301
00000011
00000100
00001100
,
00010000
00011000
00100000
10100000
,
10000000
01000000
00010000
00000000
00010000
00001000
00000010
00000000
,
00000001
00000100
00001000
00010000
00100000
10000000
01000000
00000000
,
02020000
00000000
03030000
00000000
,
00011000
00000000
00000000
00000000
,
00000000
00000000
00000000
00000000
;

//---------------dance-double - ----------------
#NOTEDATA:;
#CHARTNAME:;
#STEPSTYPE:dance-double;
#DESCRIPTION:;
#CHARTSTYLE:;
#DIFFICULTY:Hard;
#METER:12;
#RADARVALUES:0.488601,0.494220,0.205212,0.011401,0.068404,300.000000,282.000000,18.000000,1.000000,0.000000,0.000000,0.000000,0.000000,0.000000,0.488601,0.494220,0.205212,0.011401,0.068404,300.000000,282.000000,18.000000,1.000000,0.000000,0.000000,0.000000,0.000000,0.000000;
#CREDIT:;
#DISPLAYBPM:156.000000;
#NOTES:
00000000
00000000
00000000
00000000
,
00000000
00000000
00000000
00000000
,
00000000
00000000
00000000
00000000
,
00010010
00000010
00000000
00000000
01001000
01000000
00000000
00000000
,
10100000
00110000
00011000
00001010
,
00000000
00000000
00000001
00000000
00000000
00000000
00000100
00000000
00000000
00000000
00001000
00000000
00000000
00000000
00010000
00001000
,
00000000
00000000
00010000
00000000
00000000
00000000
01000000
00000000
00000000
00000000
10000000
00000000
00000000
00000000
00100000
10000000
,
00000000
00000000
00100000
00000000
00000000
00000000
00010000
00000000
00000000
00000000
00001000
00000000
00000000
00000000
00000100
00001000
,
00000000
00000000
00000100
00000000
00000000
00000000
00000001
00000000
00000000
00000000
00000010
00000000
00000000
00000000
00001000
00000010
,
00000000
00000000
00001000
00000000
00000000
00000000
00010000
00000000
00000000
00000000
00100000
00000000
00000000
00000000
10000000
00100000
,
00000000
00000000
10000000
00000000
00000000
00000000
01000000
00000000
00000000
00000000
00010000
00000000
00000000
00000000
00001000
00010000
,
00000000
00000000
00001000
00000000
00000000
00000000
00000100
00000000
00000000
00000000
00000001
00000000
00000000
00000000
00000010
00000001
,
00000000
00000000
00000010
00000000
00000000
00000000
00001000
00000000
00000000
00000000
00010000
00000000
00000000
00000000
01000000
00010000
,
00000000
01000000
00000000
10000000
00010000
10000000
00000000
00100000
,
00000000
01000000
00010000
10000000
00000000
01000000
00000000
00010000
,
00000000
00001000
00000000
00000010
00000100
00001000
00000000
00000001
,
00000000
00000100
00001000
00010000
00000000
00001000
00000000
00000100
,
00000000
00001000
00000000
00010000
00001000
00010000
00000000
01000000
,
00000000
10000000
00010000
01000000
00000000
00100000
00000000
00100000
,
10000000
01000000
00010000
00001000
00000010
00000001
00000100
00001000
,
00000100
00000001
00000010
00000100
00001000
00000010
00000100
00000000
,
00000000
00000100
00000000
00000001
00001000
00000001
00000000
00000010
,
00000000
00000100
00001000
00000001
00000000
00000100
00000000
00001000
,
00000000
00010000
00000000
00100000
01000000
00010000
00000000
10000000
,
00000000
01000000
00010000
00001000
00000000
00010000
00000000
01000000
,
00000000
00010000
00000000
00001000
00010000
00001000
00000000
00000100
,
00000000
00000001
00001000
00000100
00000000
00000010
00000000
00000010
,
00000001
00000100
00001000
00010000
00100000
10000000
01000000
00010000
,
01000000
10000000
00100000
01000000
00010000
00100000
01000000
00000000
,
10000000
01000000
00000000
00000000
01000000
00010000
00000000
00000000
00001000
00000000
00010000
00000000
00001000
00000000
00000000
00000000
,
00010000
01000000
00010000
00001000
00000010
00001000
00010000
00000000
,
00010100
00000000
01001000
00000000
00010000
00100000
01000000
00000000
,
10000000
01000000
00010000
00001000
00000010
00000001
00000100
00000000
,
00000001
00000100
00000000
00000000
00000100
00001000
00000000
00000000
00010000
00000000
00001000
00000000
00010000
00000000
00000000
00000000
,
00001000
00000100
00001000
00010000
00100000
00010000
00001000
00000000
,
01001000
00000000
00010100
00000000
00001000
00000010
00000100
00000000
,
00000001
00000100
00001000
00010000
01000000
10000000
00100000
00000000
,
01100000
00010000
10000000
01000000
00100000
00010000
01000000
00000000
,
00011000
00000000
00001100
00000000
00000001
00000100
00001000
00000000
,
00001000
00000100
00000001
00000000
00000001
00000010
00000100
00000000
,
00000110
00001001
00011000
10010000
,
00100000
00010000
01000000
00000000
00100000
10000000
01000000
00000000
,
01000000
10000000
01000000
10000000
00010000
00100000
00010000
00100000
,
00001000
00010000
00001000
00010000
00000010
00001000
00000010
00000000
,
00000100
00000001
00000100
00000001
00001000
00000010
00001000
00000010
,
00010000
00001000
00010000
00001000
00100000
00010000
00100000
00000000
,
10000000
01000000
00010000
01000000
10000000
01000000
00010000
01000000
,
10000000
00100000
00010000
00100000
10000000
00100000
00010000
00001000
,
00000010
00000001
00000010
00001000
00000010
00000001
00000010
00001000
,
00000010
00000001
00000100
00001000
00000100
00000001
00000100
00001000
,
00020000
00000000
00000000
00030000
,
01100000
00000000
00000000
00000000
,
00000000
00000000
00000000
00000000
;

//---------------dance-single - ----------------
#NOTEDATA:;
#CHARTNAME:;
#STEPSTYPE:dance-single;
#DESCRIPTION:;
#CHARTSTYLE:;
#DIFFICULTY:Challenge;
#METER:16;
#RADARVALUES:1.008147,0.959368,0.125408,0.079805,1.368083,619.000000,608.000000,11.000000,7.000000,0.000000,0.000000,0.000000,0.000000,0.000000,1.008147,0.959368,0.125408,0.079805,1.368083,619.000000,608.000000,11.000000,7.000000,0.000000,0.000000,0.000000,0.000000,0.000000;
#CREDIT:;
#DISPLAYBPM:156.000000;
#NOTES:
// measure 0
0000
0000
0000
0000
,  // measure 1
0000
0000
0000
0000
,  // measure 2
0000
0000
0000
0000
,  // measure 3
0100
0100
0000
0000
0010
0010
0000
0000
,  // measure 4
1010
1010
0011
0000
0101
0000
1100
0000
,  // measure 5
1000
0100
0010
0001
0100
0000
0001
0010
0100
1000
0010
0000
1000
0010
0100
0000
,  // measure 6
0001
0100
0010
1000
0100
0000
0010
1000
0100
0010
0001
0000
0100
0010
1000
0000
,  // measure 7
0001
0010
1000
0100
0010
0000
0001
1000
0100
0010
0001
0000
0010
1000
0100
0000
,  // measure 8
0001
0100
0010
1000
0100
0000
1000
0010
0100
0001
0010
0000
0001
1000
0100
0000
,  // measure 9
0010
0001
0100
0010
1000
0000
0001
0100
0010
1000
0100
0000
1000
0100
0010
0000
,  // measure 10
0001
1000
0100
0010
0001
0000
1000
0010
0100
0001
0010
0000
0001
0010
1000
0000
,  // measure 11
1000
0100
0010
0001
0100
0000
0001
0010
1000
0100
0010
0000
1000
0100
0010
0000
,  // measure 12
1000
0010
0001
0100
0010
0000
0001
1000
0100
0010
0001
0000
0010
1000
0001
0010
,  // measure 13
1000
0000
1010
0001
0100
1000
0010
0100
,  // measure 14
0002
0000
0013
0100
0010
0000
1010
1000
,  // measure 15
0200
0000
0301
0000
1000
0100
0010
0001
,  // measure 16
0020
0000
1030
0000
1000
0001
1000
0010
,  // measure 17
0100
0000
0101
1000
0100
0010
0001
1000
,  // measure 18
0010
0000
0000
0000
0101
0000
0000
0000
1000
0000
0001
0000
0010
0000
2000
3000
,  // measure 19
0010
0001
0100
0000
0010
0001
0100
0000
0010
0001
0100
0001
0010
0001
0100
0010
,  // measure 20
1000
0100
0010
0000
1000
0100
0010
0000
1000
0100
0010
0100
1000
0100
0010
0001
,  // measure 21
0100
0010
1000
0000
0100
0010
1000
0000
0100
0010
1000
0010
0100
0010
1000
0010
,  // measure 22
0001
0010
0100
0000
0001
0010
0100
0000
0001
0010
0100
0010
0001
0010
0100
0010
,  // measure 23
1000
0010
0100
0000
1000
0010
0100
0000
1000
0010
0100
0010
1000
0010
0100
0010
,  // measure 24
0001
1000
0100
0000
0001
1000
0100
0000
0001
1000
0100
1000
0001
1000
0100
0010
,  // measure 25
0001
0100
0010
0000
0001
0100
0010
0000
0001
0100
0010
0100
0001
0100
0010
0100
,  // measure 26
0001
0010
1000
0000
0001
0010
1000
0000
0001
0010
1000
0010
0001
0010
1000
0010
,  // measure 27
0100
0001
1000
0000
0100
1000
0001
0000
0100
0001
0100
1000
0100
0001
0100
0010
,  // measure 28
1000
0100
0010
0001
1000
0010
0100
0001
1000
0100
0010
0001
0010
0100
1000
0001
,  // measure 29
0100
0000
0010
0001
1000
0000
0100
0010
1000
0000
0001
0100
0010
1000
0100
0010
,  // measure 30
0002
0000
0010
0000
0013
0100
0010
0000
1000
0100
1000
0001
1000
0100
0010
0001
,  // measure 31
0100
0000
0010
1000
0100
0000
0010
0001
1000
0100
0010
0001
1000
0010
0100
0001
,  // measure 32
0020
0000
1000
0000
0130
0001
0100
0000
0001
1000
0001
0000
1000
0100
0010
0001
,  // measure 33
0100
0000
0010
1000
0100
0000
0010
0001
1000
0001
0100
0000
0010
1000
0100
0010
,  // measure 34
2000
0000
0001
0000
3001
1000
0001
0000
0010
1000
0100
0000
0010
0001
1000
0100
,  // measure 35
0010
0000
0001
0100
0010
0000
1000
0100
0010
0000
0001
1000
0100
0010
0001
0010
,  // measure 36
1000
0010
0100
0001
1000
0100
0010
0001
0010
0100
1000
0100
0001
0100
0010
1000
,  // measure 37
0100
0000
0010
1000
0010
0000
0001
0100
0001
0000
0010
1000
0010
1000
0001
0100
,  // measure 38
0001
0000
1000
0100
1000
0000
0010
0001
0010
0000
1000
0100
1000
0100
0010
0001
,  // measure 39
0010
0000
0001
1000
0001
0000
0010
0100
0010
0000
0100
0010
1000
0001
0010
0100
,  // measure 40
0001
0000
1000
0100
1000
0000
0010
1000
0010
0000
0001
0010
0001
0100
0010
1000
,  // measure 41
0100
0000
0010
1000
0010
0000
0001
0100
0001
0000
1000
0100
0001
0100
0010
1000
,  // measure 42
0001
0010
0001
0010
0100
1000
0100
1000
0001
0010
0001
0010
0100
1000
0100
1000
,  // measure 43
0001
0100
0001
0100
0010
1000
0010
1000
0001
0100
0001
0100
0010
1000
0010
1000
,  // measure 44
0100
0010
0100
0010
1000
0100
1000
0100
0010
0100
0010
0100
1000
0010
1000
0010
,  // measure 45
0001
0010
0001
0010
1000
0100
1000
0100
0001
0100
0001
0100
0010
0100
0010
0100
,  // measure 46
1000
0010
0100
0010
1000
0010
0001
0010
1000
0100
0010
0100
1000
0010
0001
0100
,  // measure 47
0010
0001
1000
0001
0100
0010
1000
0010
0100
0001
1000
0100
0010
0001
0010
1000
,  // measure 48
0001
0010
1000
0001
0100
0010
1000
0001
0100
0010
1000
0100
0010
0001
1000
0010
,  // measure 49
0001
0100
1000
0100
0010
0100
0001
1000
0100
0010
0001
0010
1000
0010
0100
0001
,  // measure 50
1000
0001
1000
0001
1000
0001
1000
0001
1000
0001
1000
0001
1000
0000
1001
0000
,  // measure 51
1001
0000
0000
0000
;
