#VERSION:0.83;
#TITLE:Brilliant R・E・D;
#SUBTITLE:;
#ARTIST:NAOKI feat. Tahirih Walker;
#TITLETRANSLIT:;
#SUBTITLETRANSLIT:;
#ARTISTTRANSLIT:;
#GENRE:;
#ORIGIN:;
#CREDIT:;
#BANNER:Brilliant R.E.D.png;
#BACKGROUND:Brilliant R.E.D-bg.png;
#PREVIEWVID:;
#JACKET:Brilliant R.E.D-jacket.png;
#CDIMAGE:;
#DISCIMAGE:;
#LYRICSPATH:;
#CDTITLE:;
#MUSIC:Brilliant R.E.D.ogg;
#OFFSET:0.000000;
#SAMPLESTART:56.000000;
#SAMPLELENGTH:15.000000;
#SELECTABLE:YES;
#DISPLAYBPM:150.000000;
#BPMS:0.000=149.300,
4.000=150.000;
#STOPS:;
#DELAYS:;
#WARPS:;
#TIMESIGNATURES:0.000=4=4;
#TICKCOUNTS:0.000=4;
#COMBOS:0.000=1;
#SPEEDS:0.000=1.000=0.000=0;
#SCROLLS:0.000=1.000;
#FAKES:;
#LABELS:0.000=Song Start;
#BGCHANGES:;
#KEYSOUNDS:;
#ATTACKS:
;

//---------------dance-single - ----------------
#NOTEDATA:;
#CHARTNAME:;
#STEPSTYPE:dance-single;
#DESCRIPTION:;
#CHARTSTYLE:;
#DIFFICULTY:Beginner;
#METER:2;
#RADARVALUES:0.114398,0.172853,0.039063,0.009766,0.000000,82.000000,78.000000,4.000000,1.000000,0.000000,0.000000,0.000000,0.000000,0.000000,0.114398,0.172853,0.039063,0.009766,0.000000,82.000000,78.000000,4.000000,1.000000,0.000000,0.000000,0.000000,0.000000,0.000000;
#CREDIT:;
#DISPLAYBPM:150.000000;
#NOTES:
0000
0000
0000
0000
,
0000
0000
0000
0000
,
0000
0000
0000
0000
,
0000
0000
0000
0000
,
1000
0000
0000
0000
,
0010
0000
0000
0000
,
0100
0000
0000
0000
,
0001
0000
0000
0000
,
1000
0000
1000
0000
,
1000
0000
0000
0000
,
0001
0000
0001
0000
,
0001
0000
0000
0000
,
0010
0000
0010
0000
,
0010
0000
0000
0000
,
0100
0000
0100
0000
,
0100
0000
0000
0000
,
1000
0000
0000
0000
,
0100
0000
0000
0000
,
0001
0000
0000
0000
,
0100
0000
0000
0000
,
1000
0000
0000
0000
,
0010
0000
0000
0000
,
0001
0000
0000
0000
,
0010
0000
0000
0000
,
1000
0000
0001
0000
,
1001
0000
0000
0000
,
0100
0000
0000
0000
,
0001
0000
0000
0000
,
0100
0000
0000
0000
,
1000
0000
0000
0000
,
0001
0000
0000
0000
,
0100
0000
0000
0000
,
1000
0000
0000
0000
,
0200
0000
0000
0300
,
0000
0000
0000
0000
,
0001
0000
0001
0000
,
1000
0000
1000
0000
,
0001
0000
0001
0000
,
0100
0000
0010
0000
,
1000
0000
0010
0000
,
0100
0000
0001
0000
,
0010
0000
0100
0000
,
1000
0000
0001
0000
,
1001
0000
1000
0000
,
0001
0000
0001
0000
,
1000
0000
1000
0000
,
0010
0000
0100
0000
,
0001
0000
0100
0000
,
0010
0000
1000
0000
,
0100
0000
0010
0000
,
0001
0000
1000
0000
,
1001
0000
0000
0000
,
1000
0000
0000
0000
,
0001
0000
0000
0000
,
0100
0000
0000
0000
,
0010
0000
0000
0000
,
1000
0000
0000
0000
,
0001
0000
1000
0000
,
0001
0000
1000
0000
,
1001
0000
0000
0000
,
0000
0000
0000
0000
;

//---------------dance-single - ----------------
#NOTEDATA:;
#CHARTNAME:;
#STEPSTYPE:dance-single;
#DESCRIPTION:;
#CHARTSTYLE:;
#DIFFICULTY:Easy;
#METER:4;
#RADARVALUES:0.203685,0.262576,0.048829,0.185549,0.000000,146.000000,141.000000,5.000000,19.000000,0.000000,0.000000,0.000000,0.000000,0.000000,0.203685,0.262576,0.048829,0.185549,0.000000,146.000000,141.000000,5.000000,19.000000,0.000000,0.000000,0.000000,0.000000,0.000000;
#CREDIT:;
#DISPLAYBPM:150.000000;
#NOTES:
0000
0000
0000
0000
,
0000
0000
0000
0000
,
0000
0000
0000
0000
,
0000
0000
0000
0000
,
2000
0000
0000
3000
,
0002
0000
0000
0003
,
0200
0000
0000
0300
,
0010
0000
1000
0000
,
0001
0010
0001
0010
,
0001
2000
3000
0000
,
0100
1000
0100
1000
,
0100
0020
0030
0000
,
0001
0100
0001
0100
,
0001
2000
3000
0000
,
0010
1000
0010
1000
,
0010
0200
0300
0000
,
2002
0000
0000
3003
,
0001
0000
1000
0000
,
0001
0000
1000
0010
,
0100
0000
0010
0000
,
0100
0000
0010
0100
,
0001
0000
0010
0000
,
0001
0000
0010
0001
,
1000
0000
0100
0000
,
1000
0000
0100
1000
,
0001
0001
1000
1000
,
0010
0010
0100
0000
,
0001
0001
1000
1000
,
0100
0100
0010
0000
,
0001
0000
1000
0000
,
0001
0001
0001
0000
,
0100
0000
0010
0000
,
0100
0100
0100
0000
,
2002
0000
0000
3003
,
0000
0000
0000
0000
,
0001
0000
0100
0000
,
0010
1000
0010
0000
,
1000
0000
0100
0000
,
0010
0001
0010
0000
,
0001
0000
1000
0000
,
0001
0100
0010
0000
,
2000
3000
0002
0003
,
1000
0100
0010
0000
,
0001
0000
0100
0000
,
1000
0100
0001
0000
,
1000
0000
0100
0000
,
0001
0100
1000
0000
,
0001
0000
1000
0000
,
0010
0100
0010
0000
,
1001
0000
0110
0000
,
2000
3002
2003
3000
,
1001
1000
0100
0000
,
1000
0001
0100
0000
,
1000
0010
0100
0001
,
1000
0001
1000
0000
,
0001
0010
0100
0000
,
1000
0010
0100
0000
,
0002
0003
2000
3000
,
0001
0100
1000
0100
,
0002
0000
0000
0003
,
0000
0000
0000
0000
;

//---------------dance-single - ----------------
#NOTEDATA:;
#CHARTNAME:;
#STEPSTYPE:dance-single;
#DESCRIPTION:;
#CHARTSTYLE:;
#DIFFICULTY:Medium;
#METER:8;
#RADARVALUES:0.319479,0.410160,0.175783,0.429692,0.107423,229.000000,211.000000,18.000000,44.000000,0.000000,0.000000,0.000000,0.000000,0.000000,0.319479,0.410160,0.175783,0.429692,0.107423,229.000000,211.000000,18.000000,44.000000,0.000000,0.000000,0.000000,0.000000,0.000000;
#CREDIT:;
#DISPLAYBPM:150.000000;
#NOTES:
0000
0000
0000
0000
,
0000
0000
0000
0000
,
0000
0000
0000
0000
,
0000
0000
0000
0000
,
0002
0000
0203
0000
,
0302
0000
2003
0000
,
3200
0000
0000
0300
,
2002
0000
0000
3003
,
0001
1000
0100
0000
0010
0100
1000
0000
,
0001
0010
0200
0000
1300
0000
0001
0000
,
0010
0001
1000
0000
0010
0100
0001
0000
,
1000
0010
0200
0000
0301
0000
1000
0000
,
0001
1000
0010
0000
0100
0010
1000
0000
,
0001
0100
0020
0000
1030
0000
0001
0000
,
0100
0001
1000
0000
0100
0010
0001
0000
,
1000
0100
0020
0000
0031
0000
1000
0000
,
0200
0000
0000
0300
,
2001
0000
0000
0000
,
3002
0000
0023
0000
,
0230
0000
0000
2300
0000
3000
0002
0000
,
2003
0000
0000
3020
0000
0000
0130
0000
,
0210
0000
0000
0010
0020
0000
0000
0000
,
0000
0330
0000
1000
0000
0001
0010
0100
,
0020
0000
0000
0000
0000
0000
0100
0200
,
0000
0000
0000
0330
0000
0010
0001
1000
,
0001
0101
0010
1100
,
0001
0110
1000
1001
,
0001
0110
1000
0011
,
0100
0000
1010
0000
0100
0001
0010
0100
,
2000
0000
0000
3001
0002
0000
0003
0100
,
0200
0000
0000
0000
0000
0300
1000
0000
2000
0000
0000
0000
3000
0000
0000
0000
,
0100
0110
1000
1001
,
0010
0000
0001
2000
0002
0000
0000
0000
,
0000
0000
0000
3003
,
0220
0000
0000
0330
,
1000
0000
0000
0010
0000
0000
0000
0000
0100
0000
0000
0001
0000
0000
0000
0000
,
0010
0000
0000
0100
0000
0000
1000
0000
2000
0000
0000
0000
0000
0000
0000
0000
,
3001
0000
0000
0100
0000
0000
0000
0000
0010
0000
0000
0100
0000
0000
0000
0000
,
1000
0000
0000
0100
0000
0000
0001
0000
0002
0000
0000
0000
0000
0000
0000
0000
,
1003
0000
0000
0010
0000
0000
0000
0000
0100
0000
0000
0001
0000
0000
0000
0000
,
0010
0000
0000
0100
0000
0000
1000
0000
2000
0000
0000
0000
3000
0000
0000
0000
,
1100
0000
0000
0000
0101
0000
0000
0010
,
0001
1000
0020
0000
0200
0000
0330
0000
,
0001
0000
0000
0100
0000
0000
0000
0000
0010
0000
0000
1000
0000
0000
0000
0000
,
0100
0000
0000
0010
0000
0000
0001
0000
0002
0000
0000
0000
0000
0000
0000
0000
,
1003
0000
0000
0010
0000
0000
0000
0000
0100
0000
0000
0010
0000
0000
0000
0000
,
0001
0000
0000
0010
0000
0000
1000
0000
2000
0000
0000
0000
0000
0000
0000
0000
,
3001
0000
0000
0100
0000
0000
0000
0000
0010
0000
0000
1000
0000
0000
0000
0000
,
0100
0000
0000
0010
0000
0000
0001
0000
0002
0000
0000
0000
0003
0000
0000
0000
,
0011
0000
0000
0000
1010
0000
0000
0100
,
1000
0001
0200
0000
0020
0000
0330
0000
,
1000
0000
0000
0000
0001
0000
0000
0000
1000
0000
0000
0010
0000
0000
0100
0000
,
0100
0000
0000
0000
0010
0000
0000
0000
0100
0000
0000
0001
0000
0000
1000
0000
,
1000
0000
0000
0000
0001
0000
0000
0000
0010
0000
0000
0100
0000
0000
1000
0000
,
1000
0000
0000
0000
0010
0000
0000
0000
0100
0000
0000
0001
0000
0000
0010
0000
,
0010
0000
0100
0000
1000
0001
1000
0000
,
0010
0000
0100
0000
0001
1000
0001
0000
,
1000
0000
0100
0000
0010
0100
1000
0000
,
0001
0000
0100
0000
0010
0100
0001
1000
,
2002
0000
0000
0000
,
3003
0000
0000
0000
,
0000
0000
0000
0000
;

//---------------dance-single - ----------------
#NOTEDATA:;
#CHARTNAME:;
#STEPSTYPE:dance-single;
#DESCRIPTION:;
#CHARTSTYLE:;
#DIFFICULTY:Hard;
#METER:12;
#RADARVALUES:0.528744,0.691413,0.361332,0.371097,0.292972,379.000000,342.000000,37.000000,38.000000,0.000000,0.000000,0.000000,0.000000,0.000000,0.528744,0.691413,0.361332,0.371097,0.292972,379.000000,342.000000,37.000000,38.000000,0.000000,0.000000,0.000000,0.000000,0.000000;
#CREDIT:;
#DISPLAYBPM:150.000000;
#NOTES:
0000
0000
0000
0000
,
0000
0000
0000
0000
,
0000
0000
0000
0000
,
0000
0000
0000
0000
,
2000
0000
0200
3000
,
0020
0300
0002
0030
,
2000
0003
0002
3003
,
0220
0000
0000
0330
,
1000
0100
1000
0000
0010
0000
0100
0001
0100
0000
0010
0000
1000
0000
0100
1000
,
0100
0000
0010
0000
0002
0000
0000
1003
0000
0010
0100
0000
0001
0000
1000
0000
,
0001
0100
0001
0000
0010
0000
0100
1000
0100
0000
0010
0000
0001
0000
0100
0001
,
0100
0000
0001
0000
0020
0000
0000
0100
0030
0000
1000
0000
0001
0000
1000
0000
,
0001
0010
0001
0000
0100
0000
0010
1000
0010
0000
0100
0000
0001
0000
0010
0001
,
0010
0000
0100
0000
2000
0000
0000
3001
0000
0100
0010
0000
1000
0000
0001
0000
,
1000
0010
1000
0000
0100
0000
0010
0001
0010
0000
0100
0000
1000
0000
0010
1000
,
0010
0000
1000
0000
0200
0000
0000
0010
0300
0000
0001
1000
0001
1000
0020
0200
,
0000
0000
0330
0000
,
0010
1000
0001
1000
0010
0100
0001
1000
,
0001
0010
0100
0010
0001
1000
0100
0010
,
0002
0000
0000
2003
0000
0000
3020
0000
,
0130
0001
1000
0010
1000
0100
0010
0100
,
2000
0000
0000
3001
0002
0000
0003
0100
,
0001
0010
0100
0010
0001
1000
0001
0100
,
0020
0000
0000
0000
0000
1030
0001
0010
,
0100
1000
0010
1000
0001
0100
0010
0100
,
0001
0000
0000
0002
0000
0000
0000
0000
1003
0000
0000
2000
0000
0000
0000
0000
,
3010
0000
0000
0100
0000
0000
0002
0000
0000
0000
0000
0000
0003
0000
0000
0000
,
1000
0000
0000
2000
0000
0000
0000
0000
3001
0000
0000
0002
0000
0000
0000
0000
,
0013
0000
0000
0100
0000
0000
2000
0000
0000
0000
3010
0000
0100
0000
0001
0000
,
0010
0100
1000
0010
0100
1000
0100
0010
,
1000
0010
0001
1000
0100
0010
1000
0001
,
2000
0000
0000
0020
3000
0000
0100
0030
0200
0000
0000
0002
0300
0000
0010
0003
,
0020
0000
0000
0200
0030
0000
1300
0000
1010
0000
0000
0000
0101
0000
0000
0000
,
0020
0000
0000
0000
,
0200
0000
0330
0000
,
1000
0000
0000
0001
0000
0000
0010
0000
0100
0000
0000
0010
0000
0000
0001
0000
,
1000
0000
0000
0010
0000
0000
0100
0000
0010
0000
0000
0000
0110
0000
0000
0000
,
0001
0000
0000
1000
0000
0000
0100
0000
0010
0000
0000
0100
0000
0000
1000
0000
,
0001
0000
0000
0100
0000
0000
0010
0000
0100
0000
0000
0000
0110
0000
0000
0000
,
1000
0000
0000
0001
0010
0000
0100
0000
0010
0000
0000
0001
1000
0000
0010
0000
,
1000
0000
0000
0001
0100
0000
0010
0000
0100
0000
0000
0000
0110
0000
0001
0000
,
1000
0000
0000
1010
0000
0000
1000
0000
0001
0000
0000
0011
0000
0000
0100
0000
,
1000
0001
1000
0000
0011
0000
1100
0000
,
0001
0000
0000
0101
0000
0000
0100
0000
0010
0000
0000
0110
0000
0000
0010
0000
,
1000
0000
0000
1010
0000
0000
1000
0000
0001
0000
0000
0000
0110
0000
0000
0000
,
1000
0000
0000
1100
0000
0000
0100
0000
0010
0000
0000
0110
0000
0000
0010
0000
,
0001
0000
0000
0011
0000
0000
0001
0000
1000
0000
0000
0000
0110
0000
0000
0000
,
1001
0000
0000
1010
0000
0000
1000
0000
1001
0000
0000
1100
0000
0000
0001
0000
,
0011
0000
0000
0110
0000
0000
1100
0000
2002
0000
0000
3003
0000
0000
0110
0000
,
1001
0000
0000
1100
0000
0000
0011
0000
1001
0000
0000
1010
0000
0000
0101
0000
,
0110
1001
0220
0330
,
1000
0001
1000
0010
0100
0010
1000
0100
,
0001
0000
0100
0000
1000
0000
0001
0000
0100
0001
0000
1000
0001
0000
1000
0100
,
0010
0001
1000
0010
0100
0001
0100
0010
,
1000
0000
0001
0000
0100
0000
0010
1000
0000
0001
0100
0000
0010
1000
0001
0000
,
1000
0001
0010
0100
0010
0001
1000
0100
,
1000
0010
0001
0010
0100
0001
1000
0100
,
0010
0001
1000
0010
0100
0010
1000
0100
,
0010
0001
0010
0000
0100
0000
1000
0000
0010
1000
0010
0000
0100
0000
0010
0000
,
1001
0000
0000
0000
,
0000
0000
0000
0000
;

//---------------dance-double - ----------------
#NOTEDATA:;
#CHARTNAME:;
#STEPSTYPE:dance-double;
#DESCRIPTION:;
#CHARTSTYLE:;
#DIFFICULTY:Easy;
#METER:6;
#RADARVALUES:0.245538,0.288089,0.048829,0.107423,0.000000,176.000000,171.000000,5.000000,11.000000,0.000000,0.000000,0.000000,0.000000,0.000000,0.245538,0.288089,0.048829,0.107423,0.000000,176.000000,171.000000,5.000000,11.000000,0.000000,0.000000,0.000000,0.000000,0.000000;
#CREDIT:;
#DISPLAYBPM:150.000000;
#NOTES:
00000000
00000000
00000000
00000000
,
00000000
00000000
00000000
00000000
,
00000000
00000000
00000000
00000000
,
00000000
00000000
00000000
00000000
,
00000020
00000000
00000032
00000000
,
00000203
00000000
00002300
00000000
,
00023000
00000000
00000000
00030000
,
00022000
00000000
00000000
00033000
,
00010000
00000000
00001000
00000000
,
00000100
00000000
00000001
00000000
,
00000010
00000000
00001000
00000000
,
00010000
00000000
00001000
00000000
,
00010000
00010000
01000000
10000000
,
00100000
00100000
01000000
00001000
,
00010000
00010000
00000010
00001000
,
00000100
00000100
00010000
00001000
,
00022000
00000000
00033000
00000000
,
00010000
00000100
00001000
00000010
,
00000100
00000000
00000010
00000000
,
00001000
00000001
00000010
00000100
,
00001000
00000000
00000001
00000000
,
00000100
00000001
00000010
00000001
,
00000100
00001000
00000100
00000001
,
00001000
00000100
00010000
00000100
,
00010000
00001000
01000000
00010000
,
10000000
00000000
00010000
00000000
,
10000000
00010000
01000000
00000000
,
00010000
00000000
10000000
00000000
,
00010000
10000000
00100000
00000000
,
01000000
00000000
00001000
00000000
,
00010000
00001000
00010000
00000000
,
00001000
00000000
00000100
00000000
,
00000001
00001000
00000001
00000000
,
00000220
00000000
00000000
00000330
,
00001001
00000000
00000000
00000000
,
00000010
00000001
00000100
00001000
,
00000100
00000001
00000010
00000000
,
00001000
00010000
00100000
10000000
,
01000000
00010000
01000000
00000000
,
10000000
00100000
01000000
00001000
,
00010000
00000100
00000010
00000000
,
00000001
00000100
00000010
00010000
,
00001000
01000000
00100000
00000000
,
10000000
01000000
00100000
00010000
,
00100000
01000000
10000000
01000000
,
00010000
00001000
00000100
00000001
,
00000100
00000010
00000100
00000000
,
00000001
00000100
00000010
00001000
,
00000010
00000100
00000001
00000100
,
00001000
00010000
01000000
10000000
,
01000000
00100000
01000000
00000000
,
00100000
10000000
00100000
10000000
,
01000000
00010000
01000000
00010000
,
00001000
00000100
00001000
00000100
,
00000001
00000010
00000001
00000000
,
00000100
00000001
00000100
00000001
,
00000010
00001000
00000010
00001000
,
00010000
00100000
00010000
00100000
,
10000000
01000000
10000000
01000000
,
10010000
00000000
00000000
00000000
,
00000000
00000000
00000000
00000000
;

//---------------dance-double - ----------------
#NOTEDATA:;
#CHARTNAME:;
#STEPSTYPE:dance-double;
#DESCRIPTION:;
#CHARTSTYLE:;
#DIFFICULTY:Medium;
#METER:9;
#RADARVALUES:0.339010,0.380863,0.087891,0.507817,0.219729,243.000000,234.000000,9.000000,52.000000,0.000000,0.000000,0.000000,0.000000,0.000000,0.339010,0.380863,0.087891,0.507817,0.219729,243.000000,234.000000,9.000000,52.000000,0.000000,0.000000,0.000000,0.000000,0.000000;
#CREDIT:;
#DISPLAYBPM:150.000000;
#NOTES:
00000000
00000000
00000000
00000000
,
00000000
00000000
00000000
00000000
,
00000000
00000000
00000000
00000000
,
00000000
00000000
00000000
00000000
,
00020000
00000000
00030200
00000000
,
00020300
00000000
00030020
00000000
,
00000230
00000000
00000000
00000300
,
00002002
00000000
00000000
00003003
,
00000100
00000000
00000000
00000000
00001001
00000000
00000000
00000000
00000001
00000000
00000000
00000100
00000000
00000000
00000020
00000000
,
00000000
00000000
00000000
00000000
00000000
00000000
00010000
00000000
00010030
00000000
00000000
00001000
00000000
00000000
00000100
00000000
,
00000001
00000000
00000000
00000000
00001001
00000000
00000000
00000000
00000010
00000000
00000000
00010000
00000000
00000000
00002000
00000000
,
00000000
00000000
00000000
00000000
00000000
00000000
00100000
00000000
00103000
00000000
00000000
00010000
00000000
00000000
10000000
00000000
,
01000000
00000000
00000000
00000000
10010000
00000000
00000000
00000000
10000000
00000000
00000000
01000000
00000000
00000000
00200000
00000000
,
00000000
00000000
00000000
00000000
00000000
00000000
00001000
00000000
00301000
00000000
00000000
00010000
00000000
00000000
01000000
00000000
,
10000000
00000000
00000000
00000000
10010000
00000000
00000000
00000000
00100000
00000000
00000000
00001000
00000000
00000000
00010000
00000000
,
00000000
00000000
00000100
00000000
00001000
00000000
00000001
00000000
00000100
00000000
00000000
00000010
00000000
00000000
00000100
00000000
,
00000020
00000000
00000000
00000030
,
00001002
00000000
00000000
00000000
,
00002003
00000000
00003200
00000000
,
00020300
00000000
00000000
00030020
00000000
00000000
00020030
00000000
,
00032000
00000000
00000000
02003000
00000000
00000000
03100000
00000000
,
20010000
00000000
00000000
01000000
02000000
00000000
00000000
00000000
,
00000000
33000000
00000000
00100000
00000000
00001000
00010000
00001000
,
00000020
00000000
00000000
00000000
00000000
00000000
00000100
00000200
,
00000000
00000000
00000000
00000330
00000000
00001000
00000010
00000100
,
00000001
00000000
00000000
00001000
00000000
00000000
00000001
00000000
00000100
00000000
00000000
00000010
00000000
00000000
00001000
00000000
,
00000100
00000000
00000000
00010000
00000000
00000000
00002000
00000000
00000000
00000000
00010000
00000000
00013000
00000000
00000000
00000000
,
00001000
00000000
00000000
01000000
00000000
00000000
00100000
00000000
01000000
00000000
00000000
00010000
00000000
00000000
00100000
00000000
,
01000000
00000000
00000000
10000000
00000000
00000000
00020000
00000000
00000000
00000000
10030000
00000000
01000000
00000000
00100000
00000000
,
00010000
00000000
00000000
02000000
00000000
00000000
00001000
00000000
03002000
00000000
00000000
00000000
00003000
00000000
00000000
00000000
,
00010000
00000000
00000000
00000200
00000000
00000000
00001000
00000000
00002300
00000000
00000000
00000000
00003000
00000000
00000000
00000000
,
00000010
00000000
00000000
00000100
00000000
00000000
00000001
00000000
00000010
00000000
00000000
00000100
00000000
00000000
00001000
00000000
,
00000010
00000000
00000000
00000100
00000000
00000000
00000002
00000000
00002000
00000000
00000000
00000000
00000000
00000000
00000000
00000000
,
00000000
00000000
00000000
00003003
,
00000220
00000000
00000000
00000330
,
00000001
00000000
00000000
00000100
00000000
00000000
00000010
00000000
00001000
00000000
00000000
00000001
00000000
00000000
00000010
00000000
,
00000100
00000000
00000000
00010000
00000000
00000000
00001000
00000000
00020000
00000000
00000000
00000000
00000000
00000000
00000000
00000000
,
00031000
00000000
00000000
00100000
00000000
00000000
00010000
00000000
01000000
00000000
00000000
00100000
00000000
00000000
10000000
00000000
,
00010000
00000000
00000000
00100000
00000000
00000000
01000000
00000000
20000000
00000000
00000000
00000000
00000000
00000000
00000000
00000000
,
30010000
00000000
00000000
01000000
00000000
00000000
00010000
00000000
00100000
00000000
00000000
00001000
00000000
00000000
00010000
00000000
,
00001000
00000000
00000000
01000000
00000000
00000000
00100000
00000000
02000000
00000000
00000000
00000000
00000000
00000000
00010000
00000000
,
03010000
00000000
00000000
00200000
00000000
00000000
00001000
00000000
00301000
00000000
00000000
00010000
00000000
00000000
00000100
00000000
,
00001000
00000010
00000200
00000000
00000002
00000000
00000303
00000000
,
00001000
00000000
00000000
00000001
00000000
00000000
00000010
00000000
00000100
00000000
00000000
00000010
00000000
00000000
00000001
00000000
,
00000100
00000000
00000000
00001000
00000000
00000000
00010000
00000000
00002000
00000000
00000000
00000000
00000000
00000000
00000000
00000000
,
01003000
00000000
00000000
00010000
00000000
00000000
00100000
00000000
00001000
00000000
00000000
00100000
00000000
00000000
01000000
00000000
,
10000000
00000000
00000000
00010000
00000000
00000000
01000000
00000000
00200000
00000000
00000000
00000000
00000000
00000000
00000000
00000000
,
10300000
00000000
00000000
00010000
00000000
00000000
00100000
00000000
00001000
00000000
00000000
00010000
00000000
00000000
00000010
00000000
,
00001000
00000000
00000000
00000100
00000000
00000000
00010000
00000000
00002000
00000000
00000000
00000000
00000000
00000000
00010000
00000000
,
00013000
00000000
00000000
00000020
00000000
00000000
00000100
00000000
00000130
00000000
00000000
00000001
00000000
00000000
00001000
00000000
,
00000200
00000000
00002300
00000000
00003002
00000000
00000000
00000003
,
00002000
00000000
00000100
00000000
00003100
00000000
00000000
00000000
00000010
00000000
00000000
00000001
00000000
00000000
00000100
00000000
,
00000002
00000000
00000000
00000000
00000000
00000000
00000100
00000000
00000103
00000000
00000000
00000010
00000000
00000000
00010000
00000000
,
00002000
00000000
00010000
00000000
00013000
00000000
00000000
00000000
01000000
00000000
00000000
10000000
00000000
00000000
00010000
00000000
,
20000000
00000000
00000000
00000000
00000000
00000000
00100000
00000000
30100000
00000000
00000000
01000000
00000000
00000000
00001000
00000000
,
00010000
00000000
01000000
00000000
10000000
01000000
10000000
00000000
,
00100000
00000000
00010000
00000000
00001000
00010000
00001000
00000000
,
00010000
00000000
00000010
00000000
00001000
00000100
00001000
00000000
,
00000001
00000000
00000010
00000000
00000001
00000100
00001000
00010000
,
00022000
00000000
00000000
00000000
,
00033000
00000000
00000000
00000000
,
00000000
00000000
00000000
00000000
;

//---------------dance-double - ----------------
#NOTEDATA:;
#CHARTNAME:;
#STEPSTYPE:dance-double;
#DESCRIPTION:;
#CHARTSTYLE:;
#DIFFICULTY:Hard;
#METER:13;
#RADARVALUES:0.545485,0.583502,0.087891,0.185549,0.205080,391.000000,382.000000,9.000000,19.000000,0.000000,0.000000,0.000000,0.000000,0.000000,0.545485,0.583502,0.087891,0.185549,0.205080,391.000000,382.000000,9.000000,19.000000,0.000000,0.000000,0.000000,0.000000,0.000000;
#CREDIT:;
#DISPLAYBPM:150.000000;
#NOTES:
00000000
00000000
00000000
00000000
,
00000000
00000000
00000000
00000000
,
00000000
00000000
00000000
00000000
,
00000000
00000000
00000000
00000000
,
00200000
00000000
20300000
00000000
,
32000000
00000000
03020000
00000000
,
00032000
00000000
00000000
00003000
,
00022000
00000000
00000000
00033000
,
01001000
00000000
00010100
00000000
00001000
00000100
00000010
00001000
,
00000001
00000000
00000010
00000000
00001000
00000000
00000010
00000000
00000100
00000000
00001000
00000001
00001000
00000000
00000100
00000000
,
00000110
00000000
00001001
00000000
00000010
00000100
00010000
00001000
,
01000000
00000000
00001000
00000000
00010000
00000000
00100000
00000000
10000000
00000000
01000000
00100000
01000000
00000000
10000000
00000000
,
10010000
00000000
01100000
00000000
00010000
10000000
00010000
00100000
,
01000000
00000000
10000000
00000000
00100000
00000000
01000000
00000000
00001000
00000000
00010000
00000100
00010000
00000000
00001000
00000000
,
01000000
00100000
00010000
00001000
00100000
00001000
00010000
00100000
,
00010000
00000000
00001000
00000000
01000000
00000000
00010000
00000000
00100000
00000000
00010000
10000000
00010000
10000000
00010000
10000000
,
00000000
00000000
00000000
00000000
,
00000001
00000100
00000001
00000010
00000100
00010000
00000010
00000100
,
00000001
00001000
00000010
00010000
00001000
00100000
01000000
10000000
,
00200000
00000000
01000000
02300000
00000000
00001000
03001000
00010000
,
00000200
00000000
00000010
00000320
00000000
00000001
00000031
00001000
,
00000010
00001000
00000100
00010000
00000010
00000001
00001000
00000100
,
00000001
00000010
00000100
00000001
00000100
00001000
00000001
00000010
,
00001000
00000010
00000100
00010000
01000000
00100000
00001000
00010000
,
00000100
00010000
00000010
00001000
00000001
00000010
00000100
00010000
,
00001000
00000000
00000000
00000100
00000000
00000000
00000010
00000000
00010000
00000000
00000000
00001000
00000000
00000000
01000000
00000000
,
00100000
00000000
00000000
00010000
00000000
00000000
00200000
00000000
00000000
00000000
10000000
00000000
10300000
00000000
00010000
00000000
,
00100000
00000000
00000000
00001000
00000000
00000000
00010000
00000000
00100000
00000000
00000000
00010000
00000000
00000000
00000100
00000000
,
00000010
00000000
00000000
00000001
00000000
00000000
00002000
00000000
00000000
00000000
00000100
00000000
00003100
00000000
00000010
00000000
,
00000001
00000000
00000000
00001000
00000000
00000000
00000001
00000000
00000100
00000000
00001000
00000000
00010000
00000000
00100000
00000000
,
10000000
00000000
00000000
00010000
00000000
00000000
10000000
00000000
01000000
00000000
00010000
00000000
00001000
00000000
00000010
00000000
,
00000001
00000000
00000000
00001000
00000000
00000000
00000010
00000000
00000100
00000000
00000000
00000001
00000000
00000000
00001000
00000000
,
00000100
00000000
00000000
00001000
00000000
00000000
00000020
00000000
00000200
00000000
00000000
00000000
00000330
00000000
00000000
00000000
,
00002002
00000000
00000000
00000000
,
00003003
00000000
00000000
00000000
,
10000000
00000000
00000000
01000000
10000000
00000000
00010000
00000000
01000000
00000000
00000000
00100000
00010000
00000000
00001000
00000000
,
00010000
00000000
00000000
00000100
00010000
00000000
00001000
00000000
00000100
00000000
00000001
00000000
00000010
00000000
00000100
00000000
,
00000010
00000000
00000000
00000001
00001000
00000000
00000001
00000000
00000100
00000000
00000000
00000010
00010000
00000000
00001000
00000000
,
00000100
00000000
00000000
00000010
00000100
00000000
00000001
00000000
00001000
00000001
00000000
00001000
00000001
00000000
00000100
00000000
,
00000010
00000000
00000000
00010000
00001000
00000000
01000000
00000000
00010000
00000000
00000000
00100000
01000000
00000000
10000000
00000000
,
00100000
00000000
00000000
01000000
00001000
00000000
00010000
00000000
00000100
00000000
00010000
00000000
00001000
00000000
00100000
00000000
,
01000000
00000000
00000000
10000000
00010000
00000000
01000000
00000000
00001000
00000000
00000000
00010000
00001000
00000000
00000010
00000000
,
00000001
00000000
00001000
00000000
00000100
00000000
00010000
00000000
00001000
00010000
00000000
00001000
00010000
00000000
00000100
00000000
,
00000010
00000001
00000100
00001000
00010000
01000000
00010000
00001000
,
00000010
00001000
00010000
00100000
01000000
00010000
00100000
01000000
,
10000000
00100000
01000000
00001000
00010000
00000010
00000100
00001000
,
00000100
00000000
00000001
00000000
00000010
00000000
00000100
00000000
00001000
00000001
00000000
00001000
00000001
00000000
00000100
00000000
,
00000010
00010000
00000100
00000010
00000001
00000100
00001000
00010000
,
00100000
00010000
00001000
00000100
00000010
00010000
00001000
01000000
,
00100000
10000000
01000000
00010000
00001000
00000010
00000100
00001000
,
00000010
00000000
00010000
00000000
00000100
00000000
00000010
00000000
00000001
00001000
00000000
00000001
00001000
00000000
00000100
00000000
,
00000010
00000001
00000010
00000001
00000010
00000000
00000100
00000000
00010000
00000000
00000100
00000000
00001000
00000000
00000001
00000000
,
00000100
00001000
00000100
00000010
00010000
00001000
00010000
00100000
,
00010000
00001000
00010000
00001000
00010000
00000000
01000000
00000000
00100000
00000000
00001000
00000000
00010000
00000000
00100000
00000000
,
10000000
01000000
00100000
00001000
00010000
00001000
01000000
00010000
,
10000000
00100000
10000000
00100000
10000000
00000000
01000000
00000000
00010000
00000000
00001000
00000000
00000010
00000000
00001000
00000000
,
00010000
00001000
00000100
00000001
00000010
00000100
00010000
00000010
,
00000100
00000001
00001000
00000100
00010000
00000010
00001000
00000001
,
00000100
00001000
00010000
00100000
10000000
01000000
00010000
00001000
,
00022000
00000000
00000000
00033000
,
00000000
00000000
00000000
00000000
;

//---------------dance-single - ----------------
#NOTEDATA:;
#CHARTNAME:;
#STEPSTYPE:dance-single;
#DESCRIPTION:;
#CHARTSTYLE:;
#DIFFICULTY:Challenge;
#METER:18;
#RADARVALUES:1.049117,1.230481,0.205080,0.107423,1.684587,752.000000,731.000000,21.000000,11.000000,0.000000,0.000000,0.000000,0.000000,0.000000,1.049117,1.230481,0.205080,0.107423,1.684587,752.000000,731.000000,21.000000,11.000000,0.000000,0.000000,0.000000,0.000000,0.000000;
#CREDIT:;
#DISPLAYBPM:150.000000;
#NOTES:
// measure 0
0000
0000
0000
0000
,  // measure 1
0000
0000
0000
0000
,  // measure 2
0000
0000
0000
0000
,  // measure 3
0000
0000
0000
0000
,  // measure 4
1000
0100
1000
0100
0010
0001
0010
0001
1000
0100
0010
0001
1000
0100
0010
0001
,  // measure 5
0100
0001
0100
0001
1000
0010
1000
0010
0100
0001
1000
0010
0100
0001
1000
0010
,  // measure 6
0100
0001
1000
0001
0100
0010
0001
0010
0100
1000
0100
0010
0001
1000
0001
0010
,  // measure 7
0100
0010
1000
0010
0100
0001
1000
0100
0010
0001
0010
0100
1000
0010
0100
0001
,  // measure 8
1000
0100
0010
0001
0100
0000
0001
0010
0100
1000
0100
0000
0010
1000
0001
0010
,  // measure 9
0001
0100
0001
0010
0001
0100
0001
0010
0001
0000
0010
0100
1000
0100
0010
0000
,  // measure 10
0001
0100
0010
1000
0100
0010
0001
0010
0100
1000
0010
0100
0001
0010
0001
0100
,  // measure 11
0010
1000
0010
0100
0001
0010
0001
0100
0010
1000
0100
0010
0001
0100
0010
1000
,  // measure 12
0001
0100
0010
1000
0100
0010
0001
0010
0100
1000
0010
0100
0001
0010
0001
0100
,  // measure 13
0010
1000
0100
0010
0001
0010
0100
0001
1000
0100
0010
0001
1000
0010
0100
0001
,  // measure 14
1000
0100
0010
0001
0010
0100
1000
0010
0100
0001
1000
0100
0010
0001
0010
0100
,  // measure 15
1000
0000
0100
0000
1000
0000
0100
0000
0000
0010
0000
0000
0001
0000
0010
0000
0001
0000
0010
0000
0000
0100
0000
0000
1000
0000
0010
0000
1000
0000
0010
0000
0000
0100
0000
0000
0001
0000
0100
0000
0001
0000
0200
0000
0000
0020
0000
0000
,  // measure 16
0000
0000
0000
0330
,  // measure 17
0100
0001
1000
0001
0100
0001
1000
0001
0100
0001
1000
0001
0100
0001
1000
0001
,  // measure 18
0100
0010
0100
1000
0100
0010
0100
1000
0010
0100
1000
0000
1100
0000
0000
0000
,  // measure 19
1000
0010
0100
0010
0001
0000
0010
0001
0100
0010
1000
0000
1100
0000
0000
0000
,  // measure 20
1000
0010
0100
0001
0010
0000
0001
0010
0100
1000
0100
0000
0010
0001
0100
0000
,  // measure 21
0001
0100
0010
0100
0001
0100
0010
0100
0001
0100
0010
0100
0001
0100
0010
0100
,  // measure 22
0001
0010
0100
1000
0100
0010
0001
0100
0010
1000
0100
0000
1100
0000
1000
0000
,  // measure 23
0100
1000
0100
0001
0100
1000
0100
0001
0100
1000
0100
0001
0100
0010
0100
1000
,  // measure 24
0100
0010
1000
0010
0100
0001
0010
0001
0100
0010
1000
0100
0010
0001
0100
0010
,  // measure 25
1000
0000
0010
1000
0000
1000
0100
0000
0010
0000
0001
0100
0000
0100
1000
0000
,  // measure 26
0010
0000
1000
0100
0000
0100
0001
0000
0010
0100
0001
0000
0101
0000
0100
0000
,  // measure 27
0010
1000
0001
0010
0001
0000
0100
0001
1000
0001
0010
0000
0100
0010
1000
0100
,  // measure 28
0010
0000
0000
0011
0000
0000
0201
0000
0000
0000
0301
1000
0100
0000
0010
0000
,  // measure 29
0001
1000
0100
1000
0001
1000
0100
1000
0001
1000
0100
1000
0001
1000
0100
1000
,  // measure 30
0001
0010
0100
0010
0001
0010
0100
0010
0001
0010
0100
0010
0001
0010
0100
0010
,  // measure 31
0001
0000
0010
1000
0000
1000
0100
0000
0010
0000
0001
0010
0000
0010
0100
0000
,  // measure 32
1000
0000
0000
0000
0100
0000
1000
0000
0000
0000
1000
0000
0100
0000
0000
0000
0010
0001
0010
0000
0001
0000
0100
0000
0010
1000
0010
0000
2000
0000
0020
0000
,  // measure 33
0000
0000
0000
3030
,  // measure 34
2002
0000
0000
3003
,  // measure 35
0001
0100
1000
0100
0000
1000
0100
0001
0100
0000
0001
0100
1000
0000
1000
0100
,  // measure 36
0010
0000
0001
0010
0000
0010
1000
0000
1010
0000
1100
0000
1010
0000
0000
0000
,  // measure 37
1000
0001
0100
0001
0000
0001
0100
0001
0010
0000
0001
0100
0010
0000
0010
1000
,  // measure 38
0100
0000
0010
1000
0000
1000
0100
0010
0001
0000
1000
0001
0100
0000
0010
0000
,  // measure 39
0001
0100
0010
0100
0000
0100
0001
0100
0010
0000
0010
0001
0100
0000
0010
1000
,  // measure 40
0100
0000
1000
0100
0000
1000
0100
0010
0001
0000
1001
0000
0101
0000
0001
0010
,  // measure 41
0100
0000
0100
1100
0000
0000
1000
0100
0010
0000
0010
0011
0000
0000
0001
0010
,  // measure 42
0100
0000
1000
0000
0100
0000
0001
0000
0100
0001
1000
0001
0100
0000
0010
0000
,  // measure 43
0001
0010
1000
0010
0000
0010
0001
0010
1000
0000
0010
1000
0100
0000
0010
0001
,  // measure 44
0100
0000
0001
0100
0000
0100
0010
1000
0001
0000
1001
0000
1100
0000
0000
0000
,  // measure 45
0100
0001
1000
0001
0000
1000
0100
1000
0001
0000
1000
0001
0100
0000
0001
1000
,  // measure 46
0100
0000
0010
0001
0000
0001
0100
0010
1000
0000
1010
0000
1100
0000
0000
0000
,  // measure 47
0001
0010
1000
0010
0000
1000
0010
0001
0010
0000
0100
0010
1000
0000
0010
0100
,  // measure 48
0001
0000
0010
0001
0000
0001
0100
0010
1000
0000
1001
0000
1100
0000
1000
0001
,  // measure 49
0200
0000
0301
0100
0000
1000
0100
0010
0200
0000
1300
0100
0000
0010
0001
0100
,  // measure 50
0010
0000
0000
0000
0000
0000
0000
0000
1010
0000
0000
0000
0000
0000
0000
0000
0100
0001
0100
0000
0001
0000
0100
0000
0001
0000
1000
0000
0100
0000
0010
0000
,  // measure 51
0001
0000
0010
0000
0001
0000
0010
0000
0000
0100
0000
0000
1000
0000
0000
0010
0000
0000
0100
0000
0000
0001
0000
0000
1000
0000
0000
0100
0000
0000
0010
0000
0000
0001
0000
0000
0010
0000
0000
0100
0000
0000
1000
0000
0000
0010
0000
0000
,  // measure 52
0100
0000
0010
0000
0100
0000
0010
0000
0000
0100
0000
0000
0001
0000
0000
0010
0000
0000
0001
0000
0000
0100
0000
0000
0010
0000
0000
1000
0000
0000
0001
0000
0000
0010
0000
0000
0001
0000
0000
0100
0000
0000
0010
0000
0000
1000
0000
0000
,  // measure 53
0100
1000
0100
0000
1000
0000
0100
0000
0010
0001
0010
0000
0001
0000
0100
0000
0010
0100
0010
0000
0100
0000
0010
0000
1000
0100
1000
0000
0100
0000
0010
0000
,  // measure 54
0001
0100
0001
0000
0100
0000
0010
0000
1000
0100
1000
0000
0100
0000
0010
0000
0001
1000
0001
0000
1000
0000
0100
0000
0010
0100
0010
0000
0100
0000
0010
0000
,  // measure 55
0001
0100
0001
0100
0001
0000
0100
0000
0010
0000
1000
0000
0001
0000
0100
0000
0010
0000
1000
0000
0100
0000
0010
0000
0001
0000
0100
0000
0010
0000
1000
0000
,  // measure 56
0100
0010
0100
0000
0010
0000
0100
0000
0010
0001
0010
0000
0001
0000
0010
0000
1000
0100
1000
0000
0100
0000
0010
0000
0001
0000
0100
0000
0010
0000
1000
0000
,  // measure 57
0001
0100
0001
0000
0100
0000
0001
0000
0010
0100
0010
0000
0100
0000
1000
0000
0100
1000
0100
0000
1000
0000
0100
0000
0010
0000
0001
0000
1000
0000
0100
0000
,  // measure 58
0010
0100
0001
0100
0010
1000
0010
1000
0001
0100
0010
1000
0001
0100
0010
2000
,  // measure 59
0002
0000
0000
0000
,  // measure 60
3003
0000
0000
0000
;
