#TITLE:Brand New Days;
#SUBTITLE:;
#ARTIST:Shoji Meguro;
#TITLETRANSLIT:;
#SUBTITLETRANSLIT:;
#ARTISTTRANSLIT:;
#GENRE:;
#CREDIT:;
#BANNER:;
#BACKGROUND:Brand New Days-bg.jpg;
#LYRICSPATH:;
#CDTITLE:;
#MUSIC:Brand New Days.mp3;
#OFFSET:0.000000;
#SAMPLESTART:100.000000;
#SAMPLELENGTH:12.000000;
#SELECTABLE:YES;
#DISPLAYBPM:133.000000;
#BPMS:0.000000=136.000000
,4.000000=133.000000
;
#STOPS:
;
#BGCHANGES:0.000=Brand New Days-bg.jpg=1.000=0=0=0=StretchNoLoop====,
0.021=Brand New Days.mp4=1.000=0=0=1=====,
99999=-nosongbg-=1.000=0=0=0 // don't automatically add -songbackground-
;
#KEYSOUNDS:;
#ATTACKS:;

//---------------dance-single - ----------------
#NOTES:
     dance-single:
     :
     Hard:
     16:
     0.517512,0.765114,0.386106,0.244155,0.126336,1276.000000,1140.000000,136.000000,86.000000,0.000000,0.000000,0.517512,0.765114,0.386106,0.244155,0.126336,1276.000000,1140.000000,136.000000,86.000000,0.000000,0.000000:
0000
0000
0000
0000
,
0000
0000
0000
0000
,
0000
0000
0000
0000
,
0000
0000
0000
0000
,
0000
0000
0000
0000
,
0000
0000
0000
0000
,
0000
0000
0000
0000
,
0000
0000
0000
0000
,
0000
0000
0000
0000
,
1001
0000
1000
0100
1000
0001
0000
0001
,
0100
0000
0010
1000
0000
1000
0001
0100
,
0010
1000
0100
0000
1000
0100
0000
0010
,
0001
0000
0100
0010
0000
0010
1000
0001
,
0100
0010
1000
0000
0010
1000
0000
1000
,
0010
0000
0100
0001
1000
0010
0100
0001
,
1000
0100
0010
0000
0001
1000
0000
0010
,
0100
0000
0110
0110
0000
0000
0000
0000
,
0020
0000
2030
0000
0000
0100
0000
0000
,
0001
0001
0000
0010
0000
0100
3100
0000
,
1100
0000
0102
0000
0000
1003
0000
0010
,
0001
0100
0010
0000
0110
0000
1010
0000
,
0101
0000
1000
0100
0010
0001
0000
0010
,
0000
0010
1000
0001
0000
1001
0000
1001
,
1000
0000
0100
0000
0020
0000
0000
0000
0000
0000
0130
0000
0001
0000
0010
0001
,
0100
0000
0010
0000
0000
0000
0010
0000
1000
0000
0001
0000
0100
0000
0010
1000
,
0020
0000
0032
0000
0000
0100
0000
0010
,
0010
0010
0000
1000
0000
0100
0103
0000
,
0101
0000
2100
0000
0000
3010
0000
0010
,
1000
0001
0000
1001
0000
0000
1100
0000
,
0011
0000
0001
0100
0010
1000
0000
1100
,
0000
0100
1000
0100
0000
0110
0000
0011
,
0001
0100
0010
0000
0000
1010
0000
0000
,
0101
1010
0000
1010
0101
0000
1001
0000
,
1001
0000
0200
0000
0320
0000
1030
0002
,
0100
0100
0000
1000
0000
0010
0000
0103
,
0000
0010
0001
0100
0020
0000
0230
0000
,
2300
0100
0000
0010
0000
0100
0000
0001
,
0000
3100
1100
0000
1001
0000
0110
0100
,
0010
1000
0000
1100
0000
0110
0000
0011
,
0000
0000
0002
0000
0000
1003
0010
1000
,
0010
1000
0000
0000
0010
0100
0000
0110
,
0000
1001
0002
0000
2003
0000
3100
2000
,
0010
0010
0000
0001
0000
0010
0000
3100
,
0000
0000
1000
0000
0100
0000
0010
0000
0001
0000
0000
0000
0101
0000
0000
0100
,
0002
0100
0000
1000
0000
0100
0000
0010
,
0000
0000
1003
0000
1001
0000
0000
0000
0110
0000
0000
0000
1001
0000
1000
0001
,
2000
0001
0000
0010
0000
0100
0000
3001
,
0000
0000
0200
0000
0000
0310
0100
0010
,
0100
0010
0000
0110
0110
0010
0001
1000
,
0100
0010
0001
0010
1000
0001
0000
1000
,
0100
0000
0010
1000
0000
0010
0001
0100
,
0010
1000
0001
0000
1000
0100
0000
0010
,
0001
0000
0100
0010
1000
0001
0010
1000
,
0100
0010
0001
0000
1000
0001
0000
0100
,
0010
0000
0001
0010
1000
0100
0010
0001
,
1000
0010
0100
0000
0010
1000
0000
0100
,
1000
0000
0100
1000
0010
0100
0001
0010
,
1000
0100
0010
0000
0001
1000
0000
0100
,
0010
0000
1000
0010
0100
0001
0010
0001
,
0100
0010
1000
0000
0100
1000
0000
0010
,
0100
0000
0010
0001
0100
0010
1000
0100
,
0001
1000
0010
0000
0100
0010
0000
1000
,
0001
0000
0010
0001
0100
0010
1000
0100
,
0001
1000
0010
0000
0100
0010
0000
1000
,
0010
0000
1001
1001
0000
0000
0000
0000
,
0002
0000
0203
0000
0000
0001
0000
0000
,
0010
0010
0000
1000
0000
0010
0310
0000
,
0110
0000
1020
0000
0130
0001
1000
0001
,
0100
0000
0010
0000
0001
0000
0000
0000
0101
0000
0000
0000
1010
0000
1000
0100
,
1000
1100
1000
0010
0100
0001
0000
0100
,
0020
1000
1000
1000
0000
0100
0000
0031
,
0011
0010
0100
0000
0000
1100
0000
1001
,
1001
0000
0000
0000
0000
0000
0000
0000
0110
0000
0000
0000
0110
0000
0010
0100
,
2000
0000
3020
0000
0000
1000
0000
0100
,
0100
0100
0000
0001
0000
0100
0130
0000
,
0110
0000
0201
0000
1300
0100
0010
0001
,
1000
0001
0000
1001
0000
0000
0110
0000
,
0110
0010
1000
0010
0000
0101
0000
1100
,
0100
1000
0200
0010
0000
0001
0000
1300
,
0010
0100
0001
0000
0000
1010
0000
0110
,
1100
0101
0000
0110
1001
0000
0011
0000
,
1100
0000
2000
0000
3002
0000
0013
0020
,
1000
1000
0000
0100
0000
0001
0000
0130
,
0000
0010
1000
0100
2000
0000
3002
0000
,
0203
0001
0000
1000
0000
0010
0000
0001
,
0000
0310
2000
0000
3002
0000
0103
0010
,
1000
0100
0000
1100
0000
1010
0000
0101
,
0000
0000
2000
0000
0000
3001
1000
0001
,
1000
0001
0000
0000
0101
0101
0000
1010
,
0000
1100
0002
0000
2003
0000
3100
0200
,
1000
1000
0000
0001
0000
0010
0000
0310
,
0000
0010
1000
0100
0002
0000
2003
0000
,
3020
1000
0000
0001
0000
0100
0000
1000
,
0000
0130
0002
0000
2003
0000
3100
1000
,
0200
0010
0000
0001
0000
0010
0000
1300
,
0000
0100
1000
0100
1000
0100
0010
0001
,
0010
0001
0000
0010
0010
0100
0001
1000
,
0100
0010
0001
0010
1000
0100
0000
0000
,
1100
0000
1000
0010
0000
0010
0100
0001
,
0010
0001
0100
0000
0010
1000
0000
0000
,
1010
0000
1000
0100
0000
0000
0000
0010
,
0100
0001
0010
0000
0001
0100
0000
0000
,
1100
0000
1000
0010
0000
0010
1000
0100
,
0001
1000
0100
0000
0010
1000
0000
0000
,
1100
0000
1000
0010
0000
0010
0100
0001
,
1000
0100
0002
0000
0010
0000
0010
0000
,
0100
0000
0100
0000
1000
0000
1003
0001
,
0010
1000
0020
0000
0001
0000
0001
0000
,
0100
0000
0100
0000
1000
0000
1030
0010
,
0001
0010
0200
0000
1000
0000
1000
0000
,
0010
0000
0010
0000
0001
0000
0301
0010
,
0100
0010
2000
0000
0010
0000
0010
0000
,
0100
0100
0001
3001
,
1001
0000
0010
0001
0010
0001
0010
0001
,
0010
0001
1000
0010
1000
0010
1000
0010
,
1000
0010
0100
1000
0100
1000
0100
1000
,
0100
1000
0001
0100
0001
0100
0001
0100
,
0001
0100
0010
0001
0010
0001
0010
0001
,
0010
0001
1000
0010
1000
0010
1000
0010
,
1000
0010
0100
1000
0100
1000
0100
1000
,
0100
1000
0001
0100
0001
0100
0001
0100
,
0001
0100
0001
0010
1000
0010
0001
0010
,
1000
0010
0010
1000
0010
0001
0010
1000
,
0010
0001
0001
0100
1000
0100
0001
0100
,
1000
0100
0100
1000
0100
0001
0100
1000
,
0100
0100
1000
0010
1000
0100
1000
0010
,
1000
0100
0100
0001
0010
1000
0100
0001
,
0010
0010
0001
0100
1000
0010
0001
0100
,
0010
0000
0011
0011
0000
0000
0000
0000
,
1000
0100
1000
0000
0020
0000
0000
0000
1030
0000
0001
0000
0000
0000
0100
1000
,
0200
0010
0000
0001
0000
1000
1300
0000
,
1001
0000
0000
0000
0020
0000
0000
0000
0130
0000
1000
0000
0100
0000
0010
1000
,
0010
0002
0000
0103
0101
0000
1100
0000
,
1010
1010
1000
0100
0001
1000
0001
0020
,
0000
0000
0031
0100
0001
0000
0010
1000
0010
0000
0001
0100
0001
0100
0010
1000
,
0010
0000
1000
0000
0100
1000
0100
1000
0100
0000
1000
0001
1000
0001
1000
0000
,
0001
0000
2000
0000
0000
0000
0010
0000
0000
0000
0100
0000
0000
0000
3001
1000
,
0100
0010
0002
0000
0103
0002
0000
1003
,
0001
0010
0000
1010
0000
1000
0100
0000
,
1100
0000
1020
0000
0000
0130
0000
0010
,
0001
0000
1000
0000
0000
0000
1100
0000
0000
0000
0010
1000
0010
0000
0001
0100
,
0001
0100
0001
0100
1000
0010
0001
0100
,
1000
0020
2030
3200
0302
0023
0032
0203
,
1300
0100
0010
0000
0011
0101
0000
1100
,
1010
1100
0000
1100
1001
0000
0011
0000
,
0110
0000
0000
0000
0200
0000
0000
0000
2300
0000
0000
0000
3010
0000
1000
0010
,
2000
0100
0000
0010
0000
0001
0000
3010
,
0000
0000
0001
0100
0001
0000
0010
0000
0100
0000
0000
0000
1100
0000
0000
1000
,
0020
0001
0000
0100
0000
1000
0000
0130
,
0000
0000
0110
0000
0101
0000
0000
0000
1010
0000
0000
0000
1100
0000
1000
0001
,
0100
0020
0000
1000
0000
0001
0000
0130
,
0000
0000
0000
0000
0010
0100
0010
0100
0010
0000
0100
0010
0100
0010
0100
0010
,
0100
0010
0100
0010
0100
0000
0000
0000
0110
0000
0011
0000
0000
0000
1001
0000
,
0000
0000
1100
0000
1020
0000
0000
0000
0130
0000
0000
0100
0010
0000
0001
0010
,
0001
0200
0000
0302
0000
2003
0000
3200
,
0300
0000
1000
0100
1000
0000
0100
0000
0010
0000
0000
0000
0011
0000
0001
1000
,
0001
0100
0000
0010
0000
1000
0000
0001
,
0000
0000
0101
0000
1010
0000
0000
0000
1100
0000
0000
0000
1001
0000
0001
0010
,
1000
0000
0100
1000
0010
0000
0100
0001
0010
0000
0001
0010
0100
0000
0010
0100
,
1000
0000
0000
0000
0100
1000
0100
1000
0100
0000
0001
0100
0001
0100
0001
0100
,
0001
0100
0001
0100
0001
0000
0001
0000
0001
0000
0010
0000
0010
0000
0100
0000
,
0100
0000
1000
0000
1100
0000
0000
0000
1010
0000
0000
0000
0101
0000
1000
0100
,
0010
0000
0001
0100
0010
0000
1000
0010
0100
0000
0001
0100
0010
0000
1000
0100
,
0010
0000
0001
0000
1001
0000
1010
0000
1100
0000
0000
0000
0101
0000
1000
0001
,
0100
0010
0000
0011
0000
0101
0000
1100
,
0000
0000
1010
0000
0101
0000
0000
0000
1100
0000
0000
0000
1001
0000
0001
1000
,
0100
0000
0010
0001
0100
0000
0010
1000
0100
0000
0001
1000
0100
0000
1000
0010
,
0100
0000
0001
0010
0001
0010
0001
0010
0001
0000
0100
1000
0100
1000
0100
1000
,
0100
1000
0100
1000
0100
0000
0000
0000
1100
0000
1010
0000
0000
0000
0101
0000
,
0000
0000
1100
0000
1020
0000
0000
0000
0130
0000
0000
0000
0101
0000
0001
1000
,
0100
0000
0010
0001
0100
0000
0010
1000
0100
0000
0001
0010
0100
0000
1000
0100
,
0010
0000
0001
0000
2000
0000
0001
0000
3200
0000
0000
0000
0301
0000
0100
0010
,
1000
0000
0100
0000
0010
0000
0001
0010
0000
0010
0100
0000
0000
1000
0100
0010
,
0001
0000
0101
0000
0200
0000
0000
0000
0310
0000
0000
0000
0110
0000
0010
0001
,
1000
0000
0100
1000
0010
0000
0001
0100
0010
0000
0100
0010
1000
0000
0100
0010
,
1000
0000
0100
1000
0100
1000
0100
1000
0100
0000
0010
1000
0010
1000
0010
1000
,
0010
1000
0010
0000
0100
0000
0001
0000
1000
0000
0100
0000
0010
0000
0001
0000
,
1000
0010
0002
0000
0010
0000
0010
0000
,
0010
0000
0010
0000
0013
0000
0010
0001
,
0010
1000
0020
0000
0100
0000
0100
0000
,
0100
0000
0100
0000
0130
0000
0100
0001
,
0100
1000
0200
0000
1000
0000
1000
0000
,
1000
0000
1000
0000
1300
0000
1000
0100
,
0001
0100
2000
0000
0001
0000
0001
0000
,
0001
0000
0001
0000
3001
0000
0001
0010
,
1000
0001
0100
0001
1000
0100
0000
0000
,
0001
1000
0010
1000
0000
0000
1000
0100
,
0010
0001
1000
0010
0100
0001
0000
0000
,
1000
0100
0010
0001
0000
0000
0001
0100
,
0010
1000
0001
0010
1000
0010
0000
0000
,
0001
0010
1000
0100
0000
0000
1000
0010
,
0100
0002
2000
0000
0000
0000
0000
0000
,
0000
0000
3003
0000
;

//---------------dance-single - ----------------
#NOTES:
     dance-single:
     :
     Medium:
     12:
     0.360555,0.491859,0.363394,0.403140,0.001420,889.000000,761.000000,128.000000,142.000000,0.000000,0.000000,0.360555,0.491859,0.363394,0.403140,0.001420,889.000000,761.000000,128.000000,142.000000,0.000000,0.000000:
0000
0000
0000
0000
,
0000
0000
0000
0000
,
0000
0000
0000
0000
,
0000
0000
0000
0000
,
0000
0000
0000
0000
,
0000
0000
0000
0000
,
0000
0000
0000
0000
,
0000
0000
0000
0000
,
0000
0000
0000
0000
,
1001
0002
0100
0000
,
0103
2000
0100
0000
,
3100
0002
0010
0000
,
0013
2000
0010
0000
,
3010
0020
1000
0000
,
1030
0200
0001
0000
,
0301
0020
0001
0000
,
0031
0000
0000
0000
,
1001
0000
0002
0000
0000
0203
0000
0000
,
0310
2000
0000
3002
0000
1003
0001
0000
,
0020
0000
0230
0000
0000
0301
0000
0001
,
1000
0001
0000
0000
0000
0000
1001
0000
,
1001
0000
0001
0010
0100
2000
0000
0100
,
0000
3100
1000
0100
0000
1000
0000
0001
,
0100
0001
0200
0000
0000
0302
0000
0000
,
1003
0001
0000
0000
0000
0000
0000
0001
,
1000
0000
0020
0000
0000
1030
0000
1000
,
0001
2000
0000
3002
0000
1003
0001
0000
,
1001
0000
0020
0000
0130
0001
0000
0001
,
0100
0002
0000
1003
0000
0000
1001
0000
,
1001
0000
1000
0100
0010
0002
0000
0010
,
0000
0013
0001
0010
0000
0100
0000
1000
,
0001
0100
0010
0000
0010
0100
0000
0100
,
0001
1000
0000
0000
1001
0000
1001
0000
,
1001
0000
0200
0000
0320
0000
0130
0001
,
1000
0020
0000
0230
0000
0320
0000
0130
,
0100
0001
1000
0200
0010
0300
0000
0000
,
0010
0200
0000
0320
0000
0230
0000
0320
,
0000
0130
0002
0000
2003
0000
3001
1000
,
0010
2000
0000
3002
0000
2003
0000
3002
,
0000
0003
2000
0000
0000
0002
0000
0000
,
0000
0000
3003
0000
0001
0001
0000
0100
,
0000
0001
0020
0000
0230
0000
1300
1000
,
0100
0002
0000
2003
0000
3002
0000
2003
,
0000
3010
0001
1000
0001
0000
0101
0000
,
0001
0020
0000
0032
0000
0023
0000
0032
,
0000
0103
0020
0000
1030
0000
1000
0100
,
1000
0020
0000
2030
0000
3020
0000
2030
,
0000
3000
0200
0000
0000
0020
0000
0000
,
0000
0000
0330
0010
0010
0100
0100
0001
,
1000
0001
0200
0000
0001
0000
0000
0000
,
0301
2000
0100
0000
,
3100
0020
1000
0000
,
1030
0002
0010
0000
,
0013
0200
1000
0000
,
1300
2000
0100
0000
,
3100
0200
0001
0000
,
0301
0002
0010
0000
,
0013
0020
1000
0000
,
1030
2000
0100
0000
,
3100
0200
0001
0000
,
0301
0002
0010
0000
,
0013
0002
0100
0000
,
0103
0200
1000
0000
,
1300
2000
0010
0000
,
3010
0020
0000
0030
,
0110
0000
0002
0000
0000
0100
0000
0000
,
0103
0001
0000
0001
0000
0001
1000
0000
,
1100
0000
0200
0000
0000
1000
1300
0001
,
1000
0020
0000
0000
0000
0030
0110
0000
,
0110
0000
0001
0010
1000
0200
0000
1300
,
0000
0001
0100
0010
0000
0100
0000
0010
,
1000
0100
0020
0000
0000
0001
0000
0031
,
0100
0010
0000
0000
1010
0000
0000
0000
,
0101
0000
2000
0000
0000
0001
0000
3001
,
1000
0100
0000
0020
0000
0130
1000
0000
,
1100
0000
2000
0000
0000
3001
0100
0001
,
0010
0001
0000
0011
0000
0000
0110
0000
,
1100
0000
1000
0010
0100
0020
0000
0031
,
0000
0001
0010
0100
0000
2000
0000
3100
,
0010
0001
0100
0000
0010
0100
0000
0100
,
0001
1000
0000
0000
0110
0000
1001
0000
,
0110
0000
2100
0000
3020
0000
0130
0001
,
1000
1010
0000
1001
0000
1100
0000
1001
,
0000
0001
0100
0010
2000
0000
3001
0000
,
0001
0101
0000
0110
0000
1001
0000
0110
,
0000
1001
0210
0000
0302
0000
1003
0001
,
0010
0100
0000
1100
0000
1010
0000
0101
,
0000
0000
0002
0000
0000
2000
0000
0000
,
0000
0000
3003
0000
0100
0010
0000
1001
,
0000
0110
0201
0000
2300
0000
3010
1000
,
0001
0010
0000
0011
0000
0101
0000
1001
,
0000
0001
0100
0001
0100
0000
0110
0000
,
0010
1010
0000
1001
0000
1100
0000
0110
,
0000
0011
1002
0000
0023
0000
0130
1000
,
0010
0100
0000
0101
0000
1010
0000
1100
,
0000
0010
0200
0000
0000
0310
0010
0100
,
0100
0010
0000
0010
0010
0100
0100
0001
,
1000
0100
0020
0000
0000
0000
0000
0000
,
0000
0030
0000
0000
,
0000
0002
0000
0000
,
0000
0003
0000
0000
,
0000
0200
0000
0000
,
0000
0300
0000
0000
,
0000
2000
0000
0000
,
0000
3000
0000
0000
,
0000
2000
0100
0100
,
3100
0200
0010
0010
,
0310
0020
0001
0001
,
0031
0002
1000
1000
,
1003
0002
0010
0010
,
0013
0020
0100
0100
,
0130
0200
1000
1000
,
1300
2000
0001
0001
,
3001
0000
0001
0100
0001
0010
0001
0100
,
0001
0010
1000
0100
1000
0010
1000
0100
,
1000
0010
0100
0001
0100
1000
0100
0001
,
0100
1000
0010
0001
0010
1000
0010
0001
,
0010
1000
0100
0010
0100
0001
0100
0010
,
0100
0001
0010
0100
0010
1000
0010
0100
,
0010
1000
0001
0010
0100
1000
0010
0100
,
0001
0010
0100
1000
0010
0100
0001
0010
,
0100
1000
0010
0001
0010
1000
0010
0001
,
0010
1000
0100
0001
0100
1000
0100
0001
,
0100
1000
0001
0010
0100
0010
0001
0010
,
0100
0010
1000
0100
0010
0100
1000
0100
,
0010
0100
0001
0100
1000
0010
0001
0100
,
1000
0010
0001
0010
1000
0100
0001
0010
,
1000
0100
1000
0010
0001
0100
1000
0010
,
0001
0000
0001
1000
0000
0000
0000
0000
,
1001
0000
1100
0000
0000
0010
0000
0000
,
1000
0100
0000
0101
0000
0100
0010
0000
,
1001
0000
0001
0000
0100
0001
0000
0001
,
1000
0001
0000
0000
0000
0000
1001
0000
,
1001
0000
0001
0010
0100
1000
0000
1010
,
0000
0010
1000
0001
0000
1001
0000
1001
,
0001
0100
0010
0000
0000
1010
0000
0000
,
0101
0000
0000
0000
0000
0000
0000
0100
,
0010
0100
0001
0000
0000
0100
0000
0001
,
1000
0001
0000
1001
0000
0001
1000
0000
,
1100
0000
1000
0010
0100
0010
0001
0100
,
0010
0100
0000
1100
0000
0000
0001
0020
,
0031
0200
0310
1000
0001
0010
0000
1010
,
0000
1000
0100
1000
0000
1010
0000
0110
,
0100
0001
1000
0000
0000
1001
0000
0001
,
0010
0100
0000
0000
1001
0000
1001
0000
,
1001
0000
0201
0000
0320
0000
1030
0001
,
0010
0100
0000
1100
0000
1010
0000
1100
,
0000
1000
0010
0100
0001
0000
0101
0000
,
0001
1000
0000
1001
0000
1100
0000
1010
,
0000
1000
1020
0000
0230
0000
0301
1000
,
0010
0100
0000
0101
0000
1001
0000
1010
,
0000
0000
0200
0000
0000
0002
0000
0000
,
0000
0000
0303
0000
1000
0100
0000
1100
,
0000
1100
2001
0000
3020
0000
0130
0001
,
1000
0001
0000
0101
0000
1010
0000
0101
,
0000
1000
0001
0010
0100
0000
1100
1000
,
0010
0100
0000
0101
0000
1010
0000
1100
,
0000
0011
0120
0000
2030
0000
3001
0100
,
0010
1000
0000
1100
0000
1010
0000
1001
,
0000
0000
2000
0000
0000
0200
0000
0000
,
0000
0000
3300
1000
0010
1000
0001
1000
,
0010
1000
1200
0000
0320
0000
0031
0010
,
0100
1000
0000
1001
0000
0101
0000
0011
,
0000
0001
0010
0100
1000
0000
1001
0000
,
1000
1010
0000
0101
0000
0011
0000
1001
,
0000
0101
0210
0000
2300
0000
3001
0010
,
0100
1000
0000
1010
0000
0011
0000
0101
,
0000
0100
0020
0000
0000
0200
0000
0000
,
0000
0000
0330
0000
0100
0010
0000
1001
,
0000
1001
2010
0000
3002
0000
0013
1000
,
0010
0001
0000
0101
0000
1100
0000
1010
,
0000
0010
1000
0100
0010
0000
0011
0010
,
0001
0000
0100
0000
0010
0000
0000
0100
0000
0000
0010
0000
0000
0000
0100
0000
,
0001
0000
0102
0000
0023
0000
1030
0100
,
0001
0100
0000
1100
0000
1010
0000
1001
,
0000
0001
2000
0000
0000
0001
0002
0000
,
0000
0000
3003
0001
0001
1000
1000
0010
,
0100
0001
0200
0000
0000
0000
0000
0000
,
0000
0300
0000
0000
,
0000
2000
0000
0000
,
0000
3000
0000
0000
,
0000
0020
0000
0000
,
0000
0030
0000
0000
,
0000
0002
0000
0000
,
0000
0003
0000
0000
,
0000
0020
0000
0000
,
0000
0030
0000
0000
,
0000
0200
0000
0000
,
0000
0300
0000
0000
,
0000
2000
0000
0000
,
0000
3000
0000
0000
,
0000
2002
0000
0000
,
0000
0000
3003
0000
;

//---------------dance-single - ----------------
#NOTES:
     dance-single:
     :
     Easy:
     6:
     0.190619,0.382557,0.229960,0.249833,0.000000,470.000000,389.000000,81.000000,88.000000,0.000000,0.000000,0.190619,0.382557,0.229960,0.249833,0.000000,470.000000,389.000000,81.000000,88.000000,0.000000,0.000000:
// measure 0
0000
0000
0000
0000
,  // measure 1
0000
0000
0000
0000
,  // measure 2
0000
0000
0000
0000
,  // measure 3
0000
0000
0000
0000
,  // measure 4
0000
0000
0000
0000
,  // measure 5
0000
0000
0000
0000
,  // measure 6
0000
0000
0000
0000
,  // measure 7
0000
0000
0000
0000
,  // measure 8
0000
0000
0000
0000
,  // measure 9
0001
0000
0001
0000
,  // measure 10
1000
0000
1000
0000
,  // measure 11
0001
0000
0001
0000
,  // measure 12
1000
0000
1000
0000
,  // measure 13
0010
0000
0010
0000
,  // measure 14
0100
0000
0100
0000
,  // measure 15
0010
0000
0010
0000
,  // measure 16
0100
0000
0000
0000
,  // measure 17
1000
0000
1000
0000
,  // measure 18
0001
0000
0001
0000
,  // measure 19
0100
0000
0100
0000
,  // measure 20
0010
0000
0000
0010
,  // measure 21
0100
0020
0000
0000
,  // measure 22
0000
0030
0000
0000
,  // measure 23
0001
0000
0001
0000
,  // measure 24
1000
0000
0000
0000
,  // measure 25
1001
0000
1000
0000
,  // measure 26
1001
0000
0001
0000
,  // measure 27
1001
0000
1000
0000
,  // measure 28
1001
0000
0001
0000
,  // measure 29
0010
0000
0100
0000
,  // measure 30
0000
0200
0000
0300
,  // measure 31
0100
0000
0100
0000
,  // measure 32
0100
0000
0100
0100
,  // measure 33
0100
0000
0020
0030
0020
0030
0000
0000
,  // measure 34
0100
0001
0100
0001
,  // measure 35
0000
0000
2000
3000
2000
3000
0000
0000
,  // measure 36
1000
0100
1000
0100
,  // measure 37
0000
0000
0200
0300
0200
0300
0000
0000
,  // measure 38
0100
0010
0100
0010
,  // measure 39
0000
0020
0030
0200
,  // measure 40
0000
0300
0000
0110
,  // measure 41
0000
0000
0002
0003
0002
0003
0000
0000
,  // measure 42
0001
0010
0001
0010
,  // measure 43
0000
0000
0020
0030
0020
0030
0000
0000
,  // measure 44
0010
0100
0010
0100
,  // measure 45
0000
0000
0200
0300
0200
0300
0000
0000
,  // measure 46
0100
1000
0100
1000
,  // measure 47
0000
2000
3000
0002
,  // measure 48
0000
0003
0001
0000
,  // measure 49
0001
0002
0000
0000
,  // measure 50
0000
0003
0000
0000
,  // measure 51
0000
0200
0000
0000
,  // measure 52
0000
0300
0000
0000
,  // measure 53
0000
0020
0000
0000
,  // measure 54
0000
0030
0000
0000
,  // measure 55
0000
2000
0000
0000
,  // measure 56
0000
3000
0000
0000
,  // measure 57
0000
0200
0000
0000
,  // measure 58
0000
0300
0000
0000
,  // measure 59
0000
0020
0000
0000
,  // measure 60
0000
0030
0000
0000
,  // measure 61
0000
0002
0000
0000
,  // measure 62
0000
0003
0000
0000
,  // measure 63
0000
2000
0000
0000
,  // measure 64
0000
3000
0000
0000
,  // measure 65
0110
0000
0100
0000
,  // measure 66
0110
0000
0010
0000
,  // measure 67
0110
0000
0100
0000
,  // measure 68
0220
0000
0330
0000
,  // measure 69
0001
0000
0100
0000
,  // measure 70
2000
0000
0000
0000
,  // measure 71
3000
1000
0000
0200
,  // measure 72
0000
0300
0000
0000
,  // measure 73
0001
0000
1000
0000
,  // measure 74
0010
0000
0100
0000
,  // measure 75
0001
0000
0010
0000
,  // measure 76
0100
0000
1000
0000
,  // measure 77
0010
0000
0100
0000
,  // measure 78
0002
0000
0000
0000
,  // measure 79
0003
0001
0000
0100
,  // measure 80
0000
0000
0110
0000
,  // measure 81
0110
0000
0020
0030
0020
0030
0000
0000
,  // measure 82
0001
1001
1000
1001
,  // measure 83
0000
0000
0200
0300
0200
0300
0000
0000
,  // measure 84
0010
1010
1000
1010
,  // measure 85
0000
0000
2000
3000
2000
3000
0000
0000
,  // measure 86
1000
1001
0001
1001
,  // measure 87
0000
2000
3000
0020
,  // measure 88
0000
0030
0100
0110
,  // measure 89
0010
0000
0020
0030
0020
0030
0000
0000
,  // measure 90
0001
1001
1000
1001
,  // measure 91
0000
0000
0200
0300
0200
0300
0000
0000
,  // measure 92
0100
1100
1000
1100
,  // measure 93
0000
0000
2000
3000
2000
3000
0000
0000
,  // measure 94
0001
1001
1000
1001
,  // measure 95
0000
0020
0030
0200
,  // measure 96
0000
0300
0010
0110
,  // measure 97
0010
0100
0000
0000
,  // measure 98
0000
0101
0000
0000
,  // measure 99
0000
1000
0000
0000
,  // measure 100
0000
1001
0000
0000
,  // measure 101
0000
0001
0000
0000
,  // measure 102
0000
0011
0000
0000
,  // measure 103
0000
0010
0000
0000
,  // measure 104
0000
0110
0000
0000
,  // measure 105
0000
1000
0100
0010
,  // measure 106
0001
0010
0100
1000
,  // measure 107
0100
0010
0001
0010
,  // measure 108
0100
1000
0100
0010
,  // measure 109
0001
0010
0100
1000
,  // measure 110
0100
0010
0001
0010
,  // measure 111
0100
1000
0100
0010
,  // measure 112
0001
0010
0100
1000
,  // measure 113
1100
1000
1001
0001
,  // measure 114
1001
1000
1010
0010
,  // measure 115
1010
1000
1001
0001
,  // measure 116
0101
0001
0101
0100
,  // measure 117
0101
0001
0011
0010
,  // measure 118
0110
0100
1100
1000
,  // measure 119
1100
1000
1010
0010
,  // measure 120
0110
0100
0101
0001
,  // measure 121
0101
0001
0010
0100
,  // measure 122
1000
0001
0010
0100
,  // measure 123
1000
1000
0100
0010
,  // measure 124
0001
1000
0100
0010
,  // measure 125
0001
0001
0010
1000
,  // measure 126
0100
0001
0010
1000
,  // measure 127
0100
0100
1000
0010
,  // measure 128
0001
0000
0000
0000
,  // measure 129
1001
0000
1000
0000
,  // measure 130
1001
0000
0001
0000
,  // measure 131
1001
0000
1000
0000
,  // measure 132
1001
0000
0010
0000
,  // measure 133
0100
0000
0001
0000
,  // measure 134
2000
0000
0000
0000
,  // measure 135
3000
0010
0000
0100
,  // measure 136
0000
0001
0000
0000
,  // measure 137
1001
0000
0001
0000
,  // measure 138
1001
0000
1000
0000
,  // measure 139
1001
0000
0001
0000
,  // measure 140
1001
0000
1000
0000
,  // measure 141
1001
0000
0001
0000
,  // measure 142
0020
0000
0000
0000
,  // measure 143
0030
0100
0000
0001
,  // measure 144
0000
0000
1001
0000
,  // measure 145
1001
0000
0020
0030
0020
0030
0000
0000
,  // measure 146
0100
0001
0100
0101
,  // measure 147
0000
0000
0200
0300
0200
0300
0000
0000
,  // measure 148
1000
0100
1000
1100
,  // measure 149
0000
0000
2000
3000
2000
3000
0000
0000
,  // measure 150
0001
1000
0001
1001
,  // measure 151
0000
0020
0030
0200
,  // measure 152
0000
0300
0000
0110
,  // measure 153
0000
0000
0002
0003
0002
0003
0000
0000
,  // measure 154
0010
0001
0010
0011
,  // measure 155
0000
0000
0200
0300
0200
0300
0000
0000
,  // measure 156
1000
0100
1000
1100
,  // measure 157
0000
0000
2000
3000
2000
3000
0000
0000
,  // measure 158
1000
0001
1000
1001
,  // measure 159
0000
0200
0300
2000
,  // measure 160
3000
0001
0010
0100
,  // measure 161
1000
0000
0020
0030
0020
0030
0000
0000
,  // measure 162
0100
0001
0100
0101
,  // measure 163
0000
0000
2000
3000
2000
3000
0000
0000
,  // measure 164
1000
0100
1000
1100
,  // measure 165
0000
0000
0200
0300
0200
0300
0000
0000
,  // measure 166
0100
0010
0100
0110
,  // measure 167
0000
0020
0030
0002
,  // measure 168
0000
0003
0000
1001
,  // measure 169
0000
0011
0011
0000
,  // measure 170
0000
0001
0100
0001
,  // measure 171
0000
0101
0101
0000
,  // measure 172
0000
0100
0010
0100
,  // measure 173
0000
1100
1100
0000
,  // measure 174
0000
1000
0100
0010
,  // measure 175
0000
0110
0000
2002
,  // measure 176
0000
0000
0000
3003
,  // measure 177
0000
0202
0000
0000
,  // measure 178
0000
0303
0000
0000
,  // measure 179
0000
0022
0000
0000
,  // measure 180
0000
0033
0000
0000
,  // measure 181
0000
2020
0000
0000
,  // measure 182
0000
3030
0000
0000
,  // measure 183
0000
2200
0000
0000
,  // measure 184
0000
3300
0000
0000
,  // measure 185
0000
2000
0000
0000
,  // measure 186
0000
3000
0000
0000
,  // measure 187
0000
0020
0000
0000
,  // measure 188
0000
0030
0000
0000
,  // measure 189
0000
0002
0000
0000
,  // measure 190
0000
0003
0000
0000
,  // measure 191
0000
0220
0000
0000
,  // measure 192
0000
0000
0330
0000
;
