#VERSION:0.83;
#TITLE:Boys (2008 X-edit);
#SUBTITLE:;
#ARTIST:SMiLE.dk;
#TITLETRANSLIT:;
#SUBTITLETRANSLIT:;
#ARTISTTRANSLIT:;
#GENRE:;
#ORIGIN:;
#CREDIT:;
#BANNER:Boys (2008 X-edit).png;
#BACKGROUND:Boys (2008 X-edit)-bg.png;
#PREVIEWVID:;
#JACKET:Boys (2008 X-edit)-jacket.png;
#CDIMAGE:;
#DISCIMAGE:;
#LYRICSPATH:;
#CDTITLE:;
#MUSIC:Boys (2008 X-edit).ogg;
#OFFSET:0.000000;
#SAMPLESTART:57.380001;
#SAMPLELENGTH:15.000000;
#SELECTABLE:YES;
#DISPLAYBPM:138.000000;
#BPMS:0.000=138.462,
4.000=137.994;
#STOPS:;
#DELAYS:;
#WARPS:;
#TIMESIGNATURES:0.000=4=4;
#TICKCOUNTS:0.000=4;
#COMBOS:0.000=1;
#SPEEDS:0.000=1.000=0.000=0;
#SCROLLS:0.000=1.000;
#FAKES:;
#LABELS:0.000=Song Start;
#BGCHANGES:;
#KEYSOUNDS:;
#ATTACKS:
;

//---------------dance-single - ----------------
#NOTEDATA:;
#CHARTNAME:;
#STEPSTYPE:dance-single;
#DESCRIPTION:;
#CHARTSTYLE:;
#DIFFICULTY:Beginner;
#METER:1;
#RADARVALUES:0.092356,0.137500,0.000000,0.000000,0.000000,67.000000,67.000000,0.000000,0.000000,0.000000,0.000000,0.000000,0.000000,0.000000,0.092356,0.137500,0.000000,0.000000,0.000000,67.000000,67.000000,0.000000,0.000000,0.000000,0.000000,0.000000,0.000000,0.000000;
#CREDIT:;
#DISPLAYBPM:138.000000;
#NOTES:
0000
0000
0000
0000
,
0000
0000
0000
0000
,
0000
0000
0000
0000
,
0000
0000
0000
0000
,
0000
0000
0000
0000
,
1000
0000
0000
0000
,
1000
0000
0000
0000
,
0001
0000
0000
0000
,
0001
0000
0000
0000
,
1000
0000
0001
0000
,
1000
0000
0000
0000
,
0001
0000
1000
0000
,
0001
0000
0000
0000
,
1000
0000
0001
0000
,
1000
0000
0000
0000
,
0001
0000
0000
0000
,
1000
0000
1000
0000
,
0000
0000
0000
0010
,
0000
0000
0000
0010
,
0000
0000
0000
0010
,
0000
0000
0000
0000
,
0000
0000
0000
0001
,
0000
0000
0000
1000
,
0000
0000
0000
0100
,
0000
0000
0000
1000
,
0000
0000
0000
0010
,
0000
0000
0000
0001
,
0000
0000
0000
0100
,
0000
0000
0000
1000
,
0000
0000
0001
0001
,
0000
0000
1000
1000
,
0000
0000
0010
0010
,
0000
0000
0010
0010
,
0000
0000
0000
1000
,
0000
0001
0000
0001
,
0000
0000
0000
0010
,
0000
1000
0000
1000
,
0000
0000
0000
0100
,
0000
0001
0000
0001
,
0001
0000
0000
0000
,
1000
0000
1000
0000
,
1000
0000
0000
0000
,
0000
0000
0000
0000
,
0001
0000
0000
0000
,
0000
0000
0000
0000
,
0100
0000
0000
0000
,
0000
0000
0000
0000
,
0010
0000
0000
0000
,
0000
0000
0000
0000
,
0000
0001
0000
0001
,
0000
0000
0010
0010
,
0000
1000
0000
1000
,
0000
0000
0010
0010
,
0000
0001
0000
0001
,
0000
0000
0100
0100
,
0100
0000
0000
0000
,
1000
0000
0001
0000
,
1000
0000
0000
0000
,
0000
0000
0000
0000
;

//---------------dance-single - ----------------
#NOTEDATA:;
#CHARTNAME:;
#STEPSTYPE:dance-single;
#DESCRIPTION:;
#CHARTSTYLE:;
#DIFFICULTY:Challenge;
#METER:5;
#RADARVALUES:0.213660,0.250757,0.115790,0.038597,0.000000,155.000000,143.000000,12.000000,4.000000,68.000000,0.000000,0.000000,0.000000,0.000000,0.213660,0.250757,0.115790,0.038597,0.000000,155.000000,143.000000,12.000000,4.000000,68.000000,0.000000,0.000000,0.000000,0.000000;
#CREDIT:;
#DISPLAYBPM:138.000000;
#NOTES:
0000
0000
0000
0000
,
0000
0000
0000
0000
,
0000
0000
0000
0000
,
0000
0000
0000
0000
,
0000
0000
0000
0000
,
2000
0000
0000
3000
,
0002
0000
0000
0003
,
0010
0000
0010
0000
,
0001
1000
MMMM
0000
,
0010
0001
0010
MMMM
,
1001
0000
0010
0100
,
0010
1000
0010
MMMM
,
1001
0000
0100
0010
,
0100
1000
0100
MMMM
,
1001
0000
0100
0010
,
0100
0001
0100
0000
,
1001
0000
MMMM
0000
,
0000
0000
0010
0000
,
0010
0100
1000
0000
,
0010
0001
0100
1000
,
0001
0000
0100
0000
,
0010
0100
0010
0000
,
0010
1000
0100
0000
,
1000
0100
1000
0010
,
0100
0001
0000
0000
,
1000
0000
0001
0000
,
0010
0100
1000
0000
,
0100
0001
0100
1000
,
0010
0000
MMMM
0000
,
0010
0001
1000
0100
,
0010
0100
1000
0000
,
0010
0100
0010
MMMM
,
0001
0010
0100
MMMM
,
0010
0001
0010
MMMM
,
1001
0000
0010
0100
,
0010
0001
0100
MMMM
,
1001
0000
0010
0100
,
0100
0001
1000
MMMM
,
1001
0000
0100
0010
,
1000
0100
0001
0000
,
0010
0001
1000
MMMM
,
0010
0000
0010
0000
,
1000
0100
1000
0000
,
0010
0000
0010
0000
,
0001
0100
0001
0000
,
1000
0100
0001
0000
,
0001
0100
1000
0000
,
1000
0010
0001
0000
,
0110
0000
MMMM
0000
,
0010
0001
0010
MMMM
,
1001
0000
0010
0100
,
0010
1000
0010
MMMM
,
1001
0000
0100
0010
,
0100
1000
0100
MMMM
,
1001
0000
0100
0010
,
0100
0001
0100
0100
,
0010
0001
0100
MMMM
,
2002
0000
0000
3003
,
0000
0000
0000
0000
;

//---------------dance-single - ----------------
#NOTEDATA:;
#CHARTNAME:;
#STEPSTYPE:dance-single;
#DESCRIPTION:;
#CHARTSTYLE:;
#DIFFICULTY:Easy;
#METER:5;
#RADARVALUES:0.241229,0.306481,0.154387,0.038597,0.000000,175.000000,159.000000,16.000000,4.000000,0.000000,0.000000,0.000000,0.000000,0.000000,0.241229,0.306481,0.154387,0.038597,0.000000,175.000000,159.000000,16.000000,4.000000,0.000000,0.000000,0.000000,0.000000,0.000000;
#CREDIT:;
#DISPLAYBPM:138.000000;
#NOTES:
0000
0000
0000
0000
,
0000
0000
0000
0000
,
0000
0000
0000
0000
,
0000
0000
0000
0000
,
0000
0000
0000
0000
,
2000
0000
0000
3000
,
0002
0000
0000
0003
,
0010
0000
0010
0000
,
0001
1000
0100
0000
,
0010
0001
0010
1000
,
1001
0000
0010
0100
,
0010
0001
0010
1000
,
1001
0000
0100
0010
,
0100
1000
0100
0001
,
1001
0000
0100
0010
,
0100
1000
0100
0000
,
1001
0000
0110
0000
,
0000
0000
0010
0000
,
0010
0100
1000
0000
,
0010
0001
0100
1000
,
0001
0000
0100
0000
,
0010
0100
0010
0000
,
0010
1000
0100
0000
,
1000
0100
1000
0010
,
0100
0001
0000
0000
,
1000
0000
0001
0000
,
0010
0100
1000
0000
,
0100
0001
0100
1000
,
0010
0000
0100
0000
,
0010
0001
1000
0100
,
0010
0100
1000
0000
,
0010
0100
0010
0110
,
0001
0010
0100
1001
,
0010
0001
0010
1000
,
1001
0000
0010
0100
,
0010
0001
1000
0100
,
1001
0000
0010
0100
,
0100
0001
0100
1000
,
1001
0000
0100
0010
,
1000
0100
0001
0000
,
0010
0001
1000
1001
,
0010
0000
0010
0000
,
1000
0100
1000
0000
,
0010
0000
0010
0000
,
0001
0100
0001
0000
,
1000
0100
0001
0000
,
0001
0100
1000
0000
,
1000
0010
0001
0000
,
0110
0000
0000
0000
,
0010
0001
0010
1000
,
1001
0000
0010
0100
,
0010
0001
0010
1000
,
1001
0000
0100
0010
,
0100
1000
0100
0001
,
1001
0000
0100
0010
,
0100
1000
0100
0100
,
0010
0001
0100
1000
,
2002
0000
0000
3003
,
0000
0000
0000
0000
;

//---------------dance-single - ----------------
#NOTEDATA:;
#CHARTNAME:;
#STEPSTYPE:dance-single;
#DESCRIPTION:;
#CHARTSTYLE:;
#DIFFICULTY:Medium;
#METER:6;
#RADARVALUES:0.289475,0.334343,0.221931,0.231580,0.004825,210.000000,187.000000,23.000000,24.000000,0.000000,0.000000,0.000000,0.000000,0.000000,0.289475,0.334343,0.221931,0.231580,0.004825,210.000000,187.000000,23.000000,24.000000,0.000000,0.000000,0.000000,0.000000,0.000000;
#CREDIT:;
#DISPLAYBPM:138.000000;
#NOTES:
0000
0000
0000
0000
,
0000
0000
0000
0000
,
0000
0000
0000
0000
,
0000
0000
0000
0000
,
0000
0000
0000
0000
,
2000
0000
0200
3300
,
0002
0000
0200
0303
,
0010
0100
0010
0100
,
0001
0100
1000
0000
,
0010
0001
0011
1000
,
2200
0000
3300
0000
0010
0010
0100
0000
,
0010
0001
0011
1000
,
2200
0000
3300
0000
0100
0100
0010
0000
,
0100
1000
1100
0001
,
0202
0000
0303
0000
0100
0100
0010
0000
,
0100
1000
0100
0000
,
0010
0100
0110
0000
,
0010
0100
0010
0001
,
0010
0100
1000
0000
,
0010
0001
0100
1000
,
1001
0000
0100
1000
,
0010
0100
0010
0100
,
0010
1000
0100
0000
,
1000
0100
1000
0010
,
0002
0100
1003
0000
,
1000
0100
0001
0010
,
0001
0001
1000
0000
,
0100
0001
0100
1000
,
0020
0100
0031
0000
,
0010
0001
1000
0100
,
0010
0000
0000
1000
0000
0000
0100
0000
0000
0000
0000
0000
0000
0000
0000
0000
,
0010
0100
0010
0110
,
0001
0010
0100
1001
,
0010
0001
0011
1000
,
2200
0000
3300
0000
0010
0010
0100
0000
,
0010
0001
1000
0100
,
2002
0000
3003
0000
0010
0010
0100
0000
,
0100
0001
0101
1000
,
2200
0000
3300
0000
0100
0100
0010
0000
,
1000
0100
0001
0000
,
0010
0100
0110
0000
,
0010
1000
0010
1000
,
0100
1000
0100
1000
,
0001
0100
0001
0100
,
0001
0010
0001
0010
,
2000
0010
0000
3010
,
0002
1000
0000
1003
,
0020
0100
0000
0130
,
0200
0000
0000
0300
,
0010
1000
1010
0001
,
0101
0000
0000
0000
0010
0010
0100
0000
,
0010
0001
0011
1000
,
1100
0000
0000
0000
0100
0100
0010
0000
,
0100
1000
1100
0001
,
0101
0000
0000
0000
0100
0100
0010
0000
,
0100
1000
0100
0100
,
0010
1000
0001
0100
,
2002
0000
0000
3003
,
0000
0000
0000
0000
;

//---------------dance-single - ----------------
#NOTEDATA:;
#CHARTNAME:;
#STEPSTYPE:dance-single;
#DESCRIPTION:;
#CHARTSTYLE:;
#DIFFICULTY:Hard;
#METER:10;
#RADARVALUES:0.390102,0.445791,0.434212,0.279826,0.004825,283.000000,238.000000,45.000000,29.000000,0.000000,0.000000,0.000000,0.000000,0.000000,0.390102,0.445791,0.434212,0.279826,0.004825,283.000000,238.000000,45.000000,29.000000,0.000000,0.000000,0.000000,0.000000,0.000000;
#CREDIT:;
#DISPLAYBPM:138.000000;
#NOTES:
0000
0000
0000
0000
,
0000
0000
0000
0000
,
0000
0000
0000
0000
,
0000
0000
0000
0000
,
0000
0000
0000
0000
,
0002
0000
0200
0303
,
2000
0000
0200
3300
,
0010
0100
0010
0100
,
0001
0001
1000
1000
0110
0000
1001
0000
,
0010
0000
1001
0000
0001
0010
1000
0000
,
1001
0000
0010
0000
1000
0010
0001
0000
,
0010
0000
0001
0000
0011
0100
1000
0000
,
2200
0000
3300
0000
0100
0100
0010
1001
,
0100
1000
1100
0001
,
0202
0000
0303
0000
0100
0100
0010
1001
,
0100
1001
0110
0000
,
0010
0000
0100
0000
0010
1001
0100
1000
,
0010
0000
0100
0000
1000
0001
0100
0001
,
0100
0000
1000
0001
1000
0001
1000
0000
,
0100
0000
0010
0000
0100
0001
1000
0100
,
0020
0000
0000
0000
0000
0000
0130
0100
,
0010
0000
0100
0000
1000
0001
0100
0000
,
0010
0000
1000
0001
0100
0000
0000
0000
,
1000
0000
0100
0000
1000
0001
0010
0000
,
0001
1000
0100
1000
0100
0001
0100
0001
,
1000
0000
0100
0000
0001
1000
0010
0000
,
0001
0000
0001
0000
1000
0001
1000
0000
,
0100
0000
0001
0000
0100
0001
1000
0000
,
0010
0000
0100
0000
0001
1000
0100
0000
,
0010
0001
1000
0100
,
0010
0000
0000
1000
0000
0000
0100
0000
0000
0000
0000
0000
0000
0000
0000
0000
,
0010
0100
1001
0110
,
0001
0010
0100
1001
,
0010
0000
1001
0000
0001
0100
1000
0000
,
1001
0000
0010
0000
1000
0100
0001
0000
,
0010
0000
0001
0000
0011
0100
1000
0000
,
2200
0000
3300
0000
0010
0010
0100
1001
,
0100
1000
1100
0001
,
0202
0000
0303
0000
0100
0100
0010
1001
,
0100
1001
0110
0000
,
0010
0000
0100
0000
0010
1001
0100
1000
,
0020
1000
0100
0031
,
2000
0000
3000
0000
0001
0001
0100
0000
,
0020
0001
0100
1030
,
0002
0000
0003
0000
0010
1001
0100
0000
,
2010
3100
0012
0103
,
2001
3010
1002
0013
,
0210
1300
0210
0301
,
2000
0000
0000
3000
,
0010
0000
1000
0000
1100
1000
1001
0000
,
0200
0000
0000
0000
0310
0010
0100
1001
,
0010
0000
0001
0000
0011
0001
1001
0000
,
0200
0000
0300
0000
0100
0100
0010
1001
,
0100
1000
1100
0001
,
0102
0000
0000
0000
0103
0100
0010
1001
,
0100
0000
1000
0000
0001
0100
1000
0100
,
0010
0000
1001
0000
1000
0010
0001
0000
,
2002
0000
0000
3003
,
0000
0000
0000
0000
;

//---------------dance-double - ----------------
#NOTEDATA:;
#CHARTNAME:;
#STEPSTYPE:dance-double;
#DESCRIPTION:;
#CHARTSTYLE:;
#DIFFICULTY:Easy;
#METER:5;
#RADARVALUES:0.253635,0.306481,0.164036,0.019298,0.000000,184.000000,167.000000,17.000000,2.000000,0.000000,0.000000,0.000000,0.000000,0.000000,0.253635,0.306481,0.164036,0.019298,0.000000,184.000000,167.000000,17.000000,2.000000,0.000000,0.000000,0.000000,0.000000,0.000000;
#CREDIT:;
#DISPLAYBPM:138.000000;
#NOTES:
00000000
00000000
00000000
00000000
,
00000000
00000000
00000000
00000000
,
00000000
00000000
00000000
00000000
,
00000000
00000000
00000000
00000000
,
00000000
00000000
00000000
00000000
,
00010000
00000000
00000000
00000000
,
10000000
00000000
00000000
00000000
,
00100000
00100000
00100000
00100000
,
00100000
01000000
10010000
00000000
,
00100000
10000000
00100000
00010000
,
10010000
00000000
00010000
00001000
,
00000010
00000001
00000010
00001000
,
00001001
00000000
00001000
00010000
,
01000000
10000000
01000000
00010000
,
10010000
00000000
00010000
00001000
,
00000100
00000001
00000100
00001000
,
00001001
00000010
00000110
00000000
,
00000010
00000010
00000001
00000001
,
00000100
00000100
00001000
00001000
,
00010000
00010000
01000000
01000000
,
10000000
10000000
01000000
00010000
,
00100000
00100000
01000000
01000000
,
10000000
01000000
00010000
00000000
,
00001000
00000000
00000010
00000000
,
00000001
00000000
00001000
00000000
,
00000010
00000010
00000100
00000100
,
00000010
00000100
00001000
00000000
,
00010000
00010000
00100000
00100000
,
10000000
10000000
10000000
00000000
,
00100000
10000000
01000000
00010000
,
00001000
00000001
00001001
00000000
,
00000010
00000010
00000001
00000100
,
00001000
00001000
00010000
01000000
,
00100000
10000000
00100000
00010000
,
10010000
00000000
00010000
00001000
,
00000010
00000001
00000010
00001000
,
00001001
00000000
00001000
00010000
,
01000000
10000000
01000000
00010000
,
10010000
00000000
00010000
00001000
,
00000100
00000001
00000100
00001000
,
00001001
00000010
00000110
00000000
,
00000010
00000001
00000100
00000000
,
00001000
00000000
00010000
00000000
,
00100000
00000000
10000000
00000000
,
00010000
00000000
01000000
00000000
,
00100000
00010000
00001000
00000000
,
00000001
00000000
00001000
00000000
,
00000001
00000000
00000100
00000000
,
00001000
00000000
00000000
00000000
,
00000010
00000001
00000010
00001000
,
00001001
00000000
00010000
00001000
,
00000010
00000001
00000010
00001000
,
00001001
00000000
00001000
00010000
,
01000000
10000000
01000000
00010000
,
10010000
00000000
00010000
00001000
,
00000100
00000001
00000100
00001000
,
00001001
00000100
00000010
00000000
,
00000220
00000000
00000000
00000330
,
00000000
00000000
00000000
00000000
;

//---------------dance-double - ----------------
#NOTEDATA:;
#CHARTNAME:;
#STEPSTYPE:dance-double;
#DESCRIPTION:;
#CHARTSTYLE:;
#DIFFICULTY:Medium;
#METER:6;
#RADARVALUES:0.306016,0.362205,0.279826,0.019298,0.000000,222.000000,193.000000,29.000000,2.000000,0.000000,0.000000,0.000000,0.000000,0.000000,0.306016,0.362205,0.279826,0.019298,0.000000,222.000000,193.000000,29.000000,2.000000,0.000000,0.000000,0.000000,0.000000,0.000000;
#CREDIT:;
#DISPLAYBPM:138.000000;
#NOTES:
00000000
00000000
00000000
00000000
,
00000000
00000000
00000000
00000000
,
00000000
00000000
00000000
00000000
,
00000000
00000000
00000000
00000000
,
00000000
00000000
00000000
00000000
,
00000001
00000000
00000100
00000000
,
00001000
00000000
00010000
00000000
,
00100000
00100000
10000000
01000000
,
00000000
00100000
01000000
00100000
,
10000000
01000000
00010000
00100000
,
10100000
01010000
00010000
00001000
,
00000001
00000100
00001000
00000010
,
00000011
00001100
00001000
00010000
,
10000000
01000000
00010000
00100000
,
10100000
01010000
00010000
00001000
,
00000001
00000100
00001000
00000010
,
00000011
00001100
00001000
00010000
,
00100000
10000000
00100000
00010000
,
10010000
00000000
00010000
00001000
,
00000010
00001000
00000010
00000001
,
00001001
00000000
00001000
00010000
,
00100000
01000000
00010000
00001000
,
00000100
00000001
00000010
00000000
,
00001000
00010000
00100000
01000000
,
00100000
01000000
00100000
00000000
,
00100000
01000000
00010000
00001000
,
00000100
00000001
00000010
00000000
,
00001000
00010000
00100000
10000000
,
01000000
00100000
00010000
00000000
,
00100000
01000000
00010000
10010000
,
10000000
01000000
00010000
00001000
,
00000010
00000100
00001000
00010000
,
00100000
01100000
10000000
10010000
,
10000000
01000000
00010000
00100000
,
10100000
01010000
00010000
00001000
,
00000001
00000100
00001000
00000010
,
00000011
00001100
00001000
00010000
,
10000000
01000000
00010000
00100000
,
10100000
01010000
00010000
00001000
,
00000001
00000100
00001000
00000010
,
00000011
00000000
00001000
00010000
,
00100000
10000000
00010000
00000000
,
01000000
00010000
00001000
00000100
,
00000010
00000001
00001000
00000000
,
00000100
00001000
00010000
01000000
,
00100000
10000000
00010000
00000000
,
01000000
00010000
00001000
00000100
,
00000010
00000001
00001000
00000000
,
00000100
00001000
00010000
01000000
,
10000000
01000000
00010000
00100000
,
10100000
01010000
00010000
00001000
,
00000001
00000100
00001000
00000010
,
00000011
00001100
00001000
00010000
,
10000000
01000000
00010000
00100000
,
10100000
01010000
00010000
00001000
,
00000001
00000100
00001000
00000010
,
00000011
00001100
00001000
00000100
,
00000220
00000000
00000000
00000330
,
00000000
00000000
00000000
00000000
;

//---------------dance-double - ----------------
#NOTEDATA:;
#CHARTNAME:;
#STEPSTYPE:dance-double;
#DESCRIPTION:;
#CHARTSTYLE:;
#DIFFICULTY:Hard;
#METER:8;
#RADARVALUES:0.337720,0.362205,0.202632,0.067544,0.000000,245.000000,224.000000,21.000000,7.000000,0.000000,0.000000,0.000000,0.000000,0.000000,0.337720,0.362205,0.202632,0.067544,0.000000,245.000000,224.000000,21.000000,7.000000,0.000000,0.000000,0.000000,0.000000,0.000000;
#CREDIT:;
#DISPLAYBPM:138.000000;
#NOTES:
00000000
00000000
00000000
00000000
,
00000000
00000000
00000000
00000000
,
00000000
00000000
00000000
00000000
,
00000000
00000000
00000000
00000000
,
00000000
00000000
00000000
00000000
,
00001001
00000000
00000100
00000000
,
00000010
00000000
00001000
00000000
,
00000001
00000000
00000100
00000000
00000010
00001000
00000100
00000000
,
00010000
00001000
01000000
00010000
10000000
00000000
01100000
00000000
,
00001000
00010000
00000100
00000010
,
00001001
00000000
00000000
00000000
00000100
00010000
00010000
00000000
,
00001000
01000000
00010000
10000000
,
01100000
00000000
00000000
00000000
00001000
00010000
00000100
00000000
,
00000010
00000001
00000100
00000010
,
00001001
00000000
00000000
00000000
00000100
00010000
00001000
00000000
,
00100000
01000000
10010000
00000000
,
00100000
01000000
00001000
00010000
00000100
00000000
00000000
00000000
,
00001000
00000000
01000000
00000000
00100000
10000000
01000000
00100000
,
00010000
00000000
01000000
00000000
00001000
00010000
00001000
00000000
,
00010000
00000000
00000100
00000000
00000010
00000001
00000100
00000010
,
00001000
00000000
00000100
00000000
00010000
00001000
00010000
00000000
,
00000010
00000001
00000100
00000010
,
00001000
00000100
00000010
00000000
00001001
00000000
00000000
00000000
,
00000100
00000000
00010000
00000000
00001000
01000000
00100000
10000000
,
00000000
01010000
00000000
00000000
00000000
00000000
00000000
00000000
,
10000000
00000000
01000000
00000000
00100000
00001000
00010000
00000000
,
00000100
00001000
00000001
00000000
00000110
00000000
00000000
00000000
,
00001000
00000000
00000100
00000000
00010000
00001000
01000000
00010000
,
10000000
00000000
00010000
00000000
,
00100000
00010000
01000000
00000000
00001000
00010000
00000100
00000000
,
00000010
00000001
00000100
00000000
00001100
00000000
00000000
00000000
,
00000010
00010000
00000100
00000000
00001000
00000010
00000100
00000000
,
00000001
00001000
00000100
00000000
00010000
00001000
01000000
00000000
,
00100000
00000000
10000000
00000000
01000000
00100000
00010000
00000000
,
11000000
00000000
00000000
00000000
00100000
00001000
00010000
00000000
,
00000100
00000000
00000010
00000000
00000001
00001000
00000100
00000000
,
00000011
00000000
00000000
00000000
00001000
00000100
00010000
00000000
,
00001000
00000000
01000000
00000000
00100000
10000000
01000000
00000000
,
00110000
00000000
00000000
00000000
01000000
00001000
00010000
00000000
,
00001010
00000100
00000001
00000000
,
00000010
00000100
00001000
00000010
00010000
00000000
00000000
00000000
,
00000010
00000010
00000001
00000001
,
00000100
00000000
00000100
00000000
00001000
00010000
01000000
00000000
,
10000000
10000000
00100000
00100000
,
00010000
00000000
00010000
00000000
00001000
00000010
00000001
00000000
,
00002000
00000010
00000000
00003010
,
00000002
00000100
00000000
00000103
,
00000020
00000100
00000000
00000130
,
00022000
00000000
00000000
00033000
,
00000100
00000000
00000010
00000000
00000001
00000100
00000010
00000000
,
00001001
00000000
00000000
00000000
00000010
00010000
00001000
00000000
,
01000000
00000000
00100000
00000000
10000000
01000000
00100000
00000000
,
10010000
00000000
00100000
01000000
00001000
00000000
00010000
00000000
,
00000100
00000000
00000010
00000000
00000001
00000100
00000010
00000000
,
00001001
00000000
00000000
00000000
00000100
00000010
00010000
00000000
,
00011000
01000000
00100000
00000000
,
10000000
01000000
00010000
00001000
00000100
00000000
00001001
00000000
,
00000220
00000000
00000000
00000330
,
00000000
00000000
00000000
00000000
;

//---------------dance-double - ----------------
#NOTEDATA:;
#CHARTNAME:;
#STEPSTYPE:dance-double;
#DESCRIPTION:;
#CHARTSTYLE:;
#DIFFICULTY:Challenge;
#METER:6;
#RADARVALUES:0.217795,0.278619,0.048246,0.019298,0.000000,158.000000,153.000000,5.000000,2.000000,120.000000,0.000000,0.000000,0.000000,0.000000,0.217795,0.278619,0.048246,0.019298,0.000000,158.000000,153.000000,5.000000,2.000000,120.000000,0.000000,0.000000,0.000000,0.000000;
#CREDIT:;
#DISPLAYBPM:138.000000;
#NOTES:
00000000
00000000
00000000
00000000
,
00000000
00000000
00000000
00000000
,
00000000
00000000
00000000
00000000
,
00000000
00000000
00000000
00000000
,
00000000
00000000
00000000
00000000
,
00010000
00000000
00000000
00000000
,
10000000
00000000
00000000
00000000
,
00100000
00100000
00100000
00100000
,
00100000
01000000
10010000
MMMMMMMM
,
00100000
10000000
00100000
00010000
,
MMMMMMMM
00000000
00010000
00001000
,
00000010
00000001
00000010
00001000
,
MMMMMMMM
00000000
00001000
00010000
,
01000000
10000000
01000000
00010000
,
MMMMMMMM
00000000
00010000
00001000
,
00000100
00000001
00000100
00001000
,
00001001
00000000
MMMMMMMM
00000000
,
00000010
00000010
00000001
00000001
,
00000100
00000100
00001000
00001000
,
00010000
00010000
01000000
01000000
,
10000000
10000000
01000000
00010000
,
00100000
00100000
01000000
01000000
,
10000000
01000000
00010000
00000000
,
00001000
00000000
00000010
00000000
,
00000001
00000000
00001000
00000000
,
00000010
00000010
00000100
00000100
,
00000010
00000100
00001000
00000000
,
00010000
00010000
00100000
00100000
,
10000000
10000000
10000000
00000000
,
00100000
10000000
01000000
00010000
,
00001000
00000001
MMMMMMMM
00000000
,
00000010
00000010
00000001
00000100
,
00001000
00001000
00010000
01000000
,
00100000
10000000
00100000
00010000
,
MMMMMMMM
00000000
00010000
00001000
,
00000010
00000001
00000010
00001000
,
MMMMMMMM
00000000
00001000
00010000
,
01000000
10000000
01000000
00010000
,
MMMMMMMM
00000000
00010000
00001000
,
00000100
00000001
00000100
00001000
,
00001001
00000000
MMMMMMMM
00000000
,
00000010
00000001
00000100
00000000
,
00001000
00000000
00010000
00000000
,
00100000
00000000
10000000
00000000
,
00010000
00000000
01000000
00000000
,
00100000
00010000
00001000
00000000
,
00000001
00000000
00001000
00000000
,
00000001
00000000
00000100
00000000
,
00001000
00000000
MMMMMMMM
00000000
,
00000010
00000001
00000010
00001000
,
MMMMMMMM
00000000
00010000
00001000
,
00000010
00000001
00000010
00001000
,
MMMMMMMM
00000000
00001000
00010000
,
01000000
10000000
01000000
00010000
,
MMMMMMMM
00000000
00010000
00001000
,
00000100
00000001
00000100
00001000
,
00001001
00000100
00000010
MMMMMMMM
,
00000220
00000000
00000000
00000330
,
00000000
00000000
00000000
00000000
;

//---------------dance-single - Edit----------------
#NOTEDATA:;
#CHARTNAME:;
#STEPSTYPE:dance-single;
#DESCRIPTION:Edit;
#CHARTSTYLE:;
#DIFFICULTY:Edit;
#METER:15;
#RADARVALUES:0.838098,0.891582,0.318422,0.115790,1.157899,608.000000,575.000000,33.000000,12.000000,124.000000,0.000000,0.000000,0.000000,0.000000,0.838098,0.891582,0.318422,0.115790,1.157899,608.000000,575.000000,33.000000,12.000000,124.000000,0.000000,0.000000,0.000000,0.000000;
#CREDIT:;
#DISPLAYBPM:138.000000;
#NOTES:
// measure 0
0000
0000
0000
0000
,  // measure 1
0000
0000
0000
0000
,  // measure 2
0000
0000
0000
0000
,  // measure 3
0000
0000
0000
0000
,  // measure 4
0000
0000
0000
0000
,  // measure 5
2000
0000
0010
0000
0001
0001
0000
3200
,  // measure 6
0000
0000
1300
0100
1000
0000
0001
1000
0001
0000
0100
0001
0100
1000
0010
0100
,  // measure 7
0001
0010
0001
0010
0100
1000
0100
1000
0001
0010
0100
1000
0001
0010
0100
1000
,  // measure 8
0010
0100
0010
0100
1000
0010
0100
0001
0020
0000
0030
0000
MMMM
0000
0000
0000
,  // measure 9
1000
0010
0100
0000
1000
0010
0100
0000
1000
0010
0100
0001
0010
0001
0100
0010
,  // measure 10
1000
0000
0100
1000
0100
0000
0001
0100
0001
0000
1000
0100
0010
0001
0100
0000
,  // measure 11
0001
0010
0001
0000
0100
1000
0100
0000
0001
0010
0100
1000
0010
0100
0001
0010
,  // measure 12
1000
0000
0100
1000
0100
0000
0010
1000
0010
0000
0001
0100
0010
1000
0100
0000
,  // measure 13
0010
0001
0100
0000
0010
0001
0100
0000
0010
0001
0100
0001
0010
0100
1000
0010
,  // measure 14
0100
0000
1000
0010
1000
0000
0001
0010
0001
0000
1000
0100
0010
0001
0010
0000
,  // measure 15
0100
0010
0100
0010
0100
0010
0100
0010
0100
0010
0100
0010
0100
0010
0100
0000
,  // measure 16
MMMM
0010
1000
0100
0002
0003
MMMM
0000
,  // measure 17
1000
0010
0100
0010
1000
0010
0100
0010
1000
0010
0100
0010
1000
0010
0100
0000
,  // measure 18
0010
0001
0100
0001
0010
0001
0100
0001
0010
0001
0100
0001
0010
0001
0100
0000
,  // measure 19
0001
0010
0100
0010
0001
0010
0100
0010
0001
0010
0100
0010
0001
0010
0100
0000
,  // measure 20
0100
1000
0100
0001
0100
1000
0100
0001
0100
1000
0100
0001
0100
1000
0100
0010
,  // measure 21
0001
0000
1000
0001
0010
0000
1000
0020
0000
0000
0030
0000
0001
0010
0100
0000
,  // measure 22
1000
0000
0100
1000
0010
0000
0100
0001
0000
0001
1000
0000
0010
0001
0010
0001
,  // measure 23
0010
0000
0100
0001
1000
0000
0010
0200
0000
0000
0300
0000
1000
0000
0010
0000
,  // measure 24
MMMM
0000
0001
0000
0000
0000
0100
0001
1000
0000
0000
0010
0000
0000
MMMM
0000
,  // measure 25
0010
0000
0001
0010
0100
0000
0010
2000
0000
0000
3000
0000
0010
1000
0100
0000
,  // measure 26
0010
0001
0100
0000
0001
1000
0100
0010
0001
0010
0000
0010
0100
1000
0100
0010
,  // measure 27
0001
0000
1000
0100
0010
0000
0001
0100
0000
0000
0010
1000
0100
0000
0020
0000
,  // measure 28
0002
0000
0033
0000
0000
MMMM
0000
0000
0101
0000
0000
0110
0000
0000
1010
0000
,  // measure 29
1000
0000
0100
0010
0001
0000
0010
1000
0000
0000
1000
0010
0100
0000
0010
0000
,  // measure 30
0001
0010
0000
0010
0100
0000
1000
0100
0000
0010
0001
0000
0100
1000
0010
0100
,  // measure 31
0001
0000
1000
0001
0010
0100
1000
0010
1000
0000
0010
1000
0001
0000
0010
0000
,  // measure 32
0001
0010
0001
1000
0010
1000
0001
0010
0100
1000
0010
0100
0001
0000
0000
0000
,  // measure 33
1000
0100
1000
0000
0001
0100
0001
0000
1000
0100
0010
0001
1000
0010
0100
0000
,  // measure 34
0010
0000
0001
0010
0001
0000
0010
0100
0010
0000
1000
0100
0010
0001
0010
0000
,  // measure 35
1000
0010
1000
0000
0100
0001
0100
0000
1000
0100
0010
0001
1000
0010
0100
0000
,  // measure 36
0010
0000
0001
0010
0001
0000
0100
1000
0100
0000
0001
0010
0100
1000
0100
0000
,  // measure 37
0010
1000
0010
0000
0100
0001
0100
0000
1000
0100
0010
0001
0010
0100
1000
0000
,  // measure 38
0010
0000
1000
0010
1000
0000
0001
0100
0001
0000
1000
0010
0100
0001
1000
0000
,  // measure 39
0001
1000
0001
1000
0001
1000
0001
1000
0001
1000
0001
1000
0001
1000
0001
0000
,  // measure 40
MMMM
0001
0100
1000
0020
0030
MMMM
0000
,  // measure 41
1000
0010
0100
0000
0010
0001
0100
0000
0001
0100
0010
1000
0100
0010
0001
0000
,  // measure 42
0011
0000
0000
0011
0000
0000
0011
0000
1100
0000
0000
1100
0000
0000
1100
0000
,  // measure 43
1010
0000
0000
1010
0000
0000
1010
0000
0101
0000
0000
0101
0000
0000
0101
0000
,  // measure 44
1001
0000
0000
1001
0000
0000
1001
0000
0110
0000
0000
0110
0000
0000
0110
0000
,  // measure 45
0010
0001
0100
0000
0100
1000
0010
0000
0010
0001
0100
1000
0010
1000
0100
0000
,  // measure 46
0110
0000
0000
0011
0000
0000
1010
0000
0101
0000
0000
1100
0000
0000
0011
0000
,  // measure 47
1100
0000
0000
0110
0000
0000
0011
0000
1001
0000
0000
0011
0000
0000
0101
0000
,  // measure 48
MMMM
0000
0000
MMMM
0000
0000
MMMM
0000
0000
MMMM
0000
0000
MMMM
0000
0000
MMMM
0000
0000
MMMM
0000
0000
MMMM
0000
0000
MMMM
MMMM
MMMM
MMMM
MMMM
MMMM
MMMM
MMMM
MMMM
MMMM
MMMM
MMMM
MMMM
0000
0000
0000
0000
0000
0000
0000
0000
0000
0000
0000
,  // measure 49
1000
0010
0100
0000
0010
1000
0100
0000
0010
0001
0100
1000
0010
0100
0001
0010
,  // measure 50
0100
0000
1000
0010
0100
0000
0010
0001
0100
0000
0001
0100
0010
1000
0100
0010
,  // measure 51
0001
0010
0100
0000
0010
1000
0100
0000
0001
0100
0010
1000
0100
0010
0001
0010
,  // measure 52
1000
0000
0010
1000
0100
0000
0001
0010
1000
0000
0100
0010
1000
0001
0010
0100
,  // measure 53
1000
0001
0010
0000
0001
1000
0010
0000
1000
0001
0010
0001
1000
0010
0001
0100
,  // measure 54
0010
0000
0001
0100
0010
0000
1000
0100
0010
0000
0001
0010
1000
0100
0010
0001
,  // measure 55
0100
0010
0100
1000
0100
0001
0100
0010
0100
1000
0100
0010
0100
0001
0100
0000
,  // measure 56
MMMM
0000
0100
1000
0010
0000
0100
0000
0001
0000
1000
0000
0001
0010
0100
2000
,  // measure 57
0200
0000
0000
0000
0000
3300
MMMM
0000
;
