#VERSION:0.83;
#TITLE:Boy (DJ Irene Rockstar Mix);
#SUBTITLE:;
#ARTIST:Book Of Love;
#TITLETRANSLIT:;
#SUBTITLETRANSLIT:;
#ARTISTTRANSLIT:;
#GENRE:;
#ORIGIN:;
#CREDIT:;
#BANNER:Boy (DJ Irene Rockstar Mix).png;
#BACKGROUND:Boy (DJ Irene Rockstar Mix)-bg.png;
#PREVIEWVID:;
#JACKET:Boy (DJ Irene Rockstar Mix)-jacket.png;
#CDIMAGE:;
#DISCIMAGE:;
#LYRICSPATH:;
#CDTITLE:;
#MUSIC:Boy (DJ Irene Rockstar Mix).mp3;
#OFFSET:-0.040000;
#SAMPLESTART:49.063000;
#SAMPLELENGTH:14.000000;
#SELECTABLE:YES;
#BPMS:0.000=137.000;
#STOPS:;
#DELAYS:;
#WARPS:;
#TIMESIGNATURES:0.000=4=4;
#TICKCOUNTS:0.000=4;
#COMBOS:0.000=1;
#SPEEDS:0.000=1.000=0.000=0;
#SCROLLS:0.000=1.000;
#FAKES:;
#LABELS:0.000=Song Start;
#BGCHANGES:;
#KEYSOUNDS:;
#ATTACKS:
;

//---------------dance-single - ----------------
#NOTEDATA:;
#CHARTNAME:;
#STEPSTYPE:dance-single;
#DESCRIPTION:;
#CHARTSTYLE:;
#DIFFICULTY:Beginner;
#METER:1;
#RADARVALUES:0.083272,0.129003,0.009556,0.000000,0.000000,61.000000,60.000000,1.000000,0.000000,0.000000,0.000000,0.000000,0.000000,0.000000,0.083272,0.129003,0.009556,0.000000,0.000000,61.000000,60.000000,1.000000,0.000000,0.000000,0.000000,0.000000,0.000000,0.000000;
#CREDIT:;
#NOTES:
0000
0000
0000
0000
,
0000
0000
0000
0000
,
1000
0000
0000
0000
,
0001
0000
0000
0000
,
0100
0000
0000
0000
,
0100
0000
0000
0000
,
0010
0000
0000
0000
,
0010
0000
0000
0000
,
0000
0000
1000
0000
,
0000
0000
0001
0000
,
0000
0000
1000
0000
,
0000
0000
0001
0000
,
0001
0000
0001
0000
,
1000
0000
1000
0000
,
0001
0000
0001
0000
,
1000
0000
1000
0000
,
0001
0000
0000
0000
,
0000
0000
0000
0000
,
0000
0000
0000
0000
,
1001
0000
0000
0000
,
1000
0000
0000
0000
,
0001
0000
0000
0000
,
0100
0000
0000
0000
,
0000
0000
0000
0000
,
0001
0000
0000
0000
,
1000
0000
0000
0000
,
0010
0000
0000
0000
,
0000
0000
0000
0000
,
0001
0000
0000
0000
,
0010
0000
0010
0000
,
1000
0000
0000
0000
,
0010
0000
0000
0000
,
1000
0000
0000
0000
,
0100
0000
0100
0000
,
0001
0000
0000
0000
,
0010
0000
0000
0000
,
0001
0000
0000
0000
,
1000
0000
0000
0000
,
0010
0000
0000
0000
,
0100
0000
0000
0000
,
1000
0000
0000
0000
,
0100
0000
0000
0000
,
0001
0000
0000
0000
,
0001
0000
0000
0000
,
1000
0000
0000
0000
,
0010
0000
0010
0000
,
0001
0000
0001
0000
,
1000
0000
1000
0000
,
0001
0000
0000
0000
,
0100
0000
0100
0000
,
1000
0000
1000
0000
,
0001
0000
0001
0000
,
1000
0000
0000
0000
,
0000
0000
0000
0000
,
0010
0000
0000
0000
;

//---------------dance-single - ----------------
#NOTEDATA:;
#CHARTNAME:;
#STEPSTYPE:dance-single;
#DESCRIPTION:;
#CHARTSTYLE:;
#DIFFICULTY:Easy;
#METER:5;
#RADARVALUES:0.196575,0.238655,0.000000,0.057335,0.000000,144.000000,144.000000,0.000000,6.000000,0.000000,0.000000,0.000000,0.000000,0.000000,0.196575,0.238655,0.000000,0.057335,0.000000,144.000000,144.000000,0.000000,6.000000,0.000000,0.000000,0.000000,0.000000,0.000000;
#CREDIT:;
#NOTES:
0000
0000
0000
0000
,
0000
0000
0000
0000
,
0000
1000
0000
0001
,
0000
1000
0000
0001
,
0000
0010
0000
0100
,
0000
1000
0000
0010
,
0000
0100
0000
0001
,
0000
0010
0000
1000
,
0001
0100
0100
0100
,
0000
0010
0010
0010
,
0000
1000
0100
1000
,
0000
0001
0100
0001
,
0010
0000
0100
0000
,
1000
0000
0010
0000
,
0001
0000
0100
0000
,
1000
0000
0010
0001
,
0200
0000
0000
0300
,
0001
0001
0010
0010
,
1000
1000
0100
0100
,
0002
0000
0000
0003
,
0100
1000
0001
0000
,
0010
1000
0010
0000
,
0001
0000
1000
0000
,
0010
0100
0010
0100
,
0010
1000
0001
0000
,
0100
1000
0100
0000
,
0001
0000
1000
0000
,
0100
0010
0100
0010
,
0001
0000
0100
0000
,
1000
0000
0100
0000
,
0001
0100
1000
0100
,
0001
0100
1000
0100
,
0001
0000
0010
0000
,
1000
0000
0010
0000
,
0001
0010
1000
0010
,
0001
0010
1000
0010
,
0001
0001
1000
0000
,
0010
1000
0100
0000
,
1000
0000
0001
0000
,
0100
0100
0010
0010
,
1000
1000
0001
0000
,
0010
0001
0100
0000
,
0001
0000
1000
0000
,
0010
0010
0100
0100
,
1000
0000
0010
0000
,
0100
0000
0001
0000
,
1000
0010
0100
0001
,
1000
0010
0100
0001
,
1000
0000
0001
0000
,
0010
0000
0100
0000
,
1000
0001
0010
0100
,
1000
0001
0010
0100
,
2000
0000
3000
0000
,
0002
0000
0003
0000
,
0200
0000
0300
0000
,
0020
0000
0030
0000
;

//---------------dance-single - ----------------
#NOTEDATA:;
#CHARTNAME:;
#STEPSTYPE:dance-single;
#DESCRIPTION:;
#CHARTSTYLE:;
#DIFFICULTY:Medium;
#METER:6;
#RADARVALUES:0.323530,0.425231,0.133781,0.047779,0.000000,237.000000,223.000000,14.000000,5.000000,0.000000,0.000000,0.000000,0.000000,0.000000,0.323530,0.425231,0.133781,0.047779,0.000000,237.000000,223.000000,14.000000,5.000000,0.000000,0.000000,0.000000,0.000000,0.000000;
#CREDIT:;
#NOTES:
0000
0000
0000
0000
,
0000
0000
0000
0000
,
0010
0000
0000
1000
0000
0000
0100
0000
,
0100
0000
0000
0010
0000
0000
0001
0000
,
0001
0000
1000
0100
0000
0000
0010
0000
,
0100
0000
0010
0001
0000
0000
0100
0000
,
0001
0000
0100
0010
0000
0000
1000
0000
,
0010
0000
1000
0100
0000
0100
1000
0000
,
0010
1000
0010
1000
,
0001
0010
0001
0010
,
0100
1000
0100
1000
,
0001
0100
0001
0100
,
0010
0000
0100
0000
,
0001
0000
1000
0000
,
0100
0000
0010
0000
,
0001
0000
0100
0000
,
1001
1000
1000
1000
,
0110
0010
0010
0010
,
0101
0100
1010
0010
,
1000
0001
1000
0001
0200
0000
0300
0000
,
0010
0000
1000
0001
0000
0000
0100
0000
,
0010
0000
1000
0001
1000
0000
0100
0000
,
0010
0000
0100
1000
0000
0000
0001
0000
,
0100
0000
0001
1000
0010
0000
0100
0000
,
0001
0000
0010
0001
0000
0000
1000
0000
,
0001
0000
0100
0010
0100
0000
0001
0000
,
1000
0000
0100
0010
0000
0000
0001
0000
,
1000
0000
0100
0010
0100
0000
1000
0000
,
0002
0100
0100
0103
,
0001
1000
0010
0100
,
0001
0001
1000
0000
0010
0000
0100
0000
,
0001
0001
1000
0000
0010
0010
0100
0000
,
0002
0010
0010
0013
,
0001
0010
0100
1000
,
0001
0001
0010
0000
0100
0100
1000
0000
,
0001
0001
0010
0000
0100
0100
1000
0000
,
0010
0000
1000
0001
0000
0000
0010
0000
,
0100
0000
1000
0001
1000
0000
0010
0000
,
0100
0000
0010
1000
0000
0000
0001
0000
,
0010
0000
0001
1000
0100
0000
0010
0000
,
0001
0000
0100
0001
0000
0000
1000
0000
,
0100
0000
0010
0100
0010
0000
0001
0000
,
1000
0000
0010
0100
0000
0000
0001
0000
,
1000
0000
0010
0100
0010
0000
1000
0000
,
0200
1000
1000
1300
,
0001
0010
0110
1100
,
0001
0001
0010
0000
0110
0000
1100
0000
,
0001
0001
0010
0000
0100
0100
1100
0000
,
0002
0100
0100
0103
,
0001
1000
1010
0110
,
0001
0001
1000
0000
1010
0000
0110
0000
,
0001
0001
1000
0000
0010
0010
0100
0100
,
0110
0000
0000
0100
0000
0100
0000
0000
,
0000
0000
0000
0001
0000
0001
0000
0000
,
0000
0000
0000
0010
0000
0010
0000
0000
,
0000
0000
0000
1000
0000
1000
0000
0000
;

//---------------dance-single - ----------------
#NOTEDATA:;
#CHARTNAME:;
#STEPSTYPE:dance-single;
#DESCRIPTION:;
#CHARTSTYLE:;
#DIFFICULTY:Hard;
#METER:10;
#RADARVALUES:0.464137,0.558116,0.353563,0.248450,0.000000,340.000000,303.000000,37.000000,26.000000,0.000000,0.000000,0.000000,0.000000,0.000000,0.464137,0.558116,0.353563,0.248450,0.000000,340.000000,303.000000,37.000000,26.000000,0.000000,0.000000,0.000000,0.000000,0.000000;
#CREDIT:;
#NOTES:
0000
0000
0000
0000
,
0000
0000
0000
0000
,
0001
0100
0001
1000
0000
0010
0001
0010
,
1000
0100
1000
0001
0000
0010
1000
0010
,
0001
0000
0100
0001
0000
0001
0100
0000
,
0010
0000
1000
0100
0000
0100
1000
0000
,
0001
0000
0010
0100
0000
0100
0010
0000
,
0001
0000
0100
0010
1000
1000
1000
1000
,
0000
0001
0100
0001
1000
0001
0100
0001
,
0000
1000
0010
1000
0001
1000
0010
1000
,
0000
0100
0010
0100
0001
0100
0010
0100
,
0000
0010
0100
0010
0001
0001
0001
0001
,
2000
3001
0002
1003
,
2000
3001
0002
1003
,
2000
0001
0001
3001
0002
1000
1000
1003
,
2000
0001
0001
3001
0002
1000
1000
1003
,
1000
1010
0010
0011
,
0001
0101
0100
1100
,
1000
0010
1010
1000
0010
0001
0011
0010
,
0100
0001
0010
0100
1000
0001
1001
1001
,
1000
0110
0001
0110
,
1000
0100
0010
1000
0100
0010
0001
1000
,
0100
1100
0001
0101
,
0010
1000
0001
0100
0010
0100
0001
1000
,
0001
0110
1000
0110
,
0001
0100
0010
0001
0100
0010
1000
0001
,
0100
0101
1000
1100
,
0010
0001
1000
0100
0010
0100
1000
0001
,
1002
0000
1000
0000
1003
0001
0000
0001
,
0020
0230
2300
3001
,
0011
0110
1100
1001
,
0001
0001
0010
0010
0100
0100
1000
2000
,
0100
0000
0100
0000
3100
1000
0000
1000
,
0020
0230
0302
1003
,
1010
0110
0101
1001
,
1010
0010
0110
0100
0101
0001
1001
0000
,
0110
0001
0110
1000
,
0001
0010
0100
1000
0010
0100
0001
1000
,
0100
0011
1000
1010
,
0100
0001
1000
0010
0001
0010
1000
0100
,
0010
0110
0001
0110
,
1000
0010
0100
1000
0001
0010
0100
0001
,
1000
1010
0001
0011
,
0100
1000
0001
0010
1000
0010
0001
0100
,
2000
0000
0001
0000
3001
0100
0000
0100
,
0020
0001
0100
1030
,
0200
0001
0010
1300
,
0100
0001
0100
0010
0100
1000
0010
0002
,
0100
0000
0100
0000
0103
0001
0000
0001
,
0020
1000
0100
0031
,
0200
1000
0010
0301
,
0100
1000
0100
0010
0100
0001
0010
0100
,
2000
0000
0000
0010
0000
3010
0000
0000
,
0002
0000
0000
0100
0000
0103
0000
0000
,
0020
0000
0000
0001
0000
0031
0000
0000
,
2000
0000
0000
0100
0000
3100
0000
0000
;

//---------------dance-double - ----------------
#NOTEDATA:;
#CHARTNAME:;
#STEPSTYPE:dance-double;
#DESCRIPTION:;
#CHARTSTYLE:;
#DIFFICULTY:Easy;
#METER:4;
#RADARVALUES:0.192480,0.238655,0.028667,0.047779,0.000000,141.000000,138.000000,3.000000,5.000000,0.000000,0.000000,0.000000,0.000000,0.000000,0.192480,0.238655,0.028667,0.047779,0.000000,141.000000,138.000000,3.000000,5.000000,0.000000,0.000000,0.000000,0.000000,0.000000;
#CREDIT:;
#NOTES:
00000000
00000000
00000000
00000000
,
00000000
00000000
00000000
00000000
,
00000000
00001000
00000000
00010000
,
00000000
00001000
00000000
00010000
,
00000000
01000000
00000000
10000000
,
00000000
00100000
00000000
01000000
,
00000000
00010000
00000000
00001000
,
00000000
00010000
00000000
00000100
,
00001000
00000001
00000001
00000001
,
00000000
00000100
00000100
00000100
,
00000000
00001000
00001000
00001000
,
00000000
00010000
00010000
00010000
,
01000000
00000000
10000000
00000000
,
00100000
00000000
00010000
00000000
,
00001000
00000000
00000100
00000000
,
00000001
00000000
00000010
00000100
,
00002000
00000000
00000000
00003000
,
00000001
00000000
00000100
00000000
,
00001000
00001000
00010000
00010000
,
00011000
00000000
00000000
00000000
,
00100000
00000000
00010000
00000000
,
10000000
10000000
01000000
00000000
,
00100000
00000000
01000000
00000000
,
00010000
00010000
00001000
00001000
,
00000100
00000000
00000010
00000000
,
00000001
00000001
00001000
00000000
,
00000100
00000000
00000010
00000000
,
00001000
00001000
00010000
00010000
,
00011000
00000000
00001000
00000000
,
00100000
00000000
00010000
00000000
,
01000000
01000000
00100000
00100000
,
10000000
10000000
00100000
00100000
,
00010000
00000000
00000100
00000000
,
00001000
00000000
00000001
00000000
,
00000100
00000100
00000010
00000010
,
00001000
00001000
00000010
00000010
,
00000100
00000000
00001000
00000000
,
00010000
00010000
01000000
00000000
,
10000000
00000000
00100000
00000000
,
00010000
00010000
00001000
00001000
,
00000100
00000000
00000001
00000000
,
00000010
00000010
00000100
00000000
,
00001000
00000000
00000010
00000000
,
00010000
00010000
00001000
00001000
,
00011000
00000000
00001000
00000000
,
01000000
00000000
00010000
00000000
,
00100000
00100000
01000000
01000000
,
10000000
10000000
00010000
00010000
,
00100000
00000000
00001000
00000000
,
00010000
00000000
00000100
00000000
,
00001000
00001000
00000001
00000001
,
00000100
00000100
00001000
00001000
,
00020000
00000000
00030000
00000000
,
02000000
00000000
03000000
00000000
,
20000000
00000000
30000000
00000000
,
00020000
00000000
00030000
00000000
;

//---------------dance-double - ----------------
#NOTEDATA:;
#CHARTNAME:;
#STEPSTYPE:dance-double;
#DESCRIPTION:;
#CHARTSTYLE:;
#DIFFICULTY:Medium;
#METER:6;
#RADARVALUES:0.298959,0.318923,0.057335,0.057335,0.000000,219.000000,213.000000,6.000000,6.000000,0.000000,0.000000,0.000000,0.000000,0.000000,0.298959,0.318923,0.057335,0.057335,0.000000,219.000000,213.000000,6.000000,6.000000,0.000000,0.000000,0.000000,0.000000,0.000000;
#CREDIT:;
#NOTES:
00000000
00000000
00000000
00000000
,
00000000
00000000
00000000
00000000
,
00000001
00000000
00000000
00000010
00000000
00000000
00000100
00000000
,
00001000
00000000
00000000
00000010
00000000
00000000
00000100
00000000
,
00000001
00000000
00000100
00001000
00000000
00000000
00010000
00000000
,
00001000
00000000
00010000
01000000
00000000
00000000
10000000
00000000
,
01000000
00000000
10000000
00100000
00000000
00000000
01000000
00000000
,
00100000
00000000
00010000
00001000
00010000
00000000
00011000
00000000
,
00001000
00001000
00010000
00010000
,
00001000
00000100
00000001
00000010
,
00000100
00000100
00000010
00000010
,
00000001
00000100
00001000
00010000
,
00100000
00000000
10000000
00000000
,
00010000
00000000
00100000
00000000
,
01000000
00000000
00010000
00000000
,
00001000
00000000
00000100
00000000
,
00000001
00000001
00000001
00000010
,
00000100
00000100
00000100
00010000
,
00001000
00001000
00010000
00010000
,
00001000
00010000
00001000
00020000
00002000
00000000
00033000
00000000
,
00100000
00000000
00010000
10000000
00000000
00000000
01000000
00000000
,
00100000
00000000
00001000
00010000
00001000
00000000
00010000
00000000
,
00000010
00000000
00001000
00000001
00000000
00000000
00000100
00000000
,
00000010
00000000
00001000
00000100
00010000
00000000
00001000
00000000
,
01000000
00000000
00010000
10000000
00000000
00000000
01000000
00000000
,
00100000
00000000
00001000
00010000
00001000
00000000
00010000
00000000
,
00000100
00000000
00001000
00000001
00000000
00000000
00000100
00000000
,
00000010
00000000
00001000
00000100
00010000
00000000
00001000
00000000
,
00021000
00000000
00000000
00000000
00000000
00031000
00000000
00001000
,
00100000
00010000
10000000
01000000
,
00100000
00010000
00100000
00000000
01000000
10000000
01000000
00000000
,
00100000
00001000
00010000
00000100
,
00002100
00000000
00000000
00000000
00000000
00003010
00000000
00000010
,
00001000
00000001
00000100
00000010
,
00001000
00000001
00001000
00000000
00000010
00000100
00000010
00000000
,
00010000
00001000
01000000
00100000
,
01000000
00000000
00010000
10000000
00000000
00000000
00100000
00000000
,
01000000
00000000
00001000
00010000
00001000
00000000
00010000
00000000
,
00000100
00000000
00001000
00000001
00000000
00000000
00000010
00000000
,
00000100
00000000
00001000
00000010
00010000
00000000
00001000
00000000
,
00100000
00000000
00010000
10000000
00000000
00000000
00100000
00000000
,
01000000
00000000
00001000
00010000
00001000
00000000
00010000
00000000
,
00000010
00000000
00001000
00000001
00000000
00000000
00000010
00000000
,
00000100
00000000
00001000
00000010
00010000
00000000
00001000
00000000
,
00021000
00000000
00000000
00000000
00000000
00031000
00000000
00001000
,
01000000
00010000
10000000
00100000
,
01000000
00010000
01000000
00000000
00100000
10000000
00100000
00000000
,
01000000
00001000
00010000
00000010
,
00002010
00000000
00000000
00000000
00000000
00003100
00000000
00000100
,
00001000
00000001
00000010
00000100
,
00001000
00000001
00001000
00000000
00000100
00000010
00000100
00000000
,
00010000
00001000
00100000
01000000
,
01100000
00000000
00000000
00100000
00000000
00100000
00000000
00000000
,
00000000
00000000
00000000
00001000
00000000
00001000
00000000
00000000
,
00000000
00000000
00000000
00010000
00000000
00010000
00000000
00000000
,
00000000
00000000
00000000
00000010
00000000
00000010
00000000
00000000
;

//---------------dance-double - ----------------
#NOTEDATA:;
#CHARTNAME:;
#STEPSTYPE:dance-double;
#DESCRIPTION:;
#CHARTSTYLE:;
#DIFFICULTY:Hard;
#METER:11;
#RADARVALUES:0.439565,0.451808,0.152892,0.219782,0.000000,322.000000,306.000000,16.000000,23.000000,0.000000,0.000000,0.000000,0.000000,0.000000,0.439565,0.451808,0.152892,0.219782,0.000000,322.000000,306.000000,16.000000,23.000000,0.000000,0.000000,0.000000,0.000000,0.000000;
#CREDIT:;
#NOTES:
00000000
00000000
00000000
00000000
,
00000000
00000000
00000000
00000000
,
10000000
00010000
10000000
00010000
00000000
01000000
00100000
01000000
,
00001000
00010000
00001000
00010000
00000000
00000100
00000010
00000100
,
00001000
00000000
00000001
00000100
00000000
00000100
00000001
00001000
,
00000100
00000000
00010000
00001000
00000000
00001000
00010000
00100000
,
01000000
00000000
00010000
10000000
00000000
10000000
00010000
01000000
,
00100000
00000000
10000000
00100000
01000000
00001000
00010000
00000100
,
00000020
00000001
00000100
00000031
,
00002000
00000100
00000001
00003100
,
00020000
00000010
00001000
00030010
,
00010000
00000000
00001000
00000000
00010000
00001000
00010000
00001000
,
00020000
00030000
02000000
03000000
,
20000000
30000000
00200000
00300000
,
00020000
00030000
00002000
00003000
,
00000020
00000030
00000002
00000003
,
00000100
00000001
00000100
00000001
00000100
00001000
00000100
00001000
,
00010000
00001000
00010000
00001000
00010000
01000000
00010000
01000000
,
10000000
01000000
10000000
01000000
10000000
00100000
10000000
00100000
,
00010000
00001000
00000100
00000010
00000001
00000010
00000100
00001000
,
00010000
00000000
00010000
00001000
00000000
00001000
00010000
00000000
,
00100000
00010000
00001000
01000000
00001000
00010000
00000010
00001000
,
00000100
00000000
00000010
00000100
00000000
00000100
00000010
00000000
,
00000001
00000010
00000100
00010000
00000010
00010000
00001000
00100000
,
00010000
00000000
10000000
00010000
00000000
00010000
10000000
00000000
,
00100000
01000000
00100000
10000000
01000000
00100000
00001000
00010000
,
00000010
00000000
00000100
00000010
00000000
00000010
00000100
00000000
,
00000001
00000100
00001000
00010000
00100000
10000000
00010000
00100000
,
01000000
10000000
00100000
10000000
01000000
00100000
00010000
01000000
,
00200000
00320000
00032000
00003100
,
00000101
00000011
00001100
00001010
,
00000001
00000010
00001000
00010000
01000000
10000000
00010000
01000000
,
00100000
10000000
01000000
10000000
00100000
01000000
00010000
00100000
,
02000000
03020000
00032000
00003010
,
00000011
00001100
00001010
00000101
,
00001000
00000001
00000100
00001000
00010000
01000000
10000000
00010000
,
10000000
00000000
10000000
00010000
00000000
00010000
10000000
00000000
,
01000000
00010000
00001000
00100000
00001000
00010000
00000100
00001000
,
00000010
00000000
00000100
00001000
00000000
00001000
00000100
00000000
,
00000001
00000100
00000010
00010000
00000100
00010000
00001000
01000000
,
00100000
00000000
10000000
01000000
00000000
01000000
10000000
00000000
,
00010000
00100000
00001000
01000000
00100000
00010000
00001000
00010000
,
00000100
00000000
00000010
00000100
00000000
00000100
00000010
00000000
,
00000001
00000010
00001000
00010000
01000000
10000000
00100000
01000000
,
00010000
10000000
01000000
10000000
00100000
00010000
00100000
10000000
,
02000000
03020000
00032000
00003010
,
00001100
00010100
00010010
00001010
,
00000100
00000001
00000010
00001000
00010000
00100000
10000000
00010000
,
01000000
00100000
10000000
00100000
01000000
10000000
01000000
00010000
,
20000000
32000000
03020000
00031000
,
00010010
00001010
00001100
00010100
,
00000010
00001000
00000100
00000010
00001000
00010000
01000000
00100000
,
00010000
00000000
00000000
10000000
00000000
00100000
00000000
00000000
,
00000000
00000000
00000000
00010000
00000000
00001000
00000000
00000000
,
00000000
00000000
00000000
00000100
00000000
00000001
00000000
00000000
,
00000000
00000000
00000000
00000010
00000000
00000100
00000000
00000000
;

//---------------dance-single - ----------------
#NOTEDATA:;
#CHARTNAME:;
#STEPSTYPE:dance-single;
#DESCRIPTION:;
#CHARTSTYLE:;
#DIFFICULTY:Challenge;
#METER:15;
#RADARVALUES:0.663442,0.775927,0.219782,0.172004,0.592457,486.000000,463.000000,23.000000,18.000000,136.000000,0.000000,0.000000,0.000000,0.000000,0.663442,0.775927,0.219782,0.172004,0.592457,486.000000,463.000000,23.000000,18.000000,136.000000,0.000000,0.000000,0.000000,0.000000;
#CREDIT:;
#NOTES:
// measure 0
0000
0000
0000
0000
,  // measure 1
0000
0000
0000
0000
,  // measure 2
1000
1000
0001
0001
MMMM
0100
0010
0100
,  // measure 3
0010
0010
0100
0100
MMMM
0001
0010
0100
,  // measure 4
1000
0100
1000
0100
MMMM
0000
0010
0000
0100
0000
0001
0000
0010
0100
0010
0100
,  // measure 5
0020
1000
0031
MMMM
,  // measure 6
0001
0100
0001
0100
MMMM
0000
0010
0000
1000
0000
0010
0000
0100
0001
0100
0001
,  // measure 7
0200
0000
0000
0000
1300
0000
0010
0000
0100
0010
0100
0000
0001
0010
0100
1000
,  // measure 8
0010
0000
1000
0010
1000
0000
MMMM
0000
0001
0010
0001
0000
MMMM
0000
0100
0001
,  // measure 9
0100
0000
0010
1000
0010
0000
MMMM
0000
1000
0010
1000
0000
MMMM
0000
0100
0001
,  // measure 10
0100
0000
0010
0001
0010
0000
MMMM
0000
0001
0100
0001
0000
MMMM
0000
1000
0001
,  // measure 11
1000
0000
0010
0100
0010
0000
MMMM
0000
1000
0100
1000
0000
MMMM
0000
0010
0001
,  // measure 12
0020
0000
0000
0100
0030
0000
0200
0000
0000
0010
0300
0000
2000
0000
0000
0100
3000
0000
0002
0000
0000
1000
0003
0000
,  // measure 13
2000
0100
3200
0010
0320
0001
0032
1000
,  // measure 14
2003
0000
0010
3000
0020
0000
0001
0030
0002
0000
0100
0003
0200
0000
1000
0300
,  // measure 15
0200
0000
0000
0010
0000
0300
0002
0000
0000
0100
0000
0003
0020
0000
0000
0001
0000
0030
2000
0000
0000
0010
0000
3000
,  // measure 16
0100
1000
0100
0001
0100
1000
0100
0001
,  // measure 17
1000
0010
0001
1000
0100
0001
1000
0010
,  // measure 18
0001
0010
1000
0010
0001
0100
1000
0001
,  // measure 19
0100
0100
0100
0100
0010
0010
0010
0010
1000
1000
0001
0001
1000
0100
0010
0001
,  // measure 20
0100
0000
0010
1000
0001
0000
0010
0000
1010
0000
1000
0100
0010
0000
0001
0000
,  // measure 21
0101
0000
0100
0000
1000
0100
0010
0000
MMMM
0000
0100
0000
0010
1000
0100
0010
,  // measure 22
0001
0000
0010
0100
1000
0000
0010
0000
1010
0000
0100
0010
0001
0000
0100
0000
,  // measure 23
0011
0000
1000
0000
0010
0001
0100
0000
MMMM
0000
1000
0000
0001
0010
0100
1000
,  // measure 24
0010
0000
0001
0010
0100
0000
0010
0000
1001
0000
0100
0010
0001
0000
1000
0000
,  // measure 25
1001
0000
0001
0000
0100
0010
1000
0000
MMMM
0000
0010
0000
0001
0010
0100
1000
,  // measure 26
0010
0000
0110
0000
0000
0000
0100
0010
1000
0000
0001
0000
1001
0000
1000
0000
,  // measure 27
1001
0000
0000
0000
MMMM
0000
0000
0000
1000
0100
1000
0100
0010
0001
0010
0001
,  // measure 28
0100
0000
1000
1010
MMMM
0010
0001
0100
,  // measure 29
0010
0000
0010
0100
0000
0100
1000
0000
1000
0001
0000
0001
,  // measure 30
0010
0100
1000
0001
0100
0010
1000
0100
0010
0001
0000
0100
,  // measure 31
0010
0000
0000
0000
MMMM
0000
0000
0000
1010
0000
1000
0100
0010
0000
0001
0000
,  // measure 32
0100
0000
0100
0110
MMMM
0001
0010
1000
,  // measure 33
0100
0000
0100
0010
0000
0010
0001
0000
0001
1000
0000
1000
,  // measure 34
0001
0001
0010
0010
0100
0100
1000
1000
0010
0010
0000
0100
,  // measure 35
0100
0000
0000
0000
MMMM
0000
0000
0000
0011
0000
0001
0100
0010
0000
1000
0000
,  // measure 36
0100
0000
0000
0100
1000
0000
0100
1000
0100
0000
0000
MMMM
0000
0000
0001
0000
,  // measure 37
0010
0000
0000
0010
0001
0000
0010
0001
0010
0000
0000
MMMM
0000
0000
1000
0000
,  // measure 38
0001
0000
0010
0001
MMMM
0101
0000
1100
,  // measure 39
MMMM
1000
0001
0100
0010
0010
1000
0100
,  // measure 40
0001
0010
0001
0100
0001
0010
MMMM
0100
,  // measure 41
1000
0010
1000
0100
1000
0010
1000
0100
,  // measure 42
MMMM
0000
0100
0001
0100
0000
0010
0000
MMMM
0000
0001
0000
0010
0000
0100
0000
,  // measure 43
1000
0100
0010
0001
1000
0010
0100
0001
1000
0100
0010
0001
0010
0100
1000
0010
,  // measure 44
0100
0000
0010
0110
MMMM
1000
0010
0100
,  // measure 45
0001
0000
0001
0010
0000
0010
0100
0000
0100
1000
0000
1000
,  // measure 46
0001
0010
0001
0010
0100
0010
0100
1000
0100
1000
0000
0001
,  // measure 47
1000
0000
0000
0000
MMMM
0000
0000
0000
0101
0000
0010
1000
0100
0000
0010
0000
,  // measure 48
0001
0000
0001
0101
MMMM
0001
0010
1000
,  // measure 49
0100
0000
0100
0010
0000
0010
1000
0000
1000
0001
0000
0001
,  // measure 50
1000
0010
1000
0010
0100
0010
0100
0001
0100
0001
0000
0001
,  // measure 51
0100
0000
0000
0000
MMMM
0000
0000
0000
1100
0000
0010
0001
0100
0000
1000
0000
,  // measure 52
0010
0000
0001
0010
0100
0000
1000
0000
1100
0000
0100
0010
0001
0000
0100
0000
,  // measure 53
0101
0000
0001
0000
0010
0001
0100
0000
MMMM
0000
1000
0000
0100
0010
1000
0010
,  // measure 54
0100
0000
0010
0100
0001
0000
0010
0000
1010
0000
1000
0100
0010
0000
0001
0000
,  // measure 55
1001
0000
1000
0000
0010
0001
0100
0000
MMMM
0000
1000
0000
0001
0010
0100
1000
,  // measure 56
0010
0000
0000
0000
;
