#VERSION:0.83;
#TITLE:BOP TO THE TOP;
#SUBTITLE:;
#ARTIST:HIGH SCHOOL MUSICAL;
#TITLETRANSLIT:;
#SUBTITLETRANSLIT:;
#ARTISTTRANSLIT:;
#GENRE:;
#ORIGIN:;
#CREDIT:;
#BANNER:BOP TO THE TOP.png;
#BACKGROUND:BOP TO THE TOP-bg.png;
#PREVIEWVID:;
#JACKET:;
#CDIMAGE:;
#DISCIMAGE:;
#LYRICSPATH:;
#CDTITLE:;
#MUSIC:BOP TO THE TOP.mp3;
#OFFSET:-0.038000;
#SAMPLESTART:44.966000;
#SAMPLELENGTH:15.000000;
#SELECTABLE:YES;
#DISPLAYBPM:115.000000;
#BPMS:0.000=116.000,
4.000=115.000;
#STOPS:;
#DELAYS:;
#WARPS:;
#TIMESIGNATURES:0.000=4=4;
#TICKCOUNTS:0.000=4;
#COMBOS:0.000=1;
#SPEEDS:0.000=1.000=0.000=0;
#SCROLLS:0.000=1.000;
#FAKES:;
#LABELS:0.000=Song Start;
#BGCHANGES:0.000=BOP TO THE TOP.avi=1.000=0=0=0=StretchNoLoop====,
99999=-nosongbg-=1.000=0=0=0 // don't automatically add -songbackground-
;
#KEYSOUNDS:;
#ATTACKS:
;

//---------------dance-single - ----------------
#NOTEDATA:;
#CHARTNAME:;
#STEPSTYPE:dance-single;
#DESCRIPTION:;
#CHARTSTYLE:;
#DIFFICULTY:Beginner;
#METER:2;
#RADARVALUES:0.084298,0.118375,0.038070,0.000000,0.000000,62.000000,58.000000,4.000000,0.000000,0.000000,0.000000,0.000000,0.000000,0.000000,0.084298,0.118375,0.038070,0.000000,0.000000,62.000000,58.000000,4.000000,0.000000,0.000000,0.000000,0.000000,0.000000,0.000000;
#CREDIT:;
#DISPLAYBPM:111.000000:116.000000;
#NOTES:
0000
0000
0000
0000
,
0000
0000
0000
0000
,
0000
0000
0000
0000
,
0010
0000
0000
0000
,
1000
0000
0000
0000
,
0001
0000
0000
0000
,
0100
0000
0000
0000
,
0100
0000
0000
0000
,
0010
0000
0000
0000
,
1000
0000
0000
0000
,
1000
0000
0000
0000
,
0001
0000
0000
0000
,
0100
0000
0000
0000
,
0010
0000
0000
0000
,
0001
0000
0000
0000
,
1000
0000
0000
0000
,
1001
0000
0000
0000
,
0010
0000
0000
0000
,
1001
0000
0000
0000
,
0100
0000
0000
0000
,
0100
0000
0000
0000
,
0010
0000
0000
0000
,
1000
0000
0001
0000
,
1000
0000
0000
0000
,
0100
0000
0010
0000
,
0100
0000
0000
0000
,
0001
0000
1000
0000
,
0001
0000
0000
0000
,
0010
0000
0100
0000
,
0010
0000
0000
0000
,
0100
0000
0000
0000
,
1000
0000
0000
0000
,
0001
0000
0000
0000
,
0010
0000
0000
0000
,
0001
0000
0000
0000
,
1000
0000
1000
0000
,
0100
0000
0000
0000
,
0010
0000
0000
0000
,
0100
0000
0001
0000
,
0001
0000
0100
0000
,
1000
0000
0000
0000
,
1000
0000
0001
0000
,
0010
0000
0000
0000
,
0100
0000
0010
0000
,
0100
0000
0000
0000
,
1000
0000
0001
0000
,
0010
0000
0000
0000
,
0100
0000
0000
0000
,
0110
0000
0000
0000
,
0010
0000
0000
0110
;

//---------------dance-single - ----------------
#NOTEDATA:;
#CHARTNAME:;
#STEPSTYPE:dance-single;
#DESCRIPTION:;
#CHARTSTYLE:;
#DIFFICULTY:Easy;
#METER:4;
#RADARVALUES:0.157719,0.189399,0.038070,0.104693,0.000000,116.000000,112.000000,4.000000,11.000000,0.000000,0.000000,0.000000,0.000000,0.000000,0.157719,0.189399,0.038070,0.104693,0.000000,116.000000,112.000000,4.000000,11.000000,0.000000,0.000000,0.000000,0.000000,0.000000;
#CREDIT:;
#DISPLAYBPM:111.000000:116.000000;
#NOTES:
0000
0000
0000
0000
,
0000
0000
0000
0000
,
0000
0000
0000
0000
,
0010
0000
0000
0000
,
0100
0100
1000
0000
,
0001
0000
0010
0000
,
1000
1000
0001
0000
,
0001
0001
0100
0000
,
0010
0000
1000
0000
,
0100
0001
0100
0000
,
0010
0000
1000
0000
,
0001
0000
0000
0000
,
1000
0000
0010
0000
,
0100
0010
0100
0000
,
0001
0000
1000
0000
,
0001
0001
0010
0000
,
0100
0000
1000
0000
,
0001
0000
0100
0000
,
0010
0010
1000
0000
,
0100
0100
0001
0000
,
1000
0000
0001
0000
,
0100
0000
0010
0010
,
0100
0000
1000
0000
,
0001
0000
0010
0000
,
0100
0100
0010
0000
,
1000
0000
0001
0000
,
0002
0100
0013
0000
,
2000
0100
3010
0000
,
0200
0001
0310
0000
,
1000
0001
1001
0000
,
0001
0000
0100
0000
,
2000
0010
3100
0000
,
0001
0000
0100
0000
,
0210
0000
0302
0000
,
1003
0000
0010
0000
,
0100
0001
0001
0000
,
0010
0000
1000
0000
,
0200
1000
1300
0000
,
0001
0000
0010
0000
,
0100
0100
0010
0000
,
0001
0000
2000
0000
,
3100
0100
0010
0000
,
0010
0000
1000
0000
,
0001
0000
1001
0000
,
0010
0000
0100
0000
,
0001
0000
0010
0000
,
2000
0000
3200
0000
,
0320
0000
0031
0000
,
1000
1000
0100
0000
,
0010
0000
0000
1001
;

//---------------dance-single - ----------------
#NOTEDATA:;
#CHARTNAME:;
#STEPSTYPE:dance-single;
#DESCRIPTION:;
#CHARTSTYLE:;
#DIFFICULTY:Medium;
#METER:7;
#RADARVALUES:0.315439,0.355124,0.142763,0.019035,0.000000,232.000000,217.000000,15.000000,2.000000,0.000000,0.000000,0.000000,0.000000,0.000000,0.315439,0.355124,0.142763,0.019035,0.000000,232.000000,217.000000,15.000000,2.000000,0.000000,0.000000,0.000000,0.000000,0.000000;
#CREDIT:;
#DISPLAYBPM:111.000000:116.000000;
#NOTES:
0000
0000
0000
0000
,
0000
0000
0000
0000
,
0000
0000
0000
0000
,
1000
0001
0100
0010
,
1000
1000
0100
0000
,
0010
0000
0001
0000
0100
0000
0010
1000
,
0010
0100
0001
0010
,
1000
0000
1000
0000
0100
0000
0001
0010
,
0001
0100
1000
0010
,
0100
0000
0001
0000
0010
0000
1000
0100
,
1000
0010
0100
0001
,
1000
0000
0010
0100
0001
0000
0100
1000
,
0010
0100
1000
1000
,
0100
0001
0001
0010
,
0100
1000
1000
0001
,
0100
0010
0100
0000
0110
0000
1000
0000
,
0001
1000
0010
0100
,
0001
0000
1000
0100
1000
0000
0010
0001
,
0010
0000
0100
0000
1000
0000
0010
0100
,
0001
0000
0010
0000
0100
0000
1000
0010
,
0100
0000
0100
0010
1000
0000
1000
0001
,
0010
0000
0010
0000
0100
0000
1000
0001
,
1000
1000
0001
0001
,
0010
0000
0010
0000
0100
0000
1000
0100
,
1000
0010
0100
0001
,
0001
0010
0100
1000
,
1000
0000
0010
0000
0100
0001
0100
0000
,
0010
0000
1000
0000
0001
0010
0001
0000
,
0010
0000
0100
0000
1000
0010
1000
0000
,
0100
0010
0001
0100
,
1001
0100
1001
0010
,
1100
1000
0011
0001
,
0110
1001
0110
1000
,
0001
0100
0001
0000
1000
0100
1000
0000
,
0010
0100
0001
1000
,
0100
1000
0100
0000
0001
0010
0001
0000
,
1000
0010
0100
0001
,
1000
0001
1000
0000
0010
0000
0100
0000
,
0001
1000
0001
0000
1000
0001
1000
0000
,
0110
1000
0110
0001
,
0001
0000
0010
0000
0100
1000
0100
0000
,
1001
0001
1001
1000
,
0110
0000
1000
0000
0100
0000
0010
0001
,
0010
0000
0100
0000
1000
0001
1000
0000
,
0010
0000
0100
0000
0001
0010
1000
0000
,
1000
0010
0001
0000
0001
0010
1000
0000
,
0002
0000
2003
0000
,
0010
0010
3001
0100
,
0001
0010
0001
0000
0100
1000
0100
0000
,
0001
1000
0110
1001
;

//---------------dance-single - ----------------
#NOTEDATA:;
#CHARTNAME:;
#STEPSTYPE:dance-single;
#DESCRIPTION:;
#CHARTSTYLE:;
#DIFFICULTY:Hard;
#METER:10;
#RADARVALUES:0.388860,0.449823,0.152281,0.076140,0.209386,286.000000,270.000000,16.000000,8.000000,0.000000,0.000000,0.000000,0.000000,0.000000,0.388860,0.449823,0.152281,0.076140,0.209386,286.000000,270.000000,16.000000,8.000000,0.000000,0.000000,0.000000,0.000000,0.000000;
#CREDIT:;
#DISPLAYBPM:111.000000:116.000000;
#NOTES:
0000
0000
0000
0000
,
0000
0000
0000
0000
,
0000
0000
0000
0000
,
1000
0000
0000
0000
0010
0000
0000
0001
0000
0001
0000
0100
0010
0000
0000
0000
,
1000
0000
0000
0000
0010
0000
0100
0001
0000
0000
0000
0000
1000
0000
0001
0000
,
0100
0000
0000
0000
0010
0000
1000
0100
0000
0000
0000
0000
0001
0000
0000
0000
,
0001
0000
0000
0000
0100
0000
0010
1000
0000
0000
0000
0000
0001
0000
1000
0000
,
0010
0000
0000
0000
0100
0000
0001
0010
0000
0000
0000
0000
1000
0000
0010
0000
,
0100
0000
0000
0000
0001
0000
0000
0010
0000
0010
0000
0000
0100
0000
1000
0000
,
0100
0000
0000
0000
1000
0000
0000
0001
0000
0001
0000
0000
0100
0000
0001
0000
,
0010
0000
0000
0000
1000
0000
0000
0100
0000
0001
0000
0000
0010
0000
1000
0000
,
0100
0000
1000
0000
0001
0010
0001
0000
,
0010
0000
0000
0000
1000
0000
0000
0100
0000
0100
0000
0000
0010
0000
0001
0000
,
0010
0000
0000
0000
0001
0000
0000
1000
0000
1000
0000
0000
0010
0000
1000
0000
,
0100
0000
0000
0000
0001
0000
0000
0010
0000
1000
0000
0000
0100
0000
0001
0000
,
0110
0000
0000
1100
0000
0000
0011
0000
0000
0000
0000
1000
0100
0000
0000
0000
,
0010
0100
0001
0000
0010
0100
1000
0000
,
0001
0100
1000
0000
1000
0100
0001
0000
,
0010
0100
1000
0000
0100
0010
0001
0000
,
1000
0100
0001
0000
0001
0100
1000
0000
,
0001
0000
0010
0000
0100
0000
1000
0010
,
1000
0000
0000
0000
0001
0000
0000
0000
0010
0000
0000
0001
1000
0000
0100
0000
,
2100
3010
0012
0103
,
0001
0010
1000
0010
0001
0100
0010
0000
,
1000
0100
1000
0000
0001
0010
0001
0000
,
1000
0000
0010
0000
0100
0001
0000
0001
0000
0000
0000
0000
1000
0000
0001
0000
,
0012
1003
2001
3100
,
0010
0001
1000
0100
0010
0001
1000
0000
,
0010
0100
0001
0000
0010
0100
1000
0000
,
0001
0100
1000
0000
1000
0100
0001
0000
,
0001
0000
0010
0000
0100
0000
0000
1000
0000
0010
0000
0000
0100
0000
0000
0000
,
0001
0000
0100
0000
1000
0000
0000
0100
0000
0001
0000
0000
0010
0000
0000
0000
,
1000
0000
0100
0000
0010
0000
0000
0001
0000
0100
0000
0000
0010
0000
0000
0000
,
1000
0000
0010
0000
0001
0000
0000
0010
0000
1000
0000
0000
0100
0000
0000
0000
,
0010
1000
0010
0000
0100
0001
0100
0000
,
0001
0010
0001
0000
0100
1000
0100
0000
,
0010
0001
0100
0000
0100
0001
0010
0000
,
2001
3010
1002
0103
,
0010
0010
0100
0100
0001
1000
1001
0000
,
0000
0000
0010
0000
0001
0000
0000
0000
1000
0000
0000
0010
0000
0000
0100
0000
,
0000
0000
0001
0000
0010
0000
0000
0000
0100
0000
0000
1000
0000
0000
0010
0000
,
0000
0000
0100
0000
1000
0000
0000
0000
0001
0000
0000
0100
0000
0000
0010
0000
,
0000
0000
1000
0000
0100
0000
0000
0000
0010
0000
0000
0001
0000
0000
0100
0000
,
0010
0000
1000
0000
0010
0000
0000
0000
0100
0000
0000
0001
0000
0000
0010
0000
,
0100
0000
1000
0000
0100
0000
0000
0000
0001
0000
0000
0100
0000
0000
1000
0000
,
0100
0000
0001
0000
0100
0000
0000
0000
0010
0000
0000
1000
0000
0000
0100
0000
,
0012
0103
0210
1000
,
0001
0000
1000
0000
0301
0000
1000
0100
,
0110
0000
0000
0000
0011
0000
0000
1100
0000
0000
0000
0010
0001
0000
0100
0000
,
0001
0000
0010
0000
0100
1000
0000
0110
0000
0000
0000
1000
0001
0000
0000
0000
;

//---------------dance-double - ----------------
#NOTEDATA:;
#CHARTNAME:;
#STEPSTYPE:dance-double;
#DESCRIPTION:;
#CHARTSTYLE:;
#DIFFICULTY:Easy;
#METER:3;
#RADARVALUES:0.146842,0.165724,0.009518,0.019035,0.000000,108.000000,107.000000,1.000000,2.000000,0.000000,0.000000,0.000000,0.000000,0.000000,0.146842,0.165724,0.009518,0.019035,0.000000,108.000000,107.000000,1.000000,2.000000,0.000000,0.000000,0.000000,0.000000,0.000000;
#CREDIT:;
#DISPLAYBPM:111.000000:116.000000;
#NOTES:
00000000
00000000
00000000
00000000
,
00000000
00000000
00000000
00000000
,
00000000
00000000
00000000
00000000
,
00000001
00000000
00000100
00000000
,
00000010
00000000
00001000
00000000
,
00000100
00010000
00001000
00000000
,
01000000
00000000
00100000
00000000
,
10000000
01000000
00010000
00000000
,
00001000
00000000
00010000
00000000
,
00000100
00000010
00000010
00000000
,
00000001
00000000
00000100
00000000
,
00001000
00010000
00010000
00000000
,
01000000
00000000
10000000
00000000
,
00100000
00010000
00010000
00000000
,
00000100
00000000
00001000
00000000
,
00000010
00000001
00000001
00000000
,
00000200
00000000
00001000
00000300
,
00020000
00000000
00001000
00030000
,
00001000
00000000
01000000
00000000
,
00100000
10000000
10000000
00000000
,
01000000
00100000
00000000
00000000
,
00001000
00010000
00000000
00000000
,
00000100
00000000
00001000
00000000
,
00000001
00000000
00000100
00000000
,
00000100
00000000
00010000
00000000
,
00001000
00000000
00100000
00000000
,
00100000
00000000
00010000
00000000
,
10000000
00000000
00100000
00000000
,
01000000
00000000
00001000
00000000
,
00010000
00000000
00000100
00000000
,
00000010
00000010
00000001
00000000
,
00000100
00000100
00001000
00000000
,
00010000
00000000
00001000
00000000
,
00100000
01000000
01000000
00000000
,
10000000
00000000
00010000
00000000
,
01000000
00000000
00100000
00000000
,
00001000
00000000
00010000
00000000
,
00000010
00000000
00000100
00000000
,
00000001
00000000
00001000
00000000
,
00000100
00000000
00010000
00000000
,
00001000
00000000
00100000
00000000
,
01000000
00000000
10000000
00000000
,
00100000
00000000
01000000
00000000
,
00001000
00000000
00010000
00000000
,
00000010
00000000
00000100
00000000
,
00000001
00000000
00000010
00000000
,
00000100
00000100
00001000
00000000
,
00010000
00010000
00001000
00000000
,
00100000
00100000
00010000
00000000
,
01000000
00000000
00000000
01100000
;

//---------------dance-double - ----------------
#NOTEDATA:;
#CHARTNAME:;
#STEPSTYPE:dance-double;
#DESCRIPTION:;
#CHARTSTYLE:;
#DIFFICULTY:Medium;
#METER:6;
#RADARVALUES:0.288246,0.307774,0.085658,0.095176,0.009518,212.000000,203.000000,9.000000,10.000000,0.000000,0.000000,0.000000,0.000000,0.000000,0.288246,0.307774,0.085658,0.095176,0.009518,212.000000,203.000000,9.000000,10.000000,0.000000,0.000000,0.000000,0.000000,0.000000;
#CREDIT:;
#DISPLAYBPM:111.000000:116.000000;
#NOTES:
00000000
00000000
00000000
00000000
,
00000000
00000000
00000000
00000000
,
00000000
00000000
00000000
00000000
,
00010000
00100000
10000000
00100000
,
00010000
00010000
01000000
00000000
,
00001000
00000000
00010000
00000000
00000100
00000000
00001000
00000001
,
00000100
00000100
00000010
00001000
,
00000001
00000000
00000001
00000000
00000010
00000000
00001000
00010000
,
00002000
00003000
00020000
00030000
,
00100000
00000000
00010000
00000000
01000000
00000000
10000000
01000000
,
00200000
00300000
02000000
03000000
,
00100000
00000000
01000000
00001000
00010000
00000000
00001000
00010000
,
00000100
00001000
00000001
00000001
,
00000100
00000010
00000010
00001000
,
00000100
00010000
00010000
00001000
,
00010000
00000000
00000000
00001000
00000000
00000000
00010000
00000000
00000000
00000000
00000000
00000000
00011000
00000000
00000000
00000000
,
00100000
00010000
10000000
01000000
,
00010000
00000000
01000000
10000000
00100000
00000000
01000000
00010000
,
00100000
00000000
00001000
00000000
00010000
00000000
00000100
00001000
,
00000010
00000000
00000100
00000001
00000010
00000000
00001000
00000000
,
00000000
00000200
00000300
00002000
,
00003000
00020000
00030000
00200000
,
10300000
10000000
10000000
00000000
00010000
00000000
10000000
00000000
,
01000000
00010000
00001000
00000100
,
00000001
00000001
00000001
00000000
00001000
00000000
00000001
00000000
,
00000010
00001000
00010000
00100000
,
10000000
10000000
10000000
00000000
00010000
00010000
00010000
00000000
,
01000000
00001000
00010000
00000100
,
00001000
00000010
00000100
00000010
,
00010000
00001000
00100000
01000000
,
01100000
00010000
10000000
00010000
,
01100000
00010000
00001000
00000100
,
00000110
00001000
00000001
00001000
,
00000100
00010000
00010000
00000000
00000000
00001000
00001000
00000000
,
00100000
00010000
10000000
00010000
,
01000000
00100000
01000000
00000000
00010000
10000000
00010000
00000000
,
00100000
00001000
00010000
00000010
,
00000100
00000001
00000100
00000000
00000010
00000000
00001000
00000000
,
00000100
00001000
00000100
00000000
00010000
00001000
00010000
00000000
,
00011000
00001000
00011000
00010000
,
01000000
00000000
10000000
00000000
00100000
10000000
00100000
00000000
,
01100000
01000000
01100000
00100000
,
00010000
00000000
00001000
00000000
00000100
00000000
00000001
00000010
,
00000001
00000000
00001000
00000000
00000100
00001000
00000100
00000000
,
00010000
00001000
01000000
00100000
,
10000000
01000000
00100000
00000000
00010000
01000000
00100000
00000000
,
00020000
00000000
00032000
00000000
,
00010000
00013000
00001000
00000100
,
00000001
00000010
00000001
00000000
00001000
00000100
00001000
00000000
,
00000010
00000000
00000000
00000000
00001000
00000000
00000000
00000001
00000000
00000000
00000000
00000000
00001001
00000000
00000000
00000000
;

//---------------dance-double - ----------------
#NOTEDATA:;
#CHARTNAME:;
#STEPSTYPE:dance-double;
#DESCRIPTION:;
#CHARTSTYLE:;
#DIFFICULTY:Hard;
#METER:7;
#RADARVALUES:0.399737,0.449823,0.199869,0.066623,0.276009,294.000000,273.000000,21.000000,7.000000,0.000000,0.000000,0.000000,0.000000,0.000000,0.399737,0.449823,0.199869,0.066623,0.276009,294.000000,273.000000,21.000000,7.000000,0.000000,0.000000,0.000000,0.000000,0.000000;
#CREDIT:;
#DISPLAYBPM:111.000000:116.000000;
#NOTES:
00000000
00000000
00000000
00000000
,
00000000
00000000
00000000
00000000
,
00000000
00000000
00000000
00000000
,
00000001
00000000
00000000
00000000
00000100
00000000
00000000
00001000
00000000
00010000
00000000
00001000
00010000
00000000
00001000
00000000
,
00011000
00000000
00000000
00000000
00100000
00000000
00010000
01000000
00000000
00000000
00000000
00000000
10000000
00000000
01000000
00000000
,
00010000
00000000
00000000
00000000
00100000
00000000
01000000
10000000
00000000
00000000
00000000
00000000
01000000
00000000
00010000
00000000
,
00001000
00000000
00000000
00000000
00000100
00000000
00000010
00001000
00000000
00000000
00000000
00000000
00000001
00000000
00000010
00000000
,
00000100
00000000
00000000
00000000
00001000
00000000
00000001
00000100
00000000
00001000
00000000
00000000
00010000
00000000
00000000
00000000
,
00011000
00000000
00000000
00000000
00001000
00000000
00000000
00100000
00000000
00001000
00000000
00000000
00010000
00000000
01000000
00000000
,
10000000
00000000
00000000
00000000
00100000
00000000
00000000
01000000
00000000
00001000
00000000
00000000
00010000
00000000
00000100
00000000
,
00001000
00000000
00000000
00000000
00000001
00000000
00000000
00000100
00000000
00000010
00000000
00000000
00001000
00000000
00000100
00000000
,
00010000
00000000
00000000
00000000
00001000
00000000
00000000
00000000
00010000
00001000
00000000
00000000
00011000
00000000
00000000
00000000
,
01010000
00000000
00000000
00000000
00100000
00000000
00000000
10000000
00000000
01000000
00000000
00000000
00100000
00000000
00010000
00000000
,
00100000
00000000
00000000
00000000
01000000
00000000
00000000
10000000
00000000
00100000
00000000
00000000
01000000
00000000
00001000
00000000
,
00010000
00000000
00000000
00000000
00000100
00000000
00000000
00000010
00000000
00000001
00000000
00000000
00000100
00000000
00000010
00000000
,
00010000
00000000
00001000
00010000
00000000
00010000
00002000
00000000
00000000
00000000
00000000
00000000
00003000
00000000
00000000
00000000
,
00010000
00000000
00000000
00000000
01000000
00000000
00000000
10000000
00000000
10000000
00000000
00000000
01000000
00000000
00100000
00000000
,
10000000
00010000
10000000
00000000
10000000
01000000
00010000
00000000
,
00001000
00000000
00000000
00000000
00000100
00000000
00000000
00000000
00000001
00000000
00000000
00000010
00000000
00000010
00000000
00000000
,
00000001
00001000
00000010
00000100
00000001
00000000
00001001
00000000
,
00000002
00000000
00000003
00000100
00002000
00000000
00003000
00010000
,
02000000
00000000
03000000
10000000
00100000
00000000
10010000
00000000
,
01000000
00000000
01000000
00000000
01000000
00000000
00000000
00100000
00000000
00100000
00000000
00000000
00100000
00000000
10000000
00000000
,
00010000
00100000
00001000
00010000
00000010
00001000
00000001
00000000
,
00000100
00000000
00000100
00000000
00000100
00000000
00000000
00000010
00000000
00000010
00000000
00000000
00000010
00000000
00001000
00000000
,
00000100
00000000
00000000
00000000
00000000
00010000
00000000
00001000
00000000
00000000
00000000
00000000
00011000
00000000
00000000
00000000
,
01000000
00000000
01000000
00000000
01000000
00000000
00000000
00100000
00000000
00100000
00000000
00100000
10000000
00000000
00000000
00000000
,
00010000
01000000
00100000
01000000
00010000
00100000
00001000
00000000
,
00010000
00000100
00001000
00000000
00000001
00000100
00000010
00000000
,
00001000
00000100
00010000
00000000
00001000
00010000
00011000
00011000
,
00011000
00000000
00000000
00000000
00100000
00000000
00000000
00010000
00000000
10000000
00000000
00000000
00010000
00000000
00000000
00000000
,
01000000
00000000
00100000
00000000
00010000
00000000
00000000
00001000
00000000
00000100
00000000
00000000
00000010
00000000
00000000
00000000
,
00001000
00000000
00000100
00000000
00000010
00000000
00000000
00000001
00000000
00001000
00000000
00000000
00000001
00000000
00000000
00000000
,
00000100
00001000
00001000
00000000
00000000
00010000
00010000
00000000
,
01000000
00110000
01000000
11000000
,
00010000
10000000
00010000
00000000
00100000
00001000
00100000
00000000
,
00000100
00010000
00000100
00000000
00001000
00000001
00001000
00000000
,
00000100
00000000
00001000
00000100
00001000
00000000
00000000
00000000
00000001
00000000
00000100
00000001
00000100
00000000
00000000
00000000
,
00000101
00000000
00001010
00000000
00010000
00001000
00010000
00000000
,
01000000
00000000
01000000
00000000
01000000
00000000
00000000
00100000
00000000
00100000
00000000
00000000
00100000
00000000
10000000
00000000
,
00010000
00100000
00001000
00010000
00000010
00001000
00000001
00000000
,
00000100
00000000
00000100
00000000
00000100
00000000
00000000
00000010
00000000
00000010
00000000
00000000
00000010
00000000
00001000
00000000
,
00000100
00000000
00000000
00000000
00000000
00010000
00000000
00001000
00000000
00000000
00000000
00000000
00011000
00000000
00000000
00000000
,
01000000
00000000
01000000
00000000
01000000
00000000
00000000
00100000
00000000
00100000
00000000
00100000
10000000
00000000
00000000
00000000
,
00010000
01000000
00100000
01000000
00010000
00100000
00001000
00000000
,
00010000
00000100
00001000
00000000
00000010
00000100
00000001
00000000
,
00000020
00000000
00002000
00000030
,
00200000
00000000
00000000
00000000
00003000
00000000
00000000
00000000
00300000
01000000
00000000
00000000
10000000
00000000
00010000
00000000
,
10010000
00000000
00000000
00000000
01010000
00000000
00000000
00110000
00000000
00000000
00000000
00001000
00010000
00000000
00000100
00000000
,
00001100
00000000
00000000
00000000
00001010
00000000
00000000
00001001
00000000
00000000
00000000
00000001
00001000
00000000
00000000
00000000
;

//---------------dance-single - ----------------
#NOTEDATA:;
#CHARTNAME:;
#STEPSTYPE:dance-single;
#DESCRIPTION:;
#CHARTSTYLE:;
#DIFFICULTY:Challenge;
#METER:14;
#RADARVALUES:0.721974,0.804947,0.770922,0.466360,1.046931,531.000000,450.000000,81.000000,49.000000,0.000000,0.000000,0.000000,0.000000,0.000000,0.721974,0.804947,0.770922,0.466360,1.046931,531.000000,450.000000,81.000000,49.000000,0.000000,0.000000,0.000000,0.000000,0.000000;
#CREDIT:;
#DISPLAYBPM:111.000000:115.000000;
#NOTES:
// measure 0
0000
0000
0000
0000
,  // measure 1
0000
0000
0000
0000
,  // measure 2
0000
0000
0000
0000
,  // measure 3
0001
0000
0010
0000
0100
1000
0000
1100
0000
1010
0000
1000
0100
0000
0101
0000
,  // measure 4
0001
0000
0000
0010
0000
0000
0001
0000
0000
0100
0000
0000
0010
0000
0000
0000
0000
0000
1000
0000
0000
0000
0000
0000
0010
0000
0100
0000
0000
0000
0010
0000
0100
0000
0000
0000
0010
0000
0000
1000
0000
0000
0001
0000
0000
0100
0000
0000
,  // measure 5
0010
0000
0001
0000
1000
0100
0000
0100
0010
0000
0001
0000
1000
0001
0100
0010
,  // measure 6
1000
0000
1010
0000
0010
0001
0000
0001
1000
0000
0001
0000
0010
0100
1000
0100
,  // measure 7
0020
0001
0000
1000
0000
0000
0000
0000
0000
1000
0000
0031
0010
0000
0000
0000
,  // measure 8
1010
0000
0001
0100
0000
1010
0000
1100
0000
0021
0000
0000
0130
0000
1000
0001
,  // measure 9
0100
0000
1001
0010
0000
0101
0000
1010
0000
1200
0000
0000
0310
0000
1000
0100
,  // measure 10
0010
0000
0101
0010
0000
1001
0000
0011
0000
0102
0010
0000
0013
0000
0100
0010
,  // measure 11
1000
0000
1010
0100
0000
0011
0200
0000
0000
0001
0000
0310
0100
0000
0000
0000
,  // measure 12
1001
0000
0010
0001
0000
1001
0000
0101
0000
0120
0000
0000
1030
0000
0010
0100
,  // measure 13
0001
0000
0110
1000
0000
0110
0000
1001
0000
2010
0000
0000
3001
0000
0010
0100
,  // measure 14
1000
0000
0010
1100
0000
0011
0000
0101
0000
2010
0100
0000
0000
0000
3010
0000
,  // measure 15
1010
0000
0110
1001
0000
0011
2200
0000
0000
0000
3000
0010
0310
0000
0000
0000
,  // measure 16
1010
0000
0000
0000
0101
0000
0000
1100
0000
0011
0000
0000
0110
0000
1010
0000
,  // measure 17
0001
1000
0010
0100
0001
0010
0100
2000
0000
0100
0000
0010
3001
0000
0100
0010
,  // measure 18
1001
0000
0010
0001
0100
0000
0000
0100
0010
0000
1000
0100
0010
0001
0010
0100
,  // measure 19
0001
0000
0010
0000
0000
0000
0001
0000
0100
0000
0000
0000
0010
0000
0000
0000
0000
0000
1000
0000
0000
0100
0000
0000
0010
0000
0000
0001
0000
0000
0010
0000
0000
0100
0000
0000
1000
0000
0000
0010
0000
0000
0100
0000
0000
0001
0000
0000
,  // measure 20
0020
0000
0000
0000
0000
0130
0010
0001
,  // measure 21
0100
0000
0000
0000
0000
0000
0020
0000
0000
0000
0000
0000
0000
0000
0000
0000
0000
0000
0000
0000
0000
0000
0000
0000
0000
0000
0000
0000
1030
0000
0000
0000
0000
0100
0000
0000
0010
0000
0000
0000
0000
0000
0101
0000
0000
0000
0000
0000
,  // measure 22
1000
0000
0100
0000
0000
0000
0001
0000
0100
0000
0000
0000
1000
0000
0000
0000
0000
0000
0100
0000
0000
0001
0000
0000
0000
0000
0000
1001
0000
0000
0000
0000
0000
1000
0000
0000
0100
0000
0000
0000
0000
0000
0000
0000
0000
0000
0000
0000
,  // measure 23
1100
0020
0000
0001
0000
1000
0000
0001
0000
0100
0000
0001
0000
1030
0000
0000
,  // measure 24
0001
0000
0010
0000
0000
0000
1000
0000
0010
0000
0000
0000
0001
0000
0000
0000
0000
0000
0011
0000
0000
0100
0000
0000
0000
0000
0000
1100
0000
0000
0000
0000
0000
0100
0000
0000
0010
0000
0000
0000
0000
0000
1001
0000
0000
0000
0000
0000
,  // measure 25
0001
0010
0100
1000
0100
0000
0020
0000
0002
0000
0000
0000
0033
0000
0000
0000
,  // measure 26
0001
0000
0010
0000
0000
0000
0010
0000
0100
0000
0000
0000
1000
0000
0000
0000
0000
0000
0101
0000
0000
1000
0000
0000
0000
0000
0000
1010
0000
0000
0000
0000
0000
0001
0000
0000
0100
0000
0000
0000
0000
0000
0110
0000
0000
0000
0000
0000
,  // measure 27
0011
0200
0000
1000
0000
0001
0000
0010
0000
0001
0000
0000
0000
0300
0000
0000
,  // measure 28
1100
0000
0110
0000
1010
0000
0000
0101
0000
0000
1000
0000
0100
0000
0010
1000
,  // measure 29
0001
0010
0100
0010
0001
0010
0100
0010
0001
0010
0100
1000
0001
1000
0100
1000
,  // measure 30
0010
0000
0001
0010
0100
0000
1000
0100
0000
0110
0000
0101
0010
0000
1010
0000
,  // measure 31
1001
0000
0000
0000
0101
0000
0010
1100
0000
0000
0010
0100
0010
0100
0000
0000
,  // measure 32
1001
0000
0001
0010
0100
0000
1000
0101
0000
0110
0000
1000
0020
0001
0000
0000
,  // measure 33
0030
0000
0000
0000
0002
0003
0200
0300
0002
0003
0200
0000
0000
0000
0000
0000
0000
0000
0300
0000
2000
3000
0020
0030
2000
3000
0020
0000
0000
0000
0000
0000
,  // measure 34
0032
0000
0000
0000
0000
0010
0000
0100
0000
1003
0000
0001
1000
0000
1001
0001
,  // measure 35
0100
0000
0000
0010
0000
0000
1000
0000
0000
0100
0000
0000
0010
0000
0000
0001
0000
0000
0100
0000
0000
0010
0000
0000
1000
0000
0000
0000
0100
0000
0000
0000
0010
0000
0000
0000
0001
0000
0000
0000
0010
0000
0000
0000
0100
0000
0000
0000
,  // measure 36
1000
0000
0000
0000
1001
0000
0011
0100
0000
1010
0000
0101
0000
1000
0110
0000
,  // measure 37
1000
0001
1000
0100
0010
0000
0011
0000
0000
0000
0100
0001
0010
0002
0000
0000
,  // measure 38
2003
0000
0000
0000
3020
0000
0000
0000
0031
0000
0100
0010
1000
0000
1010
0000
,  // measure 39
0010
0000
1000
0000
0000
0000
0001
0000
0100
0000
0000
0000
0010
0000
0000
0000
0000
0000
1000
0000
0000
0200
0000
0000
0000
0000
0000
0001
0000
0000
0000
0000
0000
0010
0000
0000
0310
0000
0000
0000
0000
0000
0000
0000
0000
0000
0000
0000
,  // measure 40
1010
0002
0000
0010
0000
0100
0000
1000
0000
0010
0000
0100
0000
0013
0000
0000
,  // measure 41
0100
0000
0010
0000
0000
0000
1000
0000
0001
0000
0000
0000
0100
0000
0000
0000
0000
0000
0001
0000
0000
0020
0000
0000
0000
0000
0000
0100
0000
0000
0000
0000
0000
0001
0000
0000
0031
0000
0000
0000
0000
0000
1010
0000
0000
0000
0000
0000
,  // measure 42
1000
0100
0010
0100
1000
0010
0000
0011
0000
0110
0000
0101
0000
1000
0100
0000
,  // measure 43
0001
0000
0010
0000
0000
0000
1000
0000
0100
0000
0000
0000
0010
0000
0000
0000
0000
0000
1000
0000
0000
0002
0000
0000
0000
0000
0000
0010
0000
0000
0000
0000
0000
1000
0000
0000
1003
0000
0000
0000
0000
0000
0000
0000
0000
0000
0000
0000
,  // measure 44
0011
2000
0000
0010
0000
0001
0000
0100
0000
3010
0000
0010
0100
0010
0000
0000
,  // measure 45
2000
0000
3200
0000
0301
0000
0001
0020
0000
0230
0000
2300
0000
3010
0001
0010
,  // measure 46
0100
0001
0100
0001
0100
0001
0100
0001
1000
0100
1000
0100
1000
0100
1000
0100
,  // measure 47
0010
0001
0010
0001
0010
0001
0010
0001
1000
0010
1000
0010
1000
0010
1000
0010
,  // measure 48
2001
0000
0000
0000
3002
0000
0000
0023
0000
0230
0000
1000
1300
0000
0000
0000
,  // measure 49
0120
0000
0000
0000
2030
0000
3020
0032
0000
0000
0203
0010
0310
0000
0000
0000
;
