#TITLE:Biglang Liko;
#SUBTITLE:;
#ARTIST:Ron Henley (feat. Pow Chavez);
#TITLETRANSLIT:;
#SUBTITLETRANSLIT:;
#ARTISTTRANSLIT:;
#GENRE:;
#CREDIT:;
#BANNER:;
#BACKGROUND:Biglang Liko-bg.png;
#LYRICSPATH:;
#CDTITLE:;
#MUSIC:Biglang Liko.mp3;
#OFFSET:0.000000;
#SAMPLESTART:88.699997;
#SAMPLELENGTH:12.000000;
#SELECTABLE:YES;
#BPMS:0.000000=120.000000
;
#STOPS:81.500000=0.250000,
378.500000=0.250000,
380.000000=0.250000,
381.000000=1.000000
;
#BGCHANGES:0.000=Biglang Liko-jacket.jpg=1.000=0=0=0=StretchNoLoop====,
0.021=Biglang Liko.mp4=1.000=0=0=0=StretchNoLoop====,
0.062=Biglang Liko.mp4=1.000=0=0=1=====,
99999=-nosongbg-=1.000=0=0=0 // don't automatically add -songbackground-
;
#KEYSOUNDS:;
#ATTACKS:;

//---------------dance-single - ----------------
#NOTES:
     dance-single:
     :
     Hard:
     16:
     0.615326,0.778078,0.218459,0.189331,0.487892,1183.000000,1123.000000,60.000000,52.000000,0.000000,0.000000,0.615326,0.778078,0.218459,0.189331,0.487892,1183.000000,1123.000000,60.000000,52.000000,0.000000,0.000000:
// measure 0
0000
0000
0000
0000
,  // measure 1
0000
0000
0000
0000
,  // measure 2
0000
0000
0000
0000
,  // measure 3
0000
0000
0000
0000
,  // measure 4
0000
0000
0000
0000
,  // measure 5
0000
0000
0000
0000
,  // measure 6
0000
0000
0000
0000
,  // measure 7
0000
0000
0000
0000
,  // measure 8
0000
0000
0000
0000
0000
1100
1000
0001
,  // measure 9
0100
0010
0000
0010
0100
0000
1000
0100
1000
0000
0100
0000
0001
0000
0100
0000
,  // measure 10
1000
0100
0000
0001
0100
0000
1000
0100
1000
0000
0100
0000
0001
0000
0010
0000
,  // measure 11
0001
0010
0000
0100
1000
0000
0100
1000
0100
0000
0010
0000
0001
0000
1000
0000
,  // measure 12
0001
0100
0000
0100
0010
0000
1000
0010
1000
0000
0100
0000
0010
0000
0001
0000
,  // measure 13
0100
0010
0000
0010
0100
0000
1000
0010
1000
0000
0100
0000
0010
0000
0001
0000
,  // measure 14
1000
0001
0000
0001
0100
0000
0010
0100
0010
0000
0001
0000
0100
0000
0010
0000
,  // measure 15
1000
0100
0000
0100
0010
0000
0001
0100
0001
0000
0100
0000
0010
0000
1000
0000
,  // measure 16
0001
0000
0000
0100
0000
0000
0000
0000
0000
0100
0000
0000
0010
0000
0000
0000
0000
0000
1000
0000
0000
0010
0000
0000
0000
0000
0000
0000
0100
0000
0001
0000
0000
0000
0000
0000
0100
0000
0000
0000
0000
0000
0010
0000
0100
0000
0000
0000
,  // measure 17
0010
0000
0000
1000
0100
0000
1000
0000
0000
0100
0000
0000
0010
0000
0001
0010
0000
0000
0001
0000
0010
0200
0000
0000
,  // measure 18
0300
0000
0000
1000
0100
0000
1000
0000
0000
0100
0000
0000
0010
0000
0000
0001
0100
0000
0010
0000
0000
0100
0000
0000
,  // measure 19
1000
0000
0100
1000
0000
0000
0010
0000
0001
0100
0000
0000
0010
0000
1000
0100
0000
0000
0010
0000
0001
0010
0000
0000
,  // measure 20
0100
0000
0000
0000
0010
0000
0100
0000
0000
0000
0000
0000
0020
0000
0000
0000
0000
0000
0031
0000
0000
0000
0000
0000
0011
0000
0000
0000
0000
0000
0000
0000
0001
0000
0000
0000
0100
0000
0000
0000
0000
0000
0010
0000
0000
0200
0000
0000
,  // measure 21
0000
0000
0000
0000
1300
0000
0100
1000
0000
0100
0000
0010
0001
0000
0100
0010
,  // measure 22
0200
0000
0000
0000
0310
0000
0100
0001
0000
0100
0000
0010
1000
0000
0100
0010
,  // measure 23
0000
0100
0000
0001
1000
0100
0000
0010
0001
0000
0100
0000
0010
0100
0000
0010
,  // measure 24
0001
0000
1000
0001
0000
0000
0100
0000
0100
0000
0010
0100
0010
0000
0100
0000
,  // measure 25
0001
0000
0000
0001
1000
0000
0001
0000
1000
0000
0100
0000
0010
0000
0001
0010
,  // measure 26
0001
0100
0010
0100
2000
0000
3100
0000
0001
0010
0100
1000
0001
0000
0100
0000
,  // measure 27
1000
0010
0100
0001
0020
0000
0130
0010
0100
0000
0010
0100
0000
0001
1000
0001
,  // measure 28
1000
0100
0010
0001
0200
0000
0000
0000
0300
0000
0000
0000
1100
0000
1000
0100
,  // measure 29
1000
0000
0100
0000
0110
0000
0010
0000
0011
0000
0001
0100
0001
0000
0100
0000
,  // measure 30
0010
0000
1000
0100
1000
0000
0000
0000
0100
1000
0100
1000
0001
0100
0001
0000
,  // measure 31
0101
0000
0100
0010
0100
0000
0110
0000
0010
0001
0100
0010
1000
0100
0010
0001
,  // measure 32
0200
1300
0200
0301
0020
1030
0020
0031
,  // measure 33
0010
0000
0000
0001
0000
0000
0100
0000
0000
0010
0000
0000
2000
0000
0000
0000
0000
0000
3001
0000
0000
0000
0000
0000
0100
0000
0000
0000
0100
0000
0000
0000
0100
0000
0000
0000
0100
0000
0000
0000
0000
0000
0001
0000
0000
0000
0000
0000
,  // measure 34
0100
0000
0000
0000
0100
0000
0000
0000
0100
0000
0000
0000
0100
0000
0000
0000
0000
0000
1000
0000
0000
0000
0000
0000
0100
0000
0000
0010
0000
0000
0000
0000
0000
0010
0000
0000
0001
0000
0000
0000
0000
0000
0010
0000
0000
0001
0000
0000
,  // measure 35
0100
0000
0000
0000
0010
0000
0000
0000
0100
0000
0000
0000
1000
0000
0000
0000
0000
0000
0100
0000
0000
0000
0000
0000
0010
0000
0000
0001
0000
0000
0100
0000
0000
0010
0000
0000
1000
0000
0000
0001
0000
0000
0100
0000
0000
0010
0000
0000
,  // measure 36
0100
0000
0000
0100
0010
0000
0100
0000
0200
0000
0000
0000
0301
0000
0010
0000
,  // measure 37
0001
0000
0000
0001
0020
0000
0130
0000
1000
0000
0100
0000
0001
0000
0100
0000
,  // measure 38
1000
0010
0001
0010
1000
0100
0010
0100
,  // measure 39
1000
0001
0100
0010
0200
0000
0310
0000
,  // measure 40
0100
0000
0100
0000
0100
0000
1001
0000
0001
0000
0000
0001
0010
0000
0000
0010
,  // measure 41
0100
0000
0000
0100
1000
0000
0010
0000
0200
0000
0010
0000
0010
0000
0310
0000
,  // measure 42
0001
0000
0010
0000
1000
0000
0010
0000
0002
0000
0003
0001
1000
0000
0100
0000
,  // measure 43
0002
0000
0003
0001
1000
0000
0001
0000
0100
0000
0100
0000
0010
0000
0010
0000
,  // measure 44
1000
0000
0000
1000
0100
0000
0010
0000
0002
0000
0000
1003
0001
0000
0100
0000
,  // measure 45
0020
0000
0000
1030
0010
0000
0100
0000
0001
0000
0100
0000
1000
0000
0200
0000
,  // measure 46
0000
0301
0100
0010
0100
0100
1000
1000
,  // measure 47
0000
0000
1000
0000
0001
0000
0100
0000
0000
0000
0110
0000
0010
0000
0100
0010
,  // measure 48
0100
0000
0010
0000
0010
0000
0100
0000
0100
0000
0000
0100
0001
0000
0000
0001
,  // measure 49
1000
0000
0000
1000
0010
0000
0001
0000
0200
0000
0001
0000
0001
0000
0301
0000
,  // measure 50
1000
0000
0100
0000
0001
0000
0100
0000
2000
0000
0000
3100
0001
0000
0100
0000
,  // measure 51
2000
0000
0000
3010
0001
0000
0010
0000
1000
0000
0100
0000
0010
0000
0001
0000
,  // measure 52
0100
0000
0000
0000
0000
0000
0000
0000
0000
0100
0000
0000
0010
0000
0000
0000
0000
0000
0100
0000
0000
0000
0000
0000
0001
0000
0000
0000
0001
0000
0000
0000
0001
0000
0000
0000
0100
0000
0000
0000
0000
0000
0110
0000
0000
0000
0000
0000
,  // measure 53
0100
0000
0000
0000
0100
0000
0000
0000
0100
0000
0000
0000
1000
0000
0000
0000
0000
0000
1001
0000
0000
0000
0000
0000
0001
0000
0000
0010
0000
0000
0001
0000
0000
0010
0000
0000
0100
0000
0000
1000
0000
0000
0100
0000
0000
0000
0000
0000
,  // measure 54
0001
0010
0100
1000
0001
0000
0101
0000
0100
0010
0100
1000
0100
0010
0001
0100
,  // measure 55
0010
1000
0001
0010
0100
1000
0100
0000
0010
0001
0100
0010
1000
0100
0010
0001
,  // measure 56
0100
1000
0100
0001
0100
0010
0100
0000
0110
0000
0100
0000
0001
0100
0001
0100
,  // measure 57
0010
0000
1010
0000
1000
0100
1000
0000
0010
0001
0010
0001
0100
0010
0100
0010
,  // measure 58
1000
0000
1100
0000
1000
0001
0100
0000
0010
0001
0010
0001
0100
0010
0100
0010
,  // measure 59
1000
0100
0010
0001
2000
0000
3100
0000
0010
0001
0100
0010
1000
0100
0010
0001
,  // measure 60
0100
0010
1000
0001
0010
0000
0000
0010
0001
0000
0101
0000
0100
0010
0100
0000
,  // measure 61
0100
0000
0110
0000
0100
1000
0100
0000
0010
0001
0100
0010
1000
0100
0010
0001
,  // measure 62
0100
0000
0110
0000
0010
0001
0100
0000
1000
0000
0010
0001
1000
0010
0100
0000
,  // measure 63
1000
0100
0010
0001
0100
0000
0110
0000
0010
0001
0100
0010
1000
0100
0010
0001
,  // measure 64
0100
0010
1000
0100
0001
0000
0000
0000
0002
0000
0103
0000
2000
0000
3010
0000
,  // measure 65
0001
0000
0000
0010
0000
0000
0001
0000
0000
0010
0000
0000
0100
0000
0000
0000
0000
0000
1000
0000
0000
0000
0000
0000
0010
0000
0000
0000
0010
0000
0000
0000
0010
0000
0000
0000
0010
0000
0000
0000
0000
0000
0001
0000
0000
0000
0000
0000
,  // measure 66
0010
0000
0000
0000
0010
0000
0000
0000
0010
0000
0000
0000
0010
0000
0000
0000
0000
0000
1000
0000
0000
0000
0000
0000
0001
0000
0000
0100
0000
0000
0001
0000
0000
0100
0000
0000
0010
0000
0000
0000
0000
0000
1000
0000
0000
0100
0000
0000
,  // measure 67
0000
0010
0001
0100
0010
0000
1000
0100
1000
0000
0100
0000
0010
0001
0010
0001
,  // measure 68
0100
0000
0000
0100
0010
0000
1000
0000
0100
0000
0001
0100
1000
0000
0010
0000
,  // measure 69
0100
0000
1000
0100
0001
0000
0100
0000
0001
0000
0100
0010
1000
0000
0100
0000
,  // measure 70
0000
0000
0100
0001
0010
0000
0100
0000
1000
0100
0001
0000
0010
0000
1000
0000
,  // measure 71
0010
0000
0001
0010
0100
0000
1000
0000
1100
0000
1001
0000
1100
0000
1000
0000
,  // measure 72
0001
0100
1000
0000
0100
0000
0010
0000
0001
0010
0001
0000
0010
0100
0010
0000
,  // measure 73
1000
0100
1000
0100
0010
0001
0010
0000
0100
0000
0110
0000
0100
0000
0101
0000
,  // measure 74
0001
0000
1000
0100
0001
0000
0100
0000
1000
0000
0001
0100
1000
0000
0100
0000
,  // measure 75
1000
0000
0001
0100
1000
0000
0100
0000
1000
0100
0001
0000
0100
0000
0010
0000
,  // measure 76
0100
0000
0010
1000
0100
0000
0001
0000
0100
0000
0010
1000
0100
0000
0010
0000
,  // measure 77
0001
0000
0100
0001
0010
0000
0100
0000
1000
0000
0100
0001
1000
0000
0100
0000
,  // measure 78
0010
0000
0100
0000
0001
0100
0010
0000
1000
0000
0100
0000
1000
0000
0001
0000
,  // measure 79
0010
0000
1000
0000
0010
0000
0001
0010
0100
0000
1000
0000
0100
0000
0001
0000
,  // measure 80
0100
0000
1000
0100
0001
0000
0100
0000
1000
0100
1000
0000
0001
0010
0001
0000
,  // measure 81
0100
0001
0100
0010
0100
0000
1000
0000
0100
0010
0100
1000
0100
0010
0001
0100
,  // measure 82
0010
0000
1000
0000
0100
0000
0010
0000
0001
0000
1000
0001
0100
0000
0010
0000
,  // measure 83
0001
0000
1000
0001
0100
0000
0010
0000
0001
0000
0100
0010
1000
0000
0100
0000
,  // measure 84
0010
0000
0000
0000
0000
0000
0000
0000
0000
0010
0000
0000
0001
0000
0000
0000
0000
0000
0100
0000
0000
0000
0000
0000
0110
0000
0000
0000
0000
0000
0000
0000
0000
0000
0000
0000
0100
0000
0000
0000
0010
0000
0000
0000
0100
0000
0000
0000
,  // measure 85
0010
0000
0000
1000
0000
0000
0002
0000
0000
0103
0000
0000
0001
0000
0000
0000
0000
0000
1000
0000
0100
0000
1000
0000
,  // measure 86
0100
0000
0001
0000
0020
0000
0130
0000
0010
0001
0100
0010
1000
0000
0010
0000
,  // measure 87
0001
0100
0010
1000
0100
0000
0010
0000
1000
0010
0100
0001
1000
0000
0100
0000
,  // measure 88
0010
0000
0001
0100
0000
0110
0000
0000
0100
0000
0100
0000
1000
0000
1000
0000
,  // measure 89
0001
0001
0010
0010
0100
0100
0001
0001
,  // measure 90
1000
0000
0000
0100
0000
0000
0010
0000
0000
0001
0000
0000
0000
0000
0000
0000
0000
0000
0100
0000
0001
0000
0100
0000
,  // measure 91
0010
0000
1000
0100
1000
0000
0100
0000
0010
0001
0010
0000
0001
0100
0001
0100
,  // measure 92
0010
1000
0100
0110
0000
0010
0110
0100
,  // measure 93
0001
0100
0001
0000
1000
0000
0100
0000
1000
0100
1000
0000
0100
0000
0001
0100
,  // measure 94
0001
0100
0010
1000
0100
2000
3010
0100
,  // measure 95
0020
0130
0020
0000
0130
0000
0110
0100
,  // measure 96
0101
0000
0000
0100
0000
0000
1000
0000
0100
0000
1000
0000
0100
0000
0000
0010
0000
0000
0001
0000
0100
0000
0001
0000
,  // measure 97
0100
0000
0000
0010
0000
0000
1000
0000
0010
0000
1000
0000
0010
0000
0000
0100
0000
0000
0001
0000
0010
0000
0100
0000
,  // measure 98
1000
0000
0100
0010
1000
0100
0010
0001
0100
0000
0010
1000
0200
0000
0000
0000
,  // measure 99
0001
0000
0000
0000
1000
0000
0000
0310
0100
0000
0000
0100
0002
0000
0000
0000
,  // measure 100
1003
0000
0001
0000
0200
0000
0300
0100
0010
0000
0100
0010
1000
0000
0100
0000
,  // measure 101
0001
0000
0100
0000
1000
0000
0010
0000
0001
0010
1000
0000
0100
0000
0010
0000
,  // measure 102
0001
1000
0001
0100
0010
2000
0000
3001
,  // measure 103
0000
0000
0101
0100
0110
0100
1100
0000
,  // measure 104
1010
0101
0011
0201
,  // measure 105
0310
0100
0010
1000
0100
0010
0001
0000
,  // measure 106
1000
0001
0100
0000
0001
1000
0100
0010
,  // measure 107
0100
0000
0010
0000
0100
0000
0000
0100
0010
0000
0001
0000
0200
0000
0000
0000
,  // measure 108
0300
0100
0200
0000
0300
0100
1000
0100
,  // measure 109
0001
0100
1000
0010
0001
0010
1000
0100
,  // measure 110
0010
0100
1000
0001
0010
0100
0001
0010
,  // measure 111
0100
1000
0001
0100
0010
1000
0002
0000
,  // measure 112
0203
0320
1030
0200
,  // measure 113
1000
0000
0301
0010
0100
1000
0200
0000
,  // measure 114
1300
0100
0020
0000
0031
0100
0010
1000
,  // measure 115
0001
0000
0100
0000
0010
0000
0000
0010
0100
0000
0010
0000
0210
0000
0000
0000
,  // measure 116
0000
0010
0010
0010
0310
0001
0201
0000
,  // measure 117
0000
1000
1000
1000
1300
0100
0210
0000
,  // measure 118
0000
0001
0001
0001
0301
0100
1000
0100
,  // measure 119
0001
0100
1000
0010
0001
0010
1010
0000
,  // measure 120
1100
1000
0100
0001
0100
1000
1100
0000
,  // measure 121
0101
0100
1000
0100
0001
0100
1100
0000
,  // measure 122
1010
1000
0100
0001
0100
1000
1010
0000
,  // measure 123
0101
0001
0100
1000
0100
0001
0101
0000
,  // measure 124
0011
0001
0010
1000
0010
0001
0011
0000
,  // measure 125
1001
1000
0100
0010
0100
1000
1001
0000
,  // measure 126
0110
0100
0001
0100
1000
0100
0110
0000
,  // measure 127
0011
0001
0010
1000
0010
0001
0101
0000
,  // measure 128
1100
1000
0010
0100
0001
1000
1001
0000
,  // measure 129
0110
0200
0310
0002
0103
2000
3010
0100
,  // measure 130
0010
0000
0001
0010
0000
0010
0100
0000
1000
0100
1000
0000
0100
0000
0010
0000
,  // measure 131
0001
0000
0100
0010
0000
0010
1000
0000
0001
2000
0000
0000
0000
0000
0000
0000
,  // measure 132
0000
0000
0000
0000
,  // measure 133
0000
0000
0000
0000
0000
0000
0000
0000
0000
3000
0000
0000
0000
0000
0000
0000
;

//---------------dance-single - ----------------
#NOTES:
     dance-single:
     :
     Medium:
     14:
     0.475409,0.632189,0.152921,0.349535,0.069179,914.000000,872.000000,42.000000,96.000000,0.000000,0.000000,0.475409,0.632189,0.152921,0.349535,0.069179,914.000000,872.000000,42.000000,96.000000,0.000000,0.000000:
0000
0000
0000
0000
,
0000
0000
0000
0000
,
0000
0000
0000
0000
,
0000
0000
0000
0000
,
0000
0000
0000
0000
,
0000
0000
0000
0000
,
0000
0000
0000
0000
,
0000
0000
0000
0000
,
0000
0000
0000
0000
0000
1000
0100
0001
,
0100
1000
0100
0001
0000
0010
0100
0010
,
0001
0010
0100
0010
0000
0100
0010
0100
,
1000
0100
0010
0100
0000
1000
0100
0010
,
0001
1000
0100
0010
0000
0001
0100
0010
,
1000
0001
0100
0010
0000
1000
0010
0001
,
0010
1000
0100
0001
0100
1000
0100
0010
,
0100
1000
0010
0100
0001
0010
0100
0010
,
0001
0100
0001
0010
0000
1000
0100
1000
,
0000
1000
0001
1000
0000
0001
0100
0001
,
0000
1000
0100
1000
0000
0010
0100
0010
,
0000
0001
0100
0001
0000
1000
0100
0010
,
0001
1000
0020
0130
0110
0000
0010
0100
,
0010
0000
1000
0001
0100
0010
1000
0010
,
0100
0000
1000
0001
0100
0001
1000
0100
,
0010
0001
0100
0010
0100
0010
0010
1000
,
0001
0100
0010
0000
0010
1000
0010
0100
,
0010
0100
0100
0010
1000
0100
1000
0001
,
0100
0010
0100
0000
1000
0001
0010
0100
,
1000
0100
0010
0000
0001
0100
0010
1000
,
0001
0010
0200
0000
0000
0300
0000
0100
,
1000
0100
0001
0000
1000
0010
0001
0010
,
1000
0100
0010
0000
0100
0010
0100
0001
,
0000
0100
0010
1000
0100
0010
0001
0100
,
0020
0130
0020
0130
0010
1010
0010
1010
,
1000
0000
0100
0000
0010
0000
0001
0000
0000
0100
0000
0000
0001
0000
0010
0000
0100
0000
1000
0000
0000
0100
0000
0000
,
1000
0000
0010
0000
0100
0000
0001
0000
0000
0100
0000
0000
0010
0000
0000
0001
0000
0000
0100
0000
0000
0010
0000
0000
,
1000
0100
0001
0100
1000
0010
0100
0001
,
1001
0000
1100
1000
0020
0000
0130
0010
,
0002
0000
0103
0010
0100
1000
0100
0001
,
0100
1000
0010
0001
1000
0100
0010
0100
,
1000
0100
0010
0001
0010
0100
0001
0010
,
0100
0010
1000
0001
0200
0000
0320
0000
,
2030
3001
0002
0100
,
1003
0100
0010
0001
0200
0000
1300
0100
,
0020
0000
0031
0100
0010
1000
0100
0001
,
0100
0000
0110
0100
0020
0000
1030
0001
,
0200
0000
0310
1000
0100
0001
0100
1000
,
0100
0010
0001
0100
0010
1000
0100
0010
,
0001
0100
0010
0100
0001
0100
1000
0010
,
0100
0001
0100
0010
2000
0000
3200
0000
,
0302
0013
0020
1000
,
0031
0100
1000
0100
0002
0000
0103
1000
,
0002
0000
0013
0100
1000
0010
0100
0010
,
0001
0000
0000
0000
0000
0000
1001
0000
0000
0000
0000
0000
1000
0000
0100
0000
1000
0000
0100
0000
0000
0010
0000
0000
,
0001
0000
0100
0000
0001
0000
0100
0000
0000
0010
0000
0000
1000
0000
0010
0000
1000
0000
0010
0000
0000
0100
0000
0000
,
0001
0000
0010
0000
0001
0000
0010
0000
0000
0100
0000
0000
1000
0000
0000
0010
0000
0000
0100
0000
0000
0001
0000
0000
,
1000
0100
0010
0001
1000
0010
0100
0001
,
1000
0001
0100
0010
0100
0110
0010
1000
,
0001
0101
0100
0010
1000
1100
1000
0001
,
0100
0110
0010
1000
0001
0010
0100
0010
,
1000
0100
1000
0001
0100
0010
0100
1000
,
0010
0100
0001
0000
1000
0100
1000
0100
,
0010
0001
0010
0001
1000
0100
0001
0100
,
1000
0010
0001
0010
1000
0010
1000
0010
,
0001
0100
0001
0100
0010
1000
0100
0001
,
0100
1000
0100
0000
0100
0110
0010
0110
,
0100
0000
0010
0000
0100
0000
0010
0000
0000
0001
0000
0000
1000
0000
0100
0000
1000
0000
0100
0000
0000
0010
0000
0000
,
0001
0000
0010
0000
0001
0000
0010
0000
0000
0100
0000
0000
1000
0000
0000
0100
0000
0000
0010
0000
0000
0001
0000
0000
,
1000
0010
0100
0001
1000
0100
0001
0100
,
1001
0000
0101
0100
0020
0000
1030
0100
,
0020
0000
0031
0100
0010
1000
0010
0001
,
0010
1000
0100
0001
0100
0010
1000
0010
,
0100
1000
0100
0010
0001
0010
0100
1000
,
0001
0100
0010
1000
0002
0000
0023
0000
,
0230
1300
2000
0100
,
3001
1000
0100
0010
0002
0000
0103
1000
,
0200
0000
1300
0001
0100
0010
1000
0100
,
0010
0000
0011
0001
0200
0000
0310
1000
,
0200
0000
0310
0001
1000
0100
0001
0100
,
1000
0010
0001
0010
1000
0100
0010
0100
,
1000
0001
0100
0001
0010
0100
1000
0100
,
0010
0001
1000
0001
0020
0000
0230
0000
,
2300
3100
0200
1000
,
0301
0100
1000
0100
0002
0000
0013
1000
,
0020
0000
0031
0100
0010
1000
0001
0100
,
0110
0000
0000
0000
0000
0000
0000
0000
0000
1001
0000
0000
0000
0000
0000
0000
0000
0000
0110
0000
0000
0000
0000
0000
0100
0000
0000
0000
0000
0000
0000
0000
0000
0000
0000
0000
0010
0000
0000
0000
0001
0000
0000
0000
0010
0000
0000
0000
,
0001
0000
0000
0100
0000
0000
0010
0000
0000
1000
0000
0000
0001
0000
0000
0000
0000
0000
1000
0000
0100
0000
1000
0000
,
0100
0010
0001
0100
0010
0001
0100
0010
,
1000
0100
0010
0001
1000
0010
0100
0001
,
1000
0100
0001
0100
1000
1100
0001
0101
,
1000
1010
0001
0011
0100
1001
0010
1001
,
1000
0110
0001
0110
0000
0000
1100
1000
,
0001
0100
0010
1000
0100
0010
0001
0100
,
0010
1000
0001
0010
0000
1000
0100
0010
,
0001
0100
0010
1000
0001
0010
0100
1000
,
0100
0010
0001
1000
0020
0130
0000
0200
,
0310
0000
2002
3003
1001
0000
1000
1001
,
0001
0000
0000
1001
0000
0000
1000
0000
0100
0000
0010
0000
0001
0000
0000
0101
0000
0000
0001
0000
0010
0000
0100
0000
,
1000
0000
0000
1100
0000
0000
1000
0000
0010
0000
0100
0000
0001
0000
0000
0011
0000
0000
0001
0000
0100
0000
0010
0000
,
1000
1010
0010
1000
0001
0100
0020
0000
,
2030
0000
3200
0000
0302
1000
2003
0000
,
3001
0100
2000
0000
3001
0100
1000
0010
,
0001
0010
0000
0010
0100
1000
0002
1000
,
0103
0010
0000
0010
0100
0010
0000
1001
,
0000
0000
1000
0010
0100
0001
2000
0000
,
3200
0000
0320
0000
0032
0000
0013
0100
,
1000
0001
0100
0100
0010
1000
0200
0000
,
1300
0010
0002
0000
0013
0100
1000
0010
,
0100
0000
0001
0000
1000
0000
0000
1000
0001
0000
0010
0000
0002
0000
0000
0000
,
0103
1000
0002
0000
0103
1000
0001
0010
,
1000
0100
0000
0100
0010
1000
0010
0001
,
0010
1000
0000
0010
0001
0100
0000
0110
,
0000
0000
1000
0001
0100
0010
2000
0000
,
3020
0000
0032
0000
0203
0000
1300
0010
,
0100
0001
1000
0100
0001
0100
0020
0000
,
0031
0100
0020
0000
0031
0100
0010
1000
,
1001
0000
0000
0000
0110
0000
0000
1001
0000
0000
0110
0000
0020
0000
0000
0000
,
0000
0130
0010
0100
0010
0200
0010
0310
,
0020
0130
0010
0200
0010
0310
0020
0000
,
0000
0130
0010
0100
0010
0200
0010
0310
,
0020
0130
0010
0200
0010
0310
0020
0000
,
0000
0130
0010
0100
0010
0200
0010
0310
,
0020
0130
2000
3100
0002
0103
0020
0000
,
0000
0130
0010
0100
0010
0200
0010
0310
,
0020
0130
0010
0200
0010
0310
0020
0000
,
0000
0130
0010
0100
0010
0200
0010
0310
,
0020
0130
0010
0200
0010
0310
0020
0000
,
0000
0130
0010
0100
0010
0200
0010
0310
,
0020
0130
0010
0200
0010
0310
0020
0000
,
0000
0130
0010
0100
0010
0200
0010
0310
,
0020
0130
2000
3100
0002
0103
0020
0000
,
0000
0130
0010
0100
0010
0200
0010
0310
,
0020
0000
1030
0100
0000
0001
0100
0000
0020
0200
0000
0000
0000
0000
0000
0000
,
0000
0000
0000
0000
,
0000
0000
0000
0000
0000
0000
0000
0000
0000
0330
0000
0000
0000
0000
0000
0000
;

//---------------dance-single - ----------------
#NOTES:
     dance-single:
     :
     Easy:
     10:
     0.365659,0.437055,0.367739,0.214818,0.000000,703.000000,602.000000,101.000000,59.000000,0.000000,0.000000,0.365659,0.437055,0.367739,0.214818,0.000000,703.000000,602.000000,101.000000,59.000000,0.000000,0.000000:
0000
0000
0000
0000
,
0000
0000
0000
0000
,
0000
0000
0000
0000
,
0000
0000
0000
0000
,
0000
0000
0000
0000
,
0000
0000
0000
0000
,
0000
0000
0000
0000
,
0000
0000
0000
0000
,
0000
0000
0000
0000
0000
1000
0000
1000
,
0000
0001
1000
0100
0000
0010
0000
0010
,
0000
0001
1000
0100
0000
1000
0000
1000
,
0000
0001
1000
0100
0010
0010
0000
0010
,
0000
0001
0100
0010
0000
0010
0000
0010
,
0000
0010
1000
0001
0000
0010
0000
0010
,
0000
0001
1000
0100
0000
1000
0000
1000
,
0000
0001
0100
0010
0000
1010
0000
0101
,
0000
0001
1000
0100
0000
1100
0000
1100
,
0000
1100
0000
0101
0000
0011
0000
0101
,
0000
1001
0000
0101
0000
1001
0000
1100
,
0000
1010
0000
0110
0000
0101
0000
0110
,
0000
1010
0000
1001
0001
0000
1000
0000
,
0010
0000
1000
0010
0100
0010
1000
0001
,
0010
0000
0001
1000
0010
1000
0001
0010
,
0001
0000
0001
0000
0001
1000
0100
0000
,
1000
0000
1000
0000
1000
0100
0001
0100
,
1000
0000
0010
0100
0001
0100
0010
1000
,
0100
1000
0001
0000
0100
0100
0100
0000
,
0010
0010
0010
0000
1000
0000
0001
0000
,
1000
0002
2000
0000
3003
0000
1001
0000
,
1000
0010
0001
0000
0001
0010
0100
1000
,
0001
1000
0010
0000
0110
0000
0101
0000
,
0001
1000
0010
0000
0010
1000
0001
0000
,
1001
1001
1001
1001
,
1000
0100
1000
0010
0100
0001
0010
0001
,
0101
0000
0101
0000
1000
0001
0100
0001
,
1000
0010
1000
0100
1000
0000
1001
0000
,
0101
1001
0020
1030
,
0002
0000
0103
0000
0010
1000
0001
0000
,
0001
1000
0100
0000
0100
1000
0010
0000
,
0010
0100
0001
0000
0001
1000
0100
0000
,
0100
1000
0001
1000
0002
0000
0023
0000
,
0230
0000
2300
0000
3001
0000
0000
1000
,
0001
0000
1000
0000
1100
0000
1000
0100
,
0001
0000
0001
0100
1000
0000
1100
0000
,
2020
0000
3030
0000
0101
0000
0001
1000
,
0010
0000
0100
0001
1000
0100
1000
0000
,
1100
0000
0011
0000
0101
0000
0001
1000
,
0100
0000
1000
0001
0100
0000
0101
0000
,
0001
0010
0001
0000
0020
0000
0032
0000
,
2003
0000
3200
0000
1300
0100
1000
0000
,
0001
1000
0001
0000
0101
0000
0001
1000
,
0010
0000
1010
0000
0010
1000
0001
1000
,
0100
1000
0001
0000
1001
0000
0010
0000
,
1000
0100
1001
0010
,
0001
0100
0010
1000
,
0001
0010
0001
1000
,
0001
0000
0101
0000
0001
0000
1000
0100
,
1000
0000
0010
0000
1000
0000
0001
0010
,
0001
0000
1000
0000
0001
0000
0100
0001
,
0100
0000
0010
0000
1000
0000
0001
1000
,
0001
0000
0101
0000
0100
0001
0100
0001
,
0100
0001
0100
0001
1000
0010
1000
0010
,
1000
0010
1000
0001
0000
0000
0001
0000
,
0010
0100
1000
0001
,
1000
0001
0101
0101
,
0100
0001
0100
0000
1010
0000
1010
0000
,
1000
0010
1000
0000
1001
0000
1001
0000
,
0001
1000
0001
0000
2000
0000
3002
0000
,
0203
0320
0130
0110
,
0101
0000
1001
0000
0001
0010
0001
0000
,
0100
1000
0100
0000
1100
0000
1001
0000
,
0011
1001
1010
1001
,
0001
1000
0001
0000
0002
0000
0023
0000
,
0230
0000
2300
0000
3100
1000
0100
0000
,
1000
0010
1000
0000
2000
0000
3001
0000
,
0002
0000
0013
0000
0020
0000
0130
1000
,
0100
1100
1010
0101
,
0011
0000
0101
0000
0001
0010
0001
0000
,
0010
0100
0010
0000
0010
0001
0100
0000
,
0100
0001
0100
0000
0100
0010
1000
0000
,
1000
0010
1000
0000
2000
0000
3200
0000
,
2300
0000
3001
0000
0001
1000
0001
0000
,
0001
0100
0001
0000
0101
0000
0100
0010
,
1000
0000
1010
0000
0010
1000
0010
0000
,
1001
0000
1001
0000
0101
0000
0001
0100
,
0001
0100
0001
0100
0001
0000
1000
0010
,
1000
0010
1000
0010
1000
0000
1001
0000
,
0001
0011
0001
0101
,
0001
1001
2000
3100
,
1000
0001
0100
0000
0002
0000
1003
0000
,
0001
1000
0010
0000
0110
0000
0010
0100
,
0010
0000
0100
0001
0100
0000
0001
1000
,
0001
0000
1000
0100
1000
0000
1100
0000
,
1000
0010
1000
0000
0001
1000
0001
0000
,
1000
0001
1000
0000
1001
0000
0000
2002
,
0000
3003
1001
1100
,
1010
0000
0010
1000
0010
0000
1001
0000
,
1001
0000
0010
0001
0010
0000
0001
0000
,
0010
0100
2000
3002
,
0203
0320
0130
0101
,
1010
0000
1100
0000
0011
0000
0010
0001
,
1000
0000
1000
0100
1000
0000
0001
1000
,
0001
1000
0010
1000
0010
1000
0100
0000
,
1100
0000
1000
0100
1000
0000
2000
0000
,
3020
0000
0230
0000
0301
0000
0001
1000
,
0001
0000
0001
0010
0001
0000
0011
0000
,
0010
0001
0100
0000
0100
0010
1000
0000
,
1010
2020
3030
1001
,
1001
0000
0101
0000
0101
0000
0001
0100
,
0001
0000
1000
0010
1000
0000
0001
1000
,
0100
0000
1000
0001
0100
0000
0110
0000
,
0110
0000
0010
0100
0010
0000
0200
0000
,
0320
2030
3002
1003
,
0001
0000
0010
0001
0010
0000
0011
0000
,
0001
1000
0001
0000
1001
0000
1010
0000
,
0010
1000
0010
0000
1010
0000
0210
0000
,
0000
0010
0010
0320
,
0000
0100
0100
0230
,
0000
0010
0010
0320
,
0000
0100
0100
0230
,
0000
0010
0010
0310
,
1000
0001
0100
0020
,
0000
0100
0100
0130
,
0001
1000
0100
0020
,
0000
0100
0100
0230
,
0000
0010
0010
0320
,
0000
0100
0100
0230
,
0000
0010
0010
0320
,
0000
0100
0100
0130
,
1000
0001
0100
0020
,
0000
0100
0100
0230
,
0010
0010
0020
0000
,
0000
0000
0000
0000
,
0000
0000
0000
0330
0000
0000
0000
0000
;
