#TITLE:Big Girls Don't Cry;
#SUBTITLE:;
#ARTIST:Purefocus;
#TITLETRANSLIT:;
#SUBTITLETRANSLIT:;
#ARTISTTRANSLIT:;
#GENRE:;
#CREDIT:;
#BANNER:Big Girls Don_t Cry.png;
#BACKGROUND:Big Girls Don_t Cry-bg.png;
#LYRICSPATH:;
#CDTITLE:;
#MUSIC:Big Girls Don_t Cry.ogg;
#OFFSET:0.000000;
#SAMPLESTART:72.959999;
#SAMPLELENGTH:15.000000;
#SELECTABLE:YES;
#DISPLAYBPM:125.000000;
#BPMS:0.000000=124.999992
;
#STOPS:
;
#BGCHANGES:;
#KEYSOUNDS:;
#ATTACKS:;

//---------------dance-single - ----------------
#NOTES:
     dance-single:
     :
     Beginner:
     2:
     0.109573,0.149978,0.000000,0.018262,0.000000,84.000000,84.000000,0.000000,2.000000,0.000000,0.000000,0.109573,0.149978,0.000000,0.018262,0.000000,84.000000,84.000000,0.000000,2.000000,0.000000,0.000000:
0000
0000
0000
0000
,
0000
0000
0000
0000
,
0000
0000
0000
0000
,
0000
0000
0000
1000
,
0000
0000
0000
0001
,
0000
0000
0000
1000
,
0000
0000
0000
0010
,
0000
0000
0000
0001
,
0000
0000
0000
0000
,
0000
1000
0000
1000
,
0000
0001
0000
0001
,
0000
0100
0000
0100
,
0000
0010
0000
0010
,
0000
1000
0000
0001
,
0000
1000
0000
0001
,
0001
0000
0000
0000
,
1000
0000
0000
0000
,
0000
0000
0000
0000
,
0010
0010
0000
0000
,
0010
0010
0000
0000
,
1000
0000
0000
0000
,
0001
0000
0001
0000
,
1000
1000
0000
0000
,
0001
0001
0000
0000
,
0100
0000
0000
0000
,
0010
0000
0010
0000
,
1000
1000
0000
0000
,
0001
0001
0000
0000
,
0100
0100
0000
0000
,
1000
0000
0001
0000
,
0100
0100
0000
0000
,
0010
0010
0000
0000
,
0100
0000
0000
0000
,
0001
0001
0001
0002
,
0000
0000
0000
0003
,
0000
0000
0000
0000
,
1000
0000
0000
0000
,
0001
0000
0000
0000
,
0010
0010
0000
0000
,
0010
0010
0000
0000
,
1000
0000
0000
0000
,
0100
0000
0100
0000
,
0001
0001
0000
0000
,
1000
1000
0000
0000
,
0010
0000
0000
0000
,
1000
0000
0001
0000
,
1000
0000
1000
0000
,
0001
0000
0001
0000
,
0100
0000
1000
0000
,
0010
0000
0001
0000
,
0100
0100
0000
0000
,
0010
0010
0000
0000
,
1000
0000
0000
0000
,
0100
0100
0100
0100
,
0200
0000
0000
0300
,
0000
0000
0000
0000
;

//---------------dance-single - ----------------
#NOTES:
     dance-single:
     :
     Easy:
     4:
     0.173491,0.197231,0.018262,0.073049,0.000000,133.000000,131.000000,2.000000,8.000000,0.000000,0.000000,0.173491,0.197231,0.018262,0.073049,0.000000,133.000000,131.000000,2.000000,8.000000,0.000000,0.000000:
0000
0000
0000
0000
,
0000
0000
0000
0000
,
0000
0000
0000
0000
,
0000
0001
0000
0010
,
0000
0001
1000
0000
,
0000
0100
0000
1000
,
0000
0001
0100
0000
,
0000
0010
0000
0001
,
0000
1000
0100
0000
,
0000
1000
0000
0100
,
0000
0001
1000
0100
,
0000
0001
0000
0100
,
0000
1000
0001
0100
,
0000
1000
0000
0010
,
0000
0001
0100
0010
,
1001
0000
0000
0000
,
1000
1000
1000
0000
,
0000
0000
0000
0000
,
1000
0010
0010
0000
,
0001
0010
0010
0000
,
0100
0000
0000
0000
,
0001
0100
1000
0010
,
1000
0010
0010
0000
,
0001
0010
0010
0000
,
0100
0000
0000
0000
,
0010
0100
1000
0001
,
1000
0000
0010
0010
,
1000
0000
0100
0100
,
0001
0000
0010
0000
,
1000
0001
0010
1000
,
0100
1000
1000
0000
,
0100
0001
0001
0000
,
0100
0000
0000
0000
,
0010
0010
0001
1000
,
0002
0003
0000
0001
,
0000
1000
0100
0100
,
2000
3000
0000
1000
,
0000
0001
0100
0000
,
0002
0010
0013
0000
,
2000
0010
3010
0000
,
0100
0000
0000
0000
,
1000
0100
0001
0010
,
0002
0010
0013
0000
,
2000
0010
3010
0000
,
0100
0000
0000
0000
,
0010
0100
0001
1000
,
0001
0000
0010
0010
,
0001
0000
0100
0100
,
1000
0000
0010
0000
,
0001
1000
0010
0001
,
0200
0001
0301
0000
,
0200
1000
1300
0000
,
0100
0000
0000
0000
,
0010
0010
1000
0001
,
1001
0000
0000
0000
,
0000
0000
0000
0000
;

//---------------dance-single - ----------------
#NOTES:
     dance-single:
     :
     Medium:
     7:
     0.272628,0.295847,0.054787,0.118704,0.000000,209.000000,203.000000,6.000000,13.000000,0.000000,0.000000,0.272628,0.295847,0.054787,0.118704,0.000000,209.000000,203.000000,6.000000,13.000000,0.000000,0.000000:
0000
0000
0000
0000
,
0000
0000
0000
0000
,
0000
0000
0000
0000
,
1000
0000
0000
0001
0000
0000
0000
0010
,
0000
0000
0000
0000
0001
0001
1000
0001
,
1000
0000
0000
0010
0000
0000
0000
0100
,
0000
0000
0000
0000
1000
1000
0001
0000
,
0010
0000
0000
1000
0000
0000
0000
0100
,
0000
0000
0000
0000
0001
0001
0100
0001
,
1000
0000
1000
0100
0000
0000
0100
0010
,
0000
0000
0000
0000
0001
0100
0001
0000
,
0010
0000
0010
0001
0000
0000
0001
0100
,
0000
0000
0000
0000
1000
1000
0100
1000
,
0001
0000
0001
0010
0000
0000
1000
0010
,
0000
0000
0000
0000
1000
0100
1000
0000
,
1001
0000
0000
0110
0000
0000
0000
0000
,
0001
1000
2000
0000
,
0000
0000
0000
3000
,
1000
0010
0000
0010
0000
0010
0000
1000
,
0100
0010
0000
0010
0000
0010
0000
0001
,
0100
0000
0000
0000
0000
1000
0100
1000
,
0001
0000
0100
0010
0000
0110
0000
0000
,
0001
0010
0000
0010
0000
0010
0000
0100
,
1000
0010
0000
0010
0000
0010
0000
0100
,
0010
0000
0000
0000
0000
1000
1000
0000
,
0001
0010
0100
1000
0000
0001
0000
0010
,
0100
0000
0000
1000
0010
0000
0000
0001
,
0100
0000
0000
1000
0100
0000
0000
0010
,
0001
0000
1000
0000
0010
0000
0001
1000
,
0010
0000
1000
0000
0100
0000
0001
0010
,
0100
1000
0000
1000
0000
1000
0000
0001
,
0100
0010
0000
0010
0000
0010
0000
1000
,
0100
0000
0000
0000
0000
0000
0000
0001
,
0010
1001
0010
0100
,
0001
0000
0000
1000
0000
0000
0000
0200
,
0000
0000
0010
0310
,
1000
0000
0000
0001
0000
0000
0000
0200
,
0000
0000
0010
0310
,
0002
0010
0000
0010
0000
0013
0000
0001
,
0200
0010
0000
0010
0000
0310
0000
1000
,
0100
0000
0000
0000
0000
0001
0100
1000
,
0100
0000
0001
0010
0000
0110
0000
0000
,
2000
0010
0000
0010
0000
3010
0000
0100
,
0002
0010
0000
0010
0000
0013
0000
0100
,
0010
0000
0000
0000
0000
0001
0001
0000
,
1000
0001
0010
0100
0000
1000
0000
0010
,
0100
0000
0000
0001
0010
0000
0000
1000
,
0100
0000
0000
0001
0100
0000
0000
0010
,
1000
0000
0002
0000
0013
0000
1000
0001
,
0020
0000
0031
0000
0100
0000
1000
0010
,
0200
0001
0000
0001
0000
0301
0000
1000
,
0200
0010
0000
0010
0000
0310
0000
0001
,
0100
0000
0000
0000
0000
0000
0000
1000
,
0010
1001
0020
0230
,
1300
0000
0000
0000
,
0000
0000
0000
0000
;

//---------------dance-single - ----------------
#NOTES:
     dance-single:
     :
     Hard:
     9:
     0.379592,0.374945,0.200884,0.063918,0.063918,291.000000,269.000000,22.000000,7.000000,0.000000,0.000000,0.379592,0.374945,0.200884,0.063918,0.063918,291.000000,269.000000,22.000000,7.000000,0.000000,0.000000:
0000
0000
0000
0000
,
0000
0000
0000
0000
,
0000
0000
0000
0000
,
0010
0000
1000
0001
0000
0001
0100
1000
,
0000
0000
0001
0000
1000
1000
0001
0100
,
1000
0000
0100
0001
0000
0010
1000
0100
,
0000
0000
0010
0000
0100
0100
0001
0000
,
0010
0000
0001
1000
0000
0010
0100
0001
,
0000
0000
1000
0000
0001
0001
1000
0100
,
0001
0000
0100
1000
0000
1000
0001
0100
,
0000
0000
1000
0000
0001
0010
0100
0000
,
0010
0000
0001
0010
0000
0001
0100
1000
,
0000
0000
0001
0000
0010
1000
0100
1000
,
0010
0000
0100
0001
0000
0100
1000
0010
,
0000
0000
0001
0000
1000
0100
0001
0000
,
1001
0000
0000
0011
0000
1000
0010
0100
,
0001
1000
0001
0000
,
0100
0000
0000
0000
,
0001
0010
0000
0110
0000
0001
0010
0100
,
1000
0010
0000
0101
0000
1000
0010
0100
,
0001
0000
1000
0100
0000
1000
0001
1000
,
0100
0001
0100
0010
0000
0100
1001
0000
,
1000
0010
0000
0011
0000
1000
0100
1000
,
0001
0010
0000
0110
0000
0001
0100
0001
,
2000
0000
0000
3001
0000
0010
1001
0000
,
0010
0001
0100
1000
0100
0001
0010
0100
,
0010
0000
0000
0000
0000
0000
1000
0000
0010
0000
0000
1000
0000
0000
0001
0000
,
0100
0000
0000
0001
0000
0000
1000
0000
0100
0000
0000
1000
0000
0000
0010
0000
,
0100
0000
0000
0100
0000
0000
0001
0000
0010
0000
0000
0001
0000
0000
1000
0000
,
0010
0000
0000
0010
0000
0000
1000
0000
0100
0000
0000
1000
0000
0000
0010
0000
,
0100
0001
0000
1001
0000
1000
0100
0010
,
0100
1000
0000
0110
0000
0001
0100
0010
,
0200
0000
0000
0000
0310
0000
0000
1000
,
0001
0000
0011
0000
1001
0010
0100
0000
,
0001
0000
0010
0001
0000
0000
0001
0200
,
0000
0000
1000
0301
,
1000
0000
0010
1000
0000
0000
1000
0200
,
0000
0000
1000
0301
,
1000
0010
0000
0110
0000
1000
0010
0100
,
0001
0010
0000
1100
0000
0001
0010
0100
,
1000
0000
0001
0100
0000
0001
1000
0001
,
0100
1000
0100
0010
0000
0100
1001
0000
,
0001
0010
0000
1010
0000
0001
0100
0001
,
1000
0010
0000
0110
0000
1000
0100
1000
,
0002
0000
0000
1003
0000
0010
1001
0000
,
0010
1000
0100
0001
0100
1000
0010
0100
,
0010
0000
0000
0000
0000
0000
0001
0000
0010
0000
0000
0001
0000
0000
1000
0000
,
0100
0000
0000
1000
0000
0000
0001
0000
0100
0000
0000
0001
0000
0000
0010
0000
,
0100
0000
0000
0100
0000
0000
1000
0000
0010
0000
0000
1000
0000
0000
0001
0000
,
0010
0000
0000
0010
0000
0000
0001
0000
0100
0000
0000
0001
0000
0000
0010
0000
,
0100
1000
0000
1001
0000
0001
0100
0010
,
0100
0001
0000
0110
0000
1000
0100
0010
,
0200
0000
0000
0000
0310
0000
0000
0001
,
1000
0000
1010
0000
1001
0100
0010
0000
,
0200
0000
0000
0300
,
0000
0000
0000
0000
;

//---------------dance-double - ----------------
#NOTES:
     dance-double:
     :
     Easy:
     4:
     0.180013,0.221885,0.018262,0.073049,0.000000,138.000000,136.000000,2.000000,8.000000,0.000000,0.000000,0.180013,0.221885,0.018262,0.073049,0.000000,138.000000,136.000000,2.000000,8.000000,0.000000,0.000000:
00000000
00000000
00000000
00000000
,
00000000
00000000
00000000
00000000
,
00000000
00000000
00000000
00000000
,
00000000
10000000
00000000
00100000
,
00000000
00010000
00001000
00001000
,
00000000
00010000
00000000
00001000
,
00000000
01000000
00100000
00100000
,
00000000
00010000
00000000
00001000
,
00000000
00000010
00000001
00000001
,
00000000
00001000
00000000
00000010
,
00000000
00000100
00001000
00010000
,
00000000
01000000
00000000
00100000
,
00000000
10000000
01000000
00010000
,
00000000
00001000
00000000
00010000
,
00000000
00000100
00000010
00001000
,
00011000
00000000
00000000
00011000
00000000
00000000
00000000
00000000
,
00000100
00000100
00000100
00000000
,
00000000
00000000
00000000
00000000
,
00010000
00100000
00100000
00000000
,
10000000
00100000
00100000
00000000
,
00010000
00000000
00000000
00001000
,
00010000
00001000
00000100
00000000
,
00000001
00000010
00000010
00000000
,
00001000
00010000
00010000
00000000
,
01000000
00000000
00000000
01000000
,
10000000
00100000
00010000
00001000
,
00010000
00000000
00100000
00100000
,
10000000
00000000
01000000
01000000
,
00010000
00000000
00001000
00010000
,
00000100
00000000
00001000
00010000
,
00000010
00000100
00000100
00000000
,
00000001
00000010
00000010
00000000
,
00001000
00000000
00000000
00000000
,
00010000
00010000
00001000
00000100
,
00000002
00000003
00000000
00000100
,
00000000
00000100
00000000
00001000
,
00020000
00030000
00000000
01000000
,
00000000
01000000
00000000
10000000
,
02000000
00010000
03010000
00000000
,
00002000
00010000
00013000
00000000
,
01000000
00000000
00000000
10000000
,
00010000
01000000
10000000
00000000
,
00200000
00010000
00310000
00000000
,
00002000
00000100
00003100
00000000
,
00000001
00000000
00000000
00000010
,
00000010
00001000
00010000
00001000
,
00000010
00000000
00010000
00010000
,
00100000
00000000
10000000
10000000
,
01000000
00000000
00100000
00001000
,
00010000
00000000
00100000
00001000
,
00020000
00001000
00031000
00000000
,
00000200
00000010
00000310
00000000
,
00000001
00000000
00000000
00000000
,
00000010
00001000
00010000
00010000
,
01000000
00000000
00000000
00000000
,
00000000
00000000
00000000
00000000
;

//---------------dance-double - ----------------
#NOTES:
     dance-double:
     :
     Medium:
     7:
     0.297412,0.369809,0.255670,0.018262,0.000000,228.000000,200.000000,28.000000,2.000000,0.000000,0.000000,0.297412,0.369809,0.255670,0.018262,0.000000,228.000000,200.000000,28.000000,2.000000,0.000000,0.000000:
00000000
00000000
00000000
00000000
,
00000000
00000000
00000000
00000000
,
00000000
00000000
00000000
00000000
,
00100000
00000000
00000000
00010000
00000000
00000000
00000000
00001000
,
00000000
00000000
00000000
00000000
00010000
00010000
00001000
00010000
,
00001000
00000000
00000000
00000010
00000000
00000000
00000000
00000001
,
00000000
00000000
00000000
00000000
00001000
00001000
00000010
00000000
,
00000100
00000000
00000000
00001000
00000000
00000000
00000000
00010000
,
00000000
00000000
00000000
00000000
01000000
01000000
00100000
01000000
,
10000000
00000000
10000000
01000000
00000000
00000000
01000000
00010000
,
00000000
00000000
00000000
00000000
00001000
00010000
00001000
00000000
,
00000010
00000000
00000010
00001000
00000000
00000000
00010000
00001000
,
00000000
00000000
00000000
00000000
00000100
00000100
00000010
00000100
,
00001000
00000000
00010000
00001000
00000000
00000000
01000000
00001000
,
00000000
00000000
00000000
00000000
00100000
01000000
00100000
00000000
,
10010000
00000000
00000000
01100000
00000000
00000000
00000000
00000000
,
00010000
00001000
00001000
00000000
,
00000100
00000000
00000000
00000000
,
00000001
00000010
00000000
00000110
00000000
00001100
00000000
00000010
,
00001000
00010000
00000000
00101000
00000000
00011000
00000000
01000000
,
00100000
00000000
00000000
00000000
00000000
10000000
01000000
10000000
,
01000000
00000000
00010000
00001000
00000000
00011000
00000000
00000000
,
00100000
00010000
00000000
01010000
00000000
11000000
00000000
00100000
,
00010000
00001000
00000000
00010100
00000000
00011000
00000000
00000010
,
00000100
00000000
00000000
00000000
00000000
00000001
00000001
00000000
,
00000010
00000000
00001000
00010000
00000000
00100000
00000000
00010000
,
01000000
00000000
00000000
10000000
00100000
00000000
00000000
01000000
,
00010000
00000000
00000000
00001000
00010000
00000000
00000000
00001000
,
00000100
00000000
00000001
00000000
00000010
00000000
00000001
00000100
,
00001000
00010000
00100000
10000000
,
01000000
00100000
00000000
00101000
00000000
00110000
00000000
00001000
,
00010000
00100000
00000000
00011000
00000000
00010010
00000000
00000100
,
00001000
00000000
00000000
00000000
00000000
00000000
00000000
00010000
,
00100000
10000000
00100000
00010000
,
00001000
00000000
00000000
00010000
00000000
00000000
00000000
02000000
,
00000000
00000000
00100000
03100000
,
00010000
00000000
00000000
00001000
00000000
00000000
00000000
00000200
,
00000000
00000000
00000010
00000310
,
00000001
00000010
00000000
00000110
00000000
00001100
00000000
00000010
,
00001000
00010000
00000000
00101000
00000000
00011000
00000000
00100000
,
01000000
00000000
00000000
00000000
00000000
10000000
00100000
10000000
,
00100000
00000000
00010000
00001000
00000000
00011000
00000000
00000000
,
01000000
00010000
00000000
00110000
00000000
11000000
00000000
00100000
,
00010000
00001000
00000000
00010010
00000000
00011000
00000000
00000100
,
00000010
00000000
00000000
00000000
00000000
00000001
00000001
00000000
,
00000010
00000000
00001000
00010000
00000000
01000000
00000000
00010000
,
00100000
00000000
00000000
10000000
01000000
00000000
00000000
00100000
,
00010000
00000000
00000000
00001000
00010000
00000000
00000000
00001000
,
00000100
00000000
00000001
00000000
00000010
00000000
00000001
00000010
,
00001000
00010000
01000000
10000000
,
00100000
00010000
00000000
00101000
00000000
00110000
00000000
00001000
,
00010000
00100000
00000000
00011000
00000000
00010100
00000000
00000010
,
00001000
00000000
00000000
00000000
00000000
00000000
00000000
00010000
,
01000000
10000000
00100000
00010000
,
00001000
00000000
00000000
00000000
,
00000000
00000000
00000000
00000000
;

//---------------dance-double - ----------------
#NOTES:
     dance-double:
     :
     Hard:
     9:
     0.349590,0.374945,0.191753,0.045655,0.063918,268.000000,247.000000,21.000000,5.000000,0.000000,0.000000,0.349590,0.374945,0.191753,0.045655,0.063918,268.000000,247.000000,21.000000,5.000000,0.000000,0.000000:
00000000
00000000
00000000
00000000
,
00000000
00000000
00000000
00000000
,
00000000
00000000
00000000
00000000
,
00000001
00000000
00000010
00000001
00000000
00000000
00001000
00000010
,
00000000
00000000
00000100
00000000
00001000
00001000
00010000
00001000
,
00000100
00000000
00001000
00010000
00000000
00000000
01000000
00010000
,
00000000
00000000
01000000
00000000
10000000
10000000
00010000
00000000
,
00100000
00000000
10000000
00010000
00000000
00000000
00100000
00010000
,
00000000
00000000
00001000
00000000
00010000
00010000
00001000
00010000
,
01000000
00000000
01000000
10000000
00000000
00000000
01000000
00010000
,
00000000
00000000
00001000
00000000
00010000
00000100
00010000
00000000
,
00100000
00000000
00010000
00001000
00000000
00000000
00001000
00000010
,
00000000
00000000
00000001
00000000
00000010
00001000
00010000
00001000
,
00000010
00000000
00000001
00000100
00000000
00000000
00001000
00000100
,
00000000
00000000
00000010
00000000
00001000
00010000
01000000
00000000
,
10010000
00000000
00000000
10100000
00000000
01000000
00100000
00010000
,
00001000
00010000
00001000
00000000
,
00000110
00000000
00000000
00000000
,
00000001
00001000
00000000
00001010
00000000
00000001
00000010
00001000
,
00010000
00001000
00000000
00011000
00000000
01000000
00100000
00010000
,
00001000
00000000
01000000
00010000
00000000
00100000
00010000
00100000
,
10000000
00000000
00100000
00010000
00000000
10010000
00000000
00000000
,
10000000
00100000
00000000
01100000
00000000
10000000
01000000
00010000
,
00100000
00001000
00000000
00011000
00000000
00000100
00001000
00000100
,
00000001
00000000
00000000
00000000
00000000
00000010
00001001
00000000
,
00000010
00000001
00000100
00001000
00000000
00000100
00000000
00000001
,
00000010
00000000
00000000
00000000
00000000
00000000
00001000
00000000
00010000
00000000
00000000
00001000
00000000
00000000
00000100
00000000
,
00001000
00000000
00000000
00010000
00000000
00000000
01000000
00000000
00010000
00000000
00000000
00001000
00000000
00000000
00100000
00000000
,
01000000
00000000
00000000
01000000
00000000
00000000
00010000
00000000
00001000
00000000
00000000
00010000
00000000
00000000
00000010
00000000
,
00000100
00000000
00000000
00000100
00000000
00000000
00000001
00000000
00000010
00000000
00000000
00000001
00000000
00000000
00000100
00000000
,
00001000
00010000
00000000
00011000
00000000
00010000
01000000
10000000
,
01000000
00010000
00000000
00011000
00000000
00001000
00000100
00000001
,
00000200
00000000
00000000
00000000
00000300
00000000
00000000
00001000
,
00010000
00101000
00010000
01000000
,
10000000
00000000
00100000
00010000
00000000
00000000
00000000
00002000
,
00000000
00000000
00000100
00013000
,
00001000
00000000
00000010
00001000
00000000
00000000
00000000
00020000
,
00000000
00000000
01000000
00031000
,
00000100
00000010
00000000
00001010
00000000
00000001
00000010
00001000
,
00010000
00001000
00000000
00011000
00000000
00100000
01000000
00010000
,
00001000
00000000
00100000
00010000
00000000
01000000
00010000
01000000
,
10000000
00000000
01000000
00010000
00000000
10010000
00000000
00000000
,
00010000
00100000
00000000
01100000
00000000
00010000
01000000
10000000
,
00100000
00010000
00000000
00011000
00000000
00000010
00001000
00000010
,
00000001
00000000
00000000
00000000
00000000
00000010
00001001
00000000
,
00000100
00000001
00000010
00001000
00000000
00000010
00000000
00000001
,
00000100
00000000
00000000
00000000
00000000
00000000
00001000
00000000
00010000
00000000
00000000
00001000
00000000
00000000
00000010
00000000
,
00001000
00000000
00000000
00010000
00000000
00000000
00100000
00000000
00010000
00000000
00000000
00001000
00000000
00000000
01000000
00000000
,
00100000
00000000
00000000
00100000
00000000
00000000
00010000
00000000
00001000
00000000
00000000
00010000
00000000
00000000
00000100
00000000
,
00000010
00000000
00000000
00000010
00000000
00000000
00000001
00000000
00000100
00000000
00000000
00001000
00000000
00000000
00000100
00000000
,
00001000
00010000
00000000
00011000
00000000
00010000
01000000
10000000
,
00100000
00010000
00000000
00011000
00000000
00001000
00000100
00000001
,
00000020
00000000
00000000
00000000
00000030
00000000
00000000
00001000
,
00010000
00010010
00001000
00000100
,
00000002
00000000
00000000
00000003
,
00000000
00000000
00000000
00000000
;

//---------------dance-double - 'FREEZE' SPECIAL----------------
#NOTES:
     dance-double:
     :
     Edit:
     1:
     0.000000,0.000000,0.000000,0.000000,0.000000,0.000000,0.000000,0.000000,0.000000,0.000000,0.000000,0.000000,0.000000,0.000000,0.000000,0.000000,0.000000,0.000000,0.000000,0.000000,0.000000,0.000000:
;

//---------------dance-single - ----------------
#NOTES:
     dance-single:
     :
     Challenge:
     13:
     0.489165,0.602652,0.319588,0.365243,0.260236,375.000000,340.000000,35.000000,40.000000,88.000000,0.000000,0.489165,0.602652,0.319588,0.365243,0.260236,375.000000,340.000000,35.000000,40.000000,88.000000,0.000000:
// measure 0
0000
0000
0000
0000
,  // measure 1
0000
0000
0000
0000
,  // measure 2
0000
0000
0000
0000
,  // measure 3
0100
0000
0010
0100
0010
0000
1000
0000
MMMM
0000
0100
0000
0010
0000
0001
0000
,  // measure 4
MMMM
0000
0010
0000
0100
0000
0010
0000
1000
0100
1000
0000
0010
0000
0001
0000
,  // measure 5
0200
0000
0301
0100
MMMM
0010
1000
0010
,  // measure 6
0100
0000
0010
0100
0010
0000
1000
0000
MMMM
0000
0010
0000
0100
0000
0001
0000
,  // measure 7
MMMM
0000
1000
0000
0100
0000
0010
0000
0001
0010
0001
0000
0100
0000
0010
0000
,  // measure 8
2000
0000
0000
0000
3100
0000
0000
0000
1000
0010
1000
0000
0100
0000
0010
0000
,  // measure 9
0002
0000
0000
0000
0103
0000
0010
0000
1000
0000
0000
0100
0000
0000
0001
0000
,  // measure 10
0000
0000
0010
0000
0000
1000
0000
0000
0100
0000
0000
0010
0000
0000
0002
0000
,  // measure 11
0000
0203
0000
2300
0000
3020
0000
0230
,  // measure 12
0000
0302
0000
0000
1003
0010
0001
0100
,  // measure 13
0020
0000
1030
0010
MMMM
0010
0001
0100
,  // measure 14
MMMM
0000
1000
0000
0000
0100
0000
0000
0001
0000
0000
1000
0000
0000
0010
0000
,  // measure 15
0100
0000
0110
0010
MMMM
1000
0001
0100
,  // measure 16
0020
2030
3200
0302
,  // measure 17
0020
0000
0000
0033
,  // measure 18
0001
0000
0010
1000
0010
0000
0100
0000
MMMM
0000
1100
0000
0000
0000
1010
0000
,  // measure 19
1000
0000
0001
0100
0001
0000
0010
0000
MMMM
0000
1010
0000
0000
0000
0101
0000
,  // measure 20
0002
0000
0000
0000
1003
0000
0001
0000
MMMM
0000
0001
0000
0010
1000
0010
0000
,  // measure 21
1000
0000
1000
0000
0100
0000
0100
0000
0010
0000
0010
0000
1000
0001
1000
0000
,  // measure 22
0001
0000
0100
0001
0100
0000
0010
0000
MMMM
0000
0011
0000
0000
0000
1100
0000
,  // measure 23
1000
0000
0100
1000
0100
0000
0001
0000
MMMM
0000
0101
0000
0000
0000
0110
0000
,  // measure 24
0020
0000
0000
0000
1030
0000
0010
0000
MMMM
0000
0100
0000
0001
0010
0001
0000
,  // measure 25
1000
0000
1000
0000
0010
0000
0010
0000
0001
0000
0001
0000
0100
0010
0100
0000
,  // measure 26
1000
0000
0000
1100
0000
0000
0001
0000
0100
0000
0000
0101
0000
0000
0010
0000
,  // measure 27
1000
0000
0000
1010
0000
0000
1000
0000
0001
0000
0000
1001
0000
0000
0100
0000
,  // measure 28
0010
0000
0000
0110
0000
0000
0100
0000
0001
0000
0000
0101
0000
0000
0010
0000
,  // measure 29
1000
0000
0000
1010
0000
0000
1000
0000
0100
0000
0000
1100
0000
0000
0010
0000
,  // measure 30
0001
0000
0010
0001
0010
0000
0100
0000
MMMM
0000
1100
0000
0000
0000
1010
0000
,  // measure 31
0010
0000
0100
0010
0100
0000
0001
0000
MMMM
0000
1001
0000
0000
0000
1010
0000
,  // measure 32
1000
0100
0001
0100
1000
0010
0100
0001
,  // measure 33
0010
MMMM
0010
0000
0100
0000
0110
0000
,  // measure 34
0200
0000
0000
1000
0000
0001
0301
0020
,  // measure 35
0000
0000
0000
0000
0000
0000
0100
0000
0000
0000
0031
0000
0000
MMMM
0000
0000
,  // measure 36
2000
0001
0000
3100
MMMM
0010
0002
1000
,  // measure 37
0000
0000
0103
0000
0010
0001
0100
0000
0010
0000
0010
0000
1000
0010
0100
0000
,  // measure 38
0001
0000
0100
1000
0100
0000
0110
0000
0000
0000
0101
0000
0000
0000
1100
0000
,  // measure 39
1000
0000
0010
1000
0010
0000
0011
0000
0000
0000
0101
0000
MMMM
0000
0110
0000
,  // measure 40
0010
0000
1000
0010
1000
0000
0200
0000
0000
0000
0301
0000
0100
0000
0010
0000
,  // measure 41
1000
0000
0100
1000
0001
0000
0100
0001
1000
0000
0100
1000
0100
0001
0100
0000
,  // measure 42
0010
0000
0001
0100
0001
0000
0020
0000
0000
0000
2030
0000
0000
0000
3100
0000
,  // measure 43
1000
0000
0100
1000
0100
0000
0200
0000
0000
0000
0302
0000
0000
0000
0013
0000
,  // measure 44
0010
0000
0100
0010
0100
0000
2000
0000
0000
0000
3001
0000
0100
0000
0010
0000
,  // measure 45
1000
0001
1000
0000
0100
0000
0100
0000
0001
0000
0001
0000
0010
0001
0010
0000
,  // measure 46
0001
0000
0000
0200
0000
0000
1300
0000
0010
0000
0000
2000
0000
0000
3010
0000
,  // measure 47
0001
0000
0000
0200
0000
0000
0301
0000
1000
0000
0000
0020
0000
0000
0031
0000
,  // measure 48
0100
0000
0000
0002
0000
0000
1003
0000
0010
0000
0000
0200
0000
0000
0310
0000
,  // measure 49
0001
0000
0000
2000
0000
0000
3001
0000
0100
0000
0000
0020
0000
0000
1030
0000
,  // measure 50
0110
0000
0010
0100
0010
0000
0011
0000
0000
0000
0101
0000
MMMM
0000
1100
0000
,  // measure 51
1000
0000
0001
1000
0001
0000
1100
0000
0000
0000
1010
0000
MMMM
0000
0101
0000
,  // measure 52
0001
0000
0010
0001
1000
0000
0010
1000
0001
0000
0010
0001
0010
1000
0010
0000
,  // measure 53
0020
0032
0023
0230
,  // measure 54
2000
0000
0000
0000
,  // measure 55
3300
0000
0000
0000
;
