#VERSION:0.83;
#TITLE:Better Than Revenge;
#SUBTITLE:(Taylor's Version);
#ARTIST:Taylor Swift;
#TITLETRANSLIT:;
#SUBTITLETRANSLIT:;
#ARTISTTRANSLIT:;
#GENRE:;
#ORIGIN:;
#CREDIT:;
#BANNER:;
#BACKGROUND:Better Than Revenge (Taylor's Version)-bg.png;
#PREVIEWVID:;
#JACKET:Better Than Revenge (Taylor's Version)-jacket.png;
#CDIMAGE:;
#DISCIMAGE:;
#LYRICSPATH:;
#CDTITLE:;
#MUSIC:Taylor Swift Better Than Revenge Taylors Version Lyric Video.mp3;
#OFFSET:0.000000;
#SAMPLESTART:100.000015;
#SAMPLELENGTH:12.000000;
#SELECTABLE:YES;
#BPMS:0.000=144.000,
4.000=146.000,
143.000=73.000,
145.000=146.000,
155.000=73.000,
157.000=146.000,
275.000=73.000,
277.000=146.000,
287.000=73.000,
289.000=146.000,
301.000=73.000,
301.500=146.000,
304.500=73.000,
305.000=146.000,
308.000=73.000,
308.500=146.000,
315.500=73.000,
316.000=146.000,
337.000=292.000,
385.000=146.000,
423.500=73.000,
425.500=146.000,
435.500=73.000,
438.000=146.000;
#STOPS:67.000=1.250,
68.000=1.250,
93.000=1.230,
94.000=1.200,
199.000=1.250,
200.000=1.230,
225.000=1.230,
226.000=1.250,
385.000=1.230,
386.000=1.000,
495.000=1.230,
496.000=1.250;
#DELAYS:;
#WARPS:;
#TIMESIGNATURES:0.000=4=4;
#TICKCOUNTS:0.000=4;
#COMBOS:0.000=1;
#SPEEDS:0.000=1.000=0.000=0;
#SCROLLS:0.000=1.000;
#FAKES:;
#LABELS:0.000=Song Start;
#BGCHANGES:0.000=Better Than Revenge (Taylor's Version).mp4=1.000=0=0=1=====,
99999=-nosongbg-=1.000=0=0=0 // don't automatically add -songbackground-
;
#KEYSOUNDS:;
#ATTACKS:
;

//---------------dance-single - ----------------
#NOTEDATA:;
#CHARTNAME:;
#STEPSTYPE:dance-single;
#DESCRIPTION:;
#CHARTSTYLE:;
#DIFFICULTY:Hard;
#METER:15;
#RADARVALUES:0.503692,0.749578,0.326219,0.442407,0.176516,789.000000,716.000000,73.000000,99.000000,0.000000,0.000000,0.000000,0.000000,0.000000,0.503692,0.749578,0.326219,0.442407,0.176516,789.000000,716.000000,73.000000,99.000000,0.000000,0.000000,0.000000,0.000000,0.000000;
#CREDIT:;
#NOTES:
0000
0000
0000
0000
,
0000
0000
0000
0000
0000
0000
1000
1000
,
0100
0100
0010
0010
0001
0001
2001
0000
,
3100
0010
0001
0100
0010
0000
1020
0000
,
0130
0010
0001
0100
0010
0000
0102
0000
,
0013
0100
1000
0010
0100
0000
0200
0000
,
1000
0000
0001
0000
1300
0010
0200
0000
,
0301
0010
0100
1000
0010
0000
0200
0000
,
0301
0100
1000
0100
0001
0000
2000
0000
,
3100
0010
0001
0100
0010
0000
0020
0000
,
0001
0000
0100
0000
1030
0000
0100
0001
,
1000
0001
0100
0010
1000
0010
0100
0010
,
0001
0100
0010
1000
0200
0000
0301
0010
,
0100
1000
0010
0100
0001
1000
0100
0100
,
0010
0010
1000
0001
2000
0000
3100
0010
,
0001
0100
0010
1000
0001
0010
0100
1000
,
0010
0100
0001
0010
2000
3000
1010
0000
,
0011
0000
1000
0100
1000
0100
0001
0100
,
0001
0000
0100
0000
0010
0000
1000
0010
0000
0100
0001
0010
0200
0000
1000
0000
,
0301
0000
0010
0000
0100
0000
1000
0010
0100
0000
0010
0000
0001
0000
0100
0010
,
1000
0000
0100
0000
0020
0000
0001
0000
0130
0000
0010
0000
1000
0100
0010
0001
,
0200
0000
0010
0000
0310
0000
1000
0010
0100
0000
0010
0000
0001
0000
0100
0010
,
1000
0000
0100
0000
0010
0001
0100
0000
0010
0000
1000
0000
0100
0010
0001
0100
,
0020
0030
0101
0000
1100
0000
0100
0100
,
0100
0000
0100
0000
0100
0000
0100
0000
1001
0000
0000
0000
2000
0000
0000
3100
,
1000
0000
0100
0000
0110
0000
0000
0010
0001
0000
0100
0000
0020
0000
0000
1030
,
0010
0000
0100
0000
0110
0000
0000
0010
0001
0000
0100
0000
0020
0000
0000
0000
,
2030
0000
0100
0200
,
0000
0000
0000
0000
3300
0000
0000
0000
1000
0000
0100
0000
0002
0000
0000
0103
,
0001
0000
0100
0000
1100
0000
0000
1000
0010
0000
0100
0000
0020
0000
0000
1030
,
0010
0000
0100
0000
0110
0000
0000
0010
0001
0000
0100
0000
2000
0000
0000
0000
,
3200
0000
0001
0002
,
0000
0303
0101
1010
,
0101
0000
1010
0000
1000
0100
0001
0100
,
1000
0100
0011
0000
1100
0000
0011
0000
,
1100
0100
0001
0010
1000
0100
0020
0000
,
0000
0000
0000
0000
0031
0000
0010
0000
1000
0100
0010
0001
0100
0000
0010
0000
,
0100
0000
0001
0000
0100
0010
1000
0010
0100
0000
0010
0000
0001
0000
0100
0010
,
1000
0000
0100
0000
0020
0000
0000
0000
0032
0000
0000
0000
0103
0010
1000
0100
,
0020
0030
1001
1100
,
1000
0100
0010
0001
0100
0000
0101
0000
,
0001
0010
0100
1000
0010
0000
1010
0000
,
1000
0010
0100
0001
1000
0000
1001
0000
,
0110
0000
1002
0000
0013
0100
1000
0010
,
0100
0001
0010
0100
1000
0001
0100
0010
,
1000
0100
0010
0001
0101
0000
1000
0001
,
0010
1000
0100
0010
0001
0100
0010
1000
,
0001
0000
0010
0000
0100
0000
0000
1000
0200
0000
0000
0000
0301
0000
0100
0000
,
1000
0010
0100
0001
0010
0100
1000
0001
,
0100
0000
0010
0000
1000
0010
0100
0001
0020
0000
0130
0000
1100
0000
0000
0000
,
0101
0000
1000
0010
1000
0010
0001
0010
,
0001
0010
0100
0010
0100
0010
1000
0001
,
2000
0000
3100
0001
0100
0001
1000
0001
,
1000
0001
1000
0010
0100
0010
0001
0010
,
0200
0000
1300
0010
0100
0001
1000
0100
,
0010
0000
0001
0000
1000
0100
0010
0001
0010
0000
1000
0000
0100
0000
0010
0000
,
1000
0010
0100
0000
0110
0000
0000
0000
1001
0000
0000
0000
1000
0100
0010
0001
,
1000
0010
0100
0001
0010
0100
1000
0010
0100
0000
0010
0000
0002
0000
0000
0103
,
0001
0000
0010
0000
1010
0000
0000
1000
0100
0000
0001
0000
0020
0000
0000
1030
,
0010
0000
0100
0000
0101
0000
0000
0001
0010
0000
1000
0000
0200
0000
0000
0000
,
0320
0000
0001
0002
,
0000
0000
0000
0000
0033
0000
0000
0000
0001
0000
0010
0000
2000
0000
0000
3010
,
1000
0000
0100
0000
0101
0000
0000
0001
0010
0000
1000
0000
0200
0000
0000
0310
,
0100
0000
1000
0000
1001
0000
0000
0001
0010
0000
1000
0000
0200
0000
0000
0000
,
0320
0000
1000
2000
,
0000
3030
1010
0101
,
1010
0000
0101
0000
1000
0100
0001
0100
,
1000
0100
1100
0000
0011
0000
1100
0000
,
0011
0001
0010
1000
0100
0010
0002
0000
,
0000
0000
0000
0000
0103
0000
0010
0000
1000
0100
0010
0001
0100
0000
0010
0000
,
0001
0000
0010
0000
1000
0010
0100
0001
0010
0000
0100
0000
0001
0000
0010
1000
,
0100
0000
0010
0000
0002
0000
0000
0000
0203
0000
0000
0000
1300
0100
0010
0001
,
0200
0300
1001
2000
,
0000
3200
0000
0000
0320
0000
0000
0032
,
0000
2003
3001
2000
,
0000
0000
0200
0000
3300
0002
0000
0000
,
0000
0200
0000
0303
2000
0000
0000
0000
,
0020
0000
3030
1001
0000
1001
0000
1001
,
0000
1001
0000
0002
0000
0000
0000
0020
,
0000
0033
2000
0000
0000
0000
0002
3003
,
0000
0010
0200
0000
0010
0000
0020
0330
,
0100
0000
0010
0000
1000
0000
0000
0010
0000
0000
0001
0000
0000
0000
0010
0000
,
0200
0000
0020
0000
,
0000
0000
0330
0000
,
0000
0010
2000
0000
0000
0000
0000
0000
,
0000
0000
0002
0000
,
0000
0000
0000
0000
,
0000
0000
0000
0000
,
0000
0000
0000
0000
,
0000
0000
0000
0000
,
0000
0000
0000
0000
,
0000
0000
0000
0000
,
0000
0000
0000
0000
,
0000
0000
0000
0000
,
0000
0000
0000
0000
,
0000
0000
0000
0000
,
3003
0000
1001
0000
0110
0010
1000
0200
,
0000
0002
0000
0303
0000
0001
0010
0100
,
1000
0010
0100
0001
0010
0100
1000
0010
0100
0001
0010
0100
1000
0000
0020
0000
,
0000
1030
0010
0000
0011
0000
0001
0000
0000
0001
0100
0000
0010
0000
2000
0000
,
0000
3100
0010
0000
1001
0000
1000
0000
0000
1000
0010
0000
0100
0000
0002
0000
,
0000
0023
0000
0000
0000
0100
0000
0200
,
0000
0000
0000
0330
0000
0110
0000
1100
,
0000
0101
0000
1100
0000
1000
0010
0001
,
0010
1000
0010
0011
0000
0001
0100
0110
,
0000
1010
1000
0100
0010
0001
0100
2000
,
0000
3000
0000
0101
1000
0100
0001
1010
,
0000
0110
1000
0010
0001
1100
0000
1000
,
0001
0010
0100
0000
1000
0000
0020
0000
0000
0000
2030
0000
0000
0000
3100
0010
,
0001
0010
0200
0000
0000
0000
0300
1000
0100
0000
0001
0010
0200
0000
0000
0000
,
2300
0000
3002
0000
0000
2003
0000
3020
,
0000
0130
0010
0001
0101
0000
0200
0000
,
2300
0000
3002
0000
0103
0010
1000
0100
,
0010
0000
0001
0000
0010
0000
0100
0000
0110
0000
0100
0010
2000
0000
0000
0000
,
3020
0000
0032
0000
0000
0203
0000
0320
,
0000
0000
1030
0000
0100
0000
0010
0000
0001
0000
0100
0000
0010
1000
0200
0000
,
0301
0000
0020
0000
0000
0000
0130
0000
0001
0010
0200
0000
0310
0000
2000
0000
,
0000
0000
3010
0100
0001
0000
1000
0000
0001
0000
0010
0000
0100
0000
1000
0000
,
0100
1000
0010
0100
0010
0100
0001
0010
,
0001
0000
0010
0000
1000
0000
0100
0000
1000
0000
0100
0000
0010
0000
0001
0010
,
0001
1000
0001
1000
0010
0100
0010
0100
,
1000
0010
0001
0100
0001
0100
1100
1000
,
1001
0001
0101
0100
0110
0010
1010
1000
,
1001
0000
0001
0000
0001
0100
0010
1000
0001
0010
0100
1000
0010
0000
0000
0000
,
2002
3003
0000
0000
;

//---------------dance-single - ----------------
#NOTEDATA:;
#CHARTNAME:;
#STEPSTYPE:dance-single;
#DESCRIPTION:;
#CHARTSTYLE:;
#DIFFICULTY:Medium;
#METER:11;
#RADARVALUES:0.419425,0.499718,0.437938,0.281532,0.017875,657.000000,559.000000,98.000000,63.000000,0.000000,0.000000,0.000000,0.000000,0.000000,0.419425,0.499718,0.437938,0.281532,0.017875,657.000000,559.000000,98.000000,63.000000,0.000000,0.000000,0.000000,0.000000,0.000000;
#CREDIT:;
#NOTES:
0000
0000
0000
0000
,
0000
0000
0000
0000
0000
0000
1000
0100
,
1000
0000
0001
0100
0001
0000
2000
0000
,
3010
0100
0001
0000
0101
0000
0200
0000
,
0310
1000
0100
0000
1100
0000
0002
0000
,
0103
0010
1000
0000
1001
0000
0020
0000
,
1000
0100
0031
0200
,
0310
1000
0001
0000
1001
0000
0020
0000
,
0031
0100
0010
0000
1010
0000
2000
0000
,
3100
0010
0001
0000
1001
0000
0200
0000
,
0001
0000
0010
0000
1300
0000
1000
0001
,
0010
0000
0100
0001
0010
0000
0100
0010
,
1000
0100
0010
0001
0100
0000
0010
1000
,
0001
0000
0010
0001
0100
0000
0010
1000
,
0010
0100
0001
0010
0100
0000
1000
0010
,
0100
0000
0010
0001
0100
0000
1000
0100
,
0010
0001
0100
0010
1000
0000
2002
0000
,
3003
0000
1000
0001
1000
0000
0001
1000
,
0001
0000
1000
0010
0100
0001
1000
0100
,
0010
0000
0001
0100
0010
0000
1000
0100
,
0010
0000
1000
0010
0100
0001
1000
0100
,
0010
0000
0001
0010
1000
0000
1000
0100
,
0001
0000
1000
0010
0100
0001
1000
0100
,
0001
0000
0220
0000
0330
0000
1000
0100
,
1000
0100
0010
0001
0010
0000
0110
0000
,
0010
1000
0100
0000
0010
0001
0100
0000
,
0010
1000
0001
0000
0001
0010
0100
0000
,
2000
0000
3100
2200
,
0000
3300
1001
0101
,
0001
0010
1000
0000
1000
0100
0010
0000
,
0100
0001
0010
0000
0010
1000
0100
0000
,
0002
0000
0103
0202
,
0000
0303
1001
1100
,
1001
1100
1010
0011
,
1010
0011
0101
1100
,
0101
1100
0110
2002
,
0000
3003
0001
0010
0100
1000
0010
0000
,
1000
0010
0100
0001
0010
0000
1000
0001
,
1000
0000
0001
0000
1000
0000
0000
0000
1001
0000
0000
0000
0001
0100
0010
0100
,
2000
3000
1001
1100
,
1000
0010
0100
0000
0101
0000
1001
0000
,
0001
0010
0100
0000
1010
0000
1100
0000
,
1000
0100
0001
0000
1001
0000
0110
0000
,
1001
0000
0101
0000
0100
1000
0010
0000
,
0010
1000
0100
0000
0010
0001
0100
0000
,
0001
0010
0100
1000
0010
0000
1000
0001
,
1000
0000
0001
0100
0001
0000
1000
0100
,
0010
0001
0100
0010
1000
0000
0001
0100
,
0001
0000
1000
0100
1000
0000
0001
0010
,
1000
0010
0100
0001
1000
0000
2200
0000
,
3300
0000
1000
0001
1000
0000
0100
0001
,
0100
0000
0010
0001
0010
0000
0100
0010
,
1000
0000
0010
1000
0010
0000
0100
0001
,
0100
0000
0001
0010
0001
0000
0010
0100
,
1000
0000
1000
0001
1000
0000
0001
0100
,
0001
0000
1000
0100
0010
0000
0100
0010
,
0001
0000
0202
0000
0303
0000
1000
0100
,
0010
0001
0100
0000
1001
0000
1100
0000
,
1000
0010
0100
0000
0001
0100
0010
0000
,
1000
0100
0010
0000
0001
0010
1000
0000
,
2000
0000
3010
2020
,
0000
3030
1010
0011
,
0001
0100
0010
0000
1000
0100
0010
0000
,
0001
0010
1000
0000
1000
0100
0010
0000
,
0002
0000
0013
0022
,
0000
0033
1001
0101
,
1001
0101
1100
0101
,
1100
1010
0011
1010
,
0011
0110
1001
0220
,
0000
0330
0010
0100
0001
1000
0010
0000
,
0100
0010
1000
0001
0100
0000
0010
0100
,
0010
0000
0100
0000
0010
0000
0000
0000
1010
0000
0000
0000
1000
0100
0010
0001
,
0200
0300
0110
0020
,
0000
0230
0000
0000
2300
0000
0000
3002
,
0000
0203
1300
0020
,
0000
0000
2000
3030
0000
0200
0000
0000
,
0000
0002
0303
0000
0002
0000
0000
0000
,
2000
3003
0000
1001
0000
0110
0000
1001
,
0000
0110
0000
2000
0000
0000
0000
0020
,
3030
0000
0002
0000
0000
0000
0020
0033
,
0000
0100
0020
0000
0100
0000
0130
0000
,
1000
0000
0001
0000
1000
0000
0000
0100
0000
0000
0010
0000
0000
0000
0001
0000
,
2000
0000
0002
0000
,
0000
0000
3003
0000
,
0000
0020
0200
0000
0000
0000
0000
0000
,
0000
0000
0000
0000
,
0000
0000
0000
0000
,
0000
0000
0000
0000
,
0000
0000
0000
0000
,
0000
0000
0000
0000
,
0000
0000
0000
0000
,
0000
0000
0000
0000
,
0000
0000
0000
0000
,
0000
0000
0000
0000
,
0000
0000
0000
0000
,
0000
0000
0000
0000
,
0330
0000
0110
0000
1001
1000
0001
0020
,
0000
0200
0000
0330
0000
1000
0010
0100
,
0001
0010
0100
1000
0010
0001
0000
1001
,
0000
0010
1000
0100
0000
0010
0001
0100
,
0000
0010
1000
0001
0000
0001
0100
0010
,
0000
2000
0000
0000
0000
0001
0000
0002
,
0000
0000
0000
3003
0000
1001
0000
1010
,
0000
1001
0000
1010
0000
0011
0000
1010
,
0000
0011
0000
0101
0000
1100
0000
0101
,
0000
1100
0000
0110
0000
1001
0000
0022
,
0000
0033
0000
0010
1000
0100
0010
0001
,
0000
0001
0100
0010
1000
0100
0000
1000
,
0010
0000
0100
0000
0001
0000
1000
0000
0000
0000
0100
0000
0000
0000
0100
0010
,
1000
0100
0020
0000
0000
0000
0030
0001
0010
0000
0000
0000
1010
0000
0000
0000
,
0011
0000
0101
0000
0100
0010
0000
1010
,
0000
0010
0001
0100
0010
0000
1010
0000
,
1100
0101
1001
0011
,
1000
0010
0000
0001
0010
0100
1100
0000
,
0101
0000
1100
0000
1000
0010
0000
0110
,
0000
0010
0100
0001
0010
0000
1000
0010
,
0100
0001
0010
0000
0001
0100
0010
1000
,
0100
0000
0001
0100
0010
1000
0100
0000
,
0010
1000
0010
0000
1000
0100
1000
0000
,
0100
0001
0100
0001
0010
0001
0010
0000
,
0001
0100
0001
0000
0100
1000
0100
0000
,
1000
0010
1000
0010
0100
0010
0100
0000
,
1000
0100
0010
0001
0100
0010
1000
0001
,
0100
0010
1000
0010
0100
0000
0101
0000
,
2200
3300
0000
0000
;

//---------------dance-single - ----------------
#NOTEDATA:;
#CHARTNAME:;
#STEPSTYPE:dance-single;
#DESCRIPTION:;
#CHARTSTYLE:;
#DIFFICULTY:Easy;
#METER:7;
#RADARVALUES:0.212585,0.249859,0.040219,0.277063,0.000000,333.000000,324.000000,9.000000,62.000000,0.000000,0.000000,0.000000,0.000000,0.000000,0.212585,0.249859,0.040219,0.277063,0.000000,333.000000,324.000000,9.000000,62.000000,0.000000,0.000000,0.000000,0.000000,0.000000;
#CREDIT:;
#NOTES:
0000
0000
0000
0000
,
0000
0000
0000
0000
,
0000
0000
0000
0200
,
0300
0010
1000
0002
,
0003
1000
0010
0200
,
0300
0001
0010
0000
,
0000
0000
0000
0020
,
0030
1000
0100
0002
,
0003
1000
0001
0020
,
0030
0100
0010
2000
,
0000
3000
0000
0001
,
0000
1000
0000
0010
,
0100
0010
0000
1000
,
0000
0001
0000
0100
,
0010
0100
0000
0010
,
0000
0100
0000
1000
,
0001
2000
0000
0000
,
3000
0001
0000
0001
,
0000
1000
0001
1000
,
0000
1000
0000
1000
,
0000
0001
1000
0001
,
0000
0010
0000
0010
,
0000
0100
0010
0200
,
0000
0000
0300
0010
,
0010
0010
0010
1000
,
0001
1000
0000
0001
,
1000
0001
0010
0100
,
2000
3000
0001
2002
,
0000
0000
3003
1000
,
0010
0001
0000
0001
,
0100
1000
0010
0100
,
0020
0030
0100
0220
,
0000
0000
0330
0001
,
1000
0001
1000
0001
,
1000
0001
1000
0001
,
1000
0001
1000
0002
,
0003
1000
0100
0010
,
0100
0001
0010
0100
,
0001
1000
0010
0200
,
0000
0300
1001
0000
,
1000
0010
0001
0000
,
0001
0100
1000
0000
,
0010
1000
0100
0001
,
0010
0001
0100
1000
,
0010
1000
0100
0001
,
0010
0001
0100
0000
,
0010
1000
0001
0010
,
1000
0100
1000
0000
,
0001
0100
0001
1000
,
0010
1000
0020
0000
,
0030
1000
1000
0100
,
0100
0010
0010
0001
,
0002
0003
0100
0100
,
0010
0010
1000
1000
,
0002
0003
1000
0001
,
1000
0000
0001
0100
,
0002
0000
0003
0100
,
0100
0100
0100
1000
,
0100
0001
0000
0001
,
0100
1000
0010
0100
,
0020
0030
0001
0022
,
0000
0000
0033
0001
,
0100
1000
0000
1000
,
0100
0010
0001
0010
,
0200
0300
1000
2200
,
0000
0000
3300
0100
,
0010
0100
0010
0100
,
0010
0100
0010
0100
,
0010
0100
0010
0200
,
0300
0010
1000
0001
,
0010
0100
1000
0100
,
0010
0001
1000
0020
,
0000
0030
1001
2000
,
0000
3200
0000
0320
,
0000
0032
0000
0203
,
0000
0000
0300
0000
0000
0020
0000
0000
,
0000
0030
0000
0000
2000
0000
0000
0000
,
3000
0000
0000
0010
0000
0100
0000
0001
,
0000
1000
0000
0020
0000
0000
0000
0030
,
0000
0200
0000
0300
,
0000
0010
1000
0001
,
0010
0100
1000
0001
,
0100
0000
2020
0000
,
0000
0000
3030
0000
,
0000
0202
0000
0000
,
0000
0000
0000
0000
,
0000
0000
0000
0000
,
0000
0000
0000
0000
,
0000
0000
0000
0000
,
0000
0000
0000
0000
,
0000
0000
0000
0000
,
0000
0000
0000
0000
,
0000
0000
0000
0000
,
0000
0000
0000
0000
,
0000
0000
0000
0000
,
0000
0000
0000
0000
,
0000
0000
0303
0000
,
0000
2000
0000
0020
0000
3030
0000
0010
,
0000
0100
0000
0001
0000
0010
0000
1000
,
0000
0010
0000
0001
0000
0000
0000
0001
,
0000
0100
0000
1000
0000
0010
0000
0100
,
0000
0002
0000
0003
0000
0100
0000
0202
,
0000
0000
0000
0000
0000
0303
0000
0010
,
0000
1000
0000
0100
0000
0001
0000
0010
,
0000
0001
0000
0100
0000
1000
0000
0010
,
0000
1000
0000
0100
0000
0001
0000
0020
,
0000
0030
0000
0010
0000
0010
0000
0010
,
0000
0100
0000
0100
0000
0100
0000
1000
,
0000
0001
0000
1000
0000
0001
0000
0002
,
0000
0000
0000
0003
0000
0000
0200
0000
,
2300
3002
0003
0020
,
0230
2300
3001
1000
,
0001
1000
0010
0100
,
0001
0010
1000
0200
,
0302
0023
0030
2000
,
3200
0320
0030
0001
,
0100
0010
1000
0010
,
0100
0001
0010
0100
,
1000
0001
0100
0010
,
1000
0100
0010
0001
,
0010
0100
1000
0010
,
0100
0001
1000
0100
,
0010
0010
0001
0001
,
0100
0100
2000
0000
,
0000
3000
0000
0000
;
