#TITLE:Beautiful Life;
#SUBTITLE:;
#ARTIST:ARIA;
#TITLETRANSLIT:;
#SUBTITLETRANSLIT:;
#ARTISTTRANSLIT:;
#GENRE:;
#CREDIT:;
#BANNER:Beautiful Life.png;
#BACKGROUND:Beautiful Life-bg.png;
#LYRICSPATH:;
#CDTITLE:;
#MUSIC:Beautiful Life.ogg;
#OFFSET:0.000000;
#SAMPLESTART:51.887001;
#SAMPLELENGTH:15.000000;
#SELECTABLE:YES;
#DISPLAYBPM:100.000000;
#BPMS:0.000000=100.000000
;
#STOPS:
;
#BGCHANGES:0.000=Beautiful Life-bg.png=1.000=0=0=1=====,
2.000=Beautiful Life-avi.mp4=1.000=0=0=1=====,
151.000=Beautiful Life-bg (2).png=1.000=0=0=1=====,
99999=-nosongbg-=1.000=0=0=0 // don't automatically add -songbackground-
;
#KEYSOUNDS:;
#ATTACKS:;

//---------------dance-single - ----------------
#NOTES:
     dance-single:
     :
     Beginner:
     1:
     0.105722,0.178405,0.000000,0.000000,0.000000,70.000000,70.000000,0.000000,0.000000,0.000000,0.000000,0.105722,0.178405,0.000000,0.000000,0.000000,70.000000,70.000000,0.000000,0.000000,0.000000,0.000000:
0000
0000
0000
0000
,
0000
0000
0000
0000
,
0000
0000
0000
0000
,
0000
0000
0000
0000
,
1000
0000
0000
0000
,
0001
0000
0000
0000
,
1000
0000
0000
0000
,
0001
0000
0000
0000
,
0010
0000
0000
0000
,
0100
0000
0000
0000
,
1000
0000
1000
0000
,
0001
0000
0001
0000
,
0100
0000
0000
0000
,
0010
0000
0000
0000
,
1000
0000
1000
0000
,
0001
0000
0001
0000
,
0100
0000
0100
0000
,
0010
0000
0010
0000
,
1000
1000
1000
0000
,
0001
0001
0001
0000
,
0010
0000
0010
0000
,
0100
0000
0100
0000
,
1000
0000
0001
0000
,
1000
0000
0001
0000
,
0010
0000
0010
0000
,
0100
0000
0100
0000
,
0001
0001
0001
0001
,
1000
1000
1000
1000
,
0100
0000
0100
0000
,
0010
0000
0010
0000
,
0001
0000
1000
0000
,
0001
0000
1000
0000
,
0010
0000
1000
0000
,
0100
0000
0001
0000
,
1000
1000
1000
1000
,
0001
0001
0001
0001
,
0100
0000
0010
0000
,
0001
0000
1000
0000
;

//---------------dance-single - ----------------
#NOTES:
     dance-single:
     :
     Easy:
     3:
     0.144990,0.179595,0.000000,0.010572,0.000000,96.000000,96.000000,0.000000,1.000000,0.000000,0.000000,0.144990,0.179595,0.000000,0.010572,0.000000,96.000000,96.000000,0.000000,1.000000,0.000000,0.000000:
0000
0000
0000
0000
,
0000
0000
0000
0000
,
0000
0000
0000
0000
,
0000
0000
0000
0000
,
1000
0000
0001
0000
,
1000
0000
0001
0000
,
0010
0000
0100
0000
,
0001
0000
0010
0000
,
1000
0000
0010
0000
,
0100
0000
0001
0000
,
1000
1000
0001
0001
,
1000
0001
1000
0001
,
0100
0000
1000
0000
,
0010
0000
0001
0000
,
0100
0000
0001
0000
,
1000
0000
0010
0000
,
0100
0000
1000
0000
,
0100
0000
0001
0000
,
1000
1000
0001
0001
,
1000
0001
1000
0001
,
0010
0000
0100
0000
,
1000
0000
0001
0000
,
1000
1000
0100
0000
,
0001
0001
0100
0000
,
1000
1000
0010
0000
,
0001
0001
0010
0000
,
0001
0001
1000
1000
,
0001
1000
0001
1000
,
0100
0100
0010
0000
,
0010
0010
0100
0000
,
0001
1000
0001
0000
,
1000
0001
1000
0000
,
0010
0010
1000
0000
,
0100
0100
0001
0000
,
1000
1000
0001
0001
,
1000
0001
1000
0001
,
0100
0100
0010
0000
,
0001
1000
0002
0003
;

//---------------dance-single - ----------------
#NOTES:
     dance-single:
     :
     Medium:
     7:
     0.228057,0.259415,0.169155,0.010572,0.005286,151.000000,135.000000,16.000000,1.000000,0.000000,0.000000,0.228057,0.259415,0.169155,0.010572,0.005286,151.000000,135.000000,16.000000,1.000000,0.000000,0.000000:
0000
0000
0000
0000
,
0000
0000
0000
0000
,
0000
0000
0000
0000
,
0000
0000
0000
0000
,
0010
1000
0001
0100
,
1000
0010
0001
0100
,
1000
0001
0100
0001
,
0010
1000
0010
0100
,
0001
1000
0001
0010
,
0100
0001
1000
0010
,
0001
1001
1000
1001
,
0001
1001
1000
1001
,
0001
0010
1000
0100
,
0010
0001
1000
0100
,
0001
0010
1000
0001
,
1000
0010
0001
0010
,
0100
1000
0001
1000
,
0010
0001
0100
1000
,
0001
1001
1000
1001
,
0001
1001
1000
1001
,
0100
0001
1000
0010
,
0001
0100
0001
0010
,
0001
1000
0010
0001
,
0100
0001
1000
0010
,
1000
0001
0010
0100
,
0010
1000
0001
0100
,
1000
1001
0001
1001
,
1000
1001
0001
1001
,
1000
0100
0010
0001
,
0010
1000
0100
0010
,
1000
0100
0001
1000
,
0001
0100
0010
1000
,
0010
0001
1000
0001
,
0010
1000
0100
0001
,
1000
1001
0001
1001
,
1000
1001
0001
1001
,
0010
0100
0001
1000
,
0100
0000
0000
0000
1000
0000
0000
0002
0000
0000
0000
0000
0003
0000
0000
0000
;

//---------------dance-single - ----------------
#NOTES:
     dance-single:
     :
     Hard:
     12:
     0.407784,0.359189,0.433459,0.021144,0.253732,270.000000,229.000000,41.000000,2.000000,0.000000,0.000000,0.407784,0.359189,0.433459,0.021144,0.253732,270.000000,229.000000,41.000000,2.000000,0.000000,0.000000:
0000
0000
0000
0000
,
0000
0000
0000
0000
,
0000
0000
0000
0000
,
0000
0000
0000
0000
,
0010
0000
0100
0000
1000
0000
0000
0001
0000
0100
0010
0000
0100
0000
0001
0000
,
1000
0000
0001
0000
0010
0000
0000
0001
0000
1000
0010
0000
0100
0000
0001
0000
,
1000
0000
0100
0000
0001
0000
0000
0100
0000
1000
0001
0000
0010
0000
0100
0000
,
0010
0000
0001
0000
1000
0000
0000
0110
0000
0000
1001
0000
0100
0000
0000
0000
,
0001
0000
0010
0000
1000
0000
0000
0001
0000
0100
1000
0000
0010
0000
1000
0000
,
0100
0000
0010
0000
0001
0000
0000
1000
0000
0010
0100
0000
0010
0000
1000
0000
,
1010
0101
0011
1100
,
1010
0011
0101
1100
,
0001
0000
1000
0000
0010
0000
0000
0100
0000
0010
1000
0000
0100
0000
0010
0000
,
0100
0000
1000
0000
0001
0000
0000
0010
0000
1000
0010
0000
0100
0000
0010
0000
,
0001
0000
0100
0000
0010
0000
0000
1000
0000
0100
0010
0000
0001
0000
0100
0000
,
1000
0000
0100
0000
0010
0000
0000
1001
0000
0000
0110
0000
0001
0000
0000
0000
,
0100
0000
0001
0000
1000
0000
0000
0001
0000
0100
0010
0000
1000
0000
0001
0000
,
1000
0000
0100
0000
0001
0000
0000
0100
0000
0010
0001
0000
1000
0000
0001
0000
,
0110
1001
0110
1001
,
1010
0101
0011
1100
,
0100
0000
0010
0000
0001
0000
0000
1000
0000
0010
0100
0000
0010
0000
1000
0000
,
0001
0000
1000
0000
0100
0000
0000
1000
0000
0001
0100
0000
0010
0000
1000
0000
,
0001
0000
0010
0000
1000
0000
0000
0010
0000
0001
1000
0000
0100
0000
0010
0000
,
0100
0000
1000
0000
0001
0000
0000
0110
0000
0000
1001
0000
0010
0000
0000
0000
,
1000
0000
0100
0000
0001
0000
0000
1000
0000
0010
0001
0000
0100
0000
0001
0000
,
0010
0000
0100
0000
1000
0000
0000
0001
0000
0100
0010
0000
0100
0000
0001
0000
,
0101
1100
1010
0011
,
1001
1100
1001
0101
,
1000
0000
0001
0000
0100
0000
0000
0010
0000
0100
0001
0000
0010
0000
0100
0000
,
0010
0000
0001
0000
1000
0000
0000
0100
0000
0001
0100
0000
0010
0000
0100
0000
,
1000
0000
0010
0000
0100
0000
0000
0001
0000
0010
0100
0000
1000
0000
0010
0000
,
0001
0000
0010
0000
0100
0000
0000
1001
0000
0000
0110
0000
1000
0000
0000
0000
,
0010
0000
1000
0000
0001
0000
0000
1000
0000
0010
0100
0000
0001
0000
1000
0000
,
0001
0000
0010
0000
1000
0000
0000
0010
0000
0100
1000
0000
0001
0000
1000
0000
,
0110
1010
1001
1100
,
0110
0011
1001
0101
,
0010
0000
0001
0000
0100
0000
0000
0010
0000
1000
0100
0000
1000
0000
0010
0000
,
0100
0000
0001
0000
1000
0001
0000
2002
0000
0000
0000
0000
3003
0000
0000
0000
;

//---------------dance-double - ----------------
#NOTES:
     dance-double:
     :
     Easy:
     2:
     0.126866,0.179595,0.000000,0.010572,0.000000,84.000000,84.000000,0.000000,1.000000,0.000000,0.000000,0.126866,0.179595,0.000000,0.010572,0.000000,84.000000,84.000000,0.000000,1.000000,0.000000,0.000000:
00000000
00000000
00000000
00000000
,
00000000
00000000
00000000
00000000
,
00000000
00000000
00000000
00000000
,
00000000
00000000
00000000
00000000
,
00000010
00000000
00000001
00000000
,
00000100
00000000
00001000
00000000
,
00010000
00000000
01000000
00000000
,
00100000
00000000
01000000
00000000
,
00010000
00000000
10000000
00000000
,
00100000
00000000
00010000
00000000
,
00001000
00001000
00010000
00010000
,
00001000
00010000
00001000
00010000
,
00000100
00000000
00001000
00000000
,
00000010
00000000
00001000
00000000
,
00000001
00000000
00000010
00000000
,
00001000
00000000
00010000
00000000
,
01000000
00000000
10000000
00000000
,
00100000
00000000
00010000
00000000
,
00001000
00001000
00010000
00010000
,
00001000
00010000
00001000
00010000
,
00000010
00000000
00001000
00000000
,
00000001
00000000
00000100
00000000
,
00000001
00000000
00001000
00000000
,
00000100
00000000
00000010
00000000
,
00001000
00000000
00010000
00000000
,
00100000
00000000
10000000
00000000
,
00010000
00010000
10000000
10000000
,
00010000
10000000
00010000
10000000
,
01000000
00000000
00010000
00000000
,
00001000
00000000
00000100
00000000
,
00000010
00000000
00001000
00000000
,
00000100
00000000
00000010
00000000
,
00001000
00000000
00010000
00000000
,
00100000
00000000
10000000
00000000
,
00010000
00010000
10000000
10000000
,
00010000
10000000
00010000
10000000
,
00100000
00000000
00010000
00000000
,
00001000
00000000
00000020
00000030
;

//---------------dance-double - ----------------
#NOTES:
     dance-double:
     :
     Medium:
     3:
     0.209933,0.259415,0.169155,0.010572,0.005286,139.000000,123.000000,16.000000,1.000000,0.000000,0.000000,0.209933,0.259415,0.169155,0.010572,0.005286,139.000000,123.000000,16.000000,1.000000,0.000000,0.000000:
00000000
00000000
00000000
00000000
,
00000000
00000000
00000000
00000000
,
00000000
00000000
00000000
00000000
,
00000000
00000000
00000000
00000000
,
01000000
00010000
10000000
00000000
,
00010000
01000000
10000000
00100000
,
00010000
00001000
00000010
00000000
,
00000100
00000001
00000100
00000010
,
00001000
00000001
00001000
00000000
,
00000010
00001000
00000001
00000100
,
00001000
00011000
00010000
00011000
,
00100000
00011000
00000010
00011000
,
00100000
01000000
00010000
00000000
,
01000000
10000000
00010000
00100000
,
10000000
01000000
00010000
00000000
,
00001000
00000100
00000001
00000100
,
00000010
00000001
00001000
00000000
,
00000100
00001000
00000010
00001000
,
00010000
00011000
00001000
00011000
,
01000000
00011000
00000100
00011000
,
00100000
10000000
00010000
00000000
,
10000000
00100000
10000000
01000000
,
10000000
00010000
01000000
00000000
,
00100000
10000000
01000000
00010000
,
00001000
00000100
00000001
00000000
,
00000001
00000010
00001000
00010000
,
00001000
00011000
00010000
00011000
,
00000010
00011000
00100000
00011000
,
00010000
00100000
01000000
00000000
,
01000000
00010000
00100000
01000000
,
00010000
00100000
10000000
00000000
,
00010000
00100000
01000000
00010000
,
00001000
00000100
00000001
00000000
,
00000100
00000001
00000010
00001000
,
00010000
00011000
00001000
00011000
,
01000000
00011000
00000100
00011000
,
01000000
00100000
00010000
01000000
,
00100000
00000000
00000000
00000000
00010000
00000000
00000000
20000000
00000000
00000000
00000000
00000000
30000000
00000000
00000000
00000000
;

//---------------dance-double - ----------------
#NOTES:
     dance-double:
     :
     Hard:
     7:
     0.409294,0.379144,0.285448,0.021144,0.274876,271.000000,244.000000,27.000000,2.000000,0.000000,0.000000,0.409294,0.379144,0.285448,0.021144,0.274876,271.000000,244.000000,27.000000,2.000000,0.000000,0.000000:
00000000
00000000
00000000
00000000
,
00000000
00000000
00000000
00000000
,
00000000
00000000
00000000
00000000
,
00000000
00000000
00000000
00000000
,
00001010
00000000
00000100
00000000
00000001
00000000
00000000
00001000
00000000
00000100
00000010
00000000
00000100
00000000
00000000
00000000
,
00001001
00000000
00001000
00000000
00000010
00000000
00000000
00001000
00000000
00000001
00000010
00000000
00000100
00000000
00000000
00000000
,
00001010
00000000
00010000
00000000
00100000
00000000
00000000
01000000
00000000
00010000
10000000
00000000
00100000
00000000
00000000
00000000
,
01100000
00000000
10000000
00000000
00010000
00000000
00000000
00100000
00000000
01000000
10000000
00000000
01000000
00000000
00000000
00000000
,
01010000
00000000
00001000
00000000
00010000
00000000
00000000
00001000
00000000
00000100
00000001
00000000
00000010
00000000
00000000
00000000
,
00001100
00000000
00000010
00000000
00001000
00000000
00000000
00000001
00000000
00000010
00000100
00000000
00000010
00000000
00000000
00000000
,
00000001
00000001
00000100
00000100
00001000
00001000
00010000
00010000
,
01000000
01000000
10000000
10000000
00100000
00100000
00010000
00010000
,
00011000
00000000
00010000
00000000
01000000
00000000
00000000
00100000
00000000
00010000
01000000
00000000
00100000
00000000
00000000
00000000
,
10010000
00000000
10000000
00000000
01000000
00000000
00000000
00010000
00000000
00001000
00010000
00000000
00000100
00000000
00000000
00000000
,
00001100
00000000
00000100
00000000
00000010
00000000
00000000
00000001
00000000
00000100
00000010
00000000
00001000
00000000
00000000
00000000
,
00011000
00000000
00010000
00000000
00100000
00000000
00000000
10000000
00000000
01000000
10000000
00000000
00100000
00000000
00000000
00000000
,
01010000
00000000
10000000
00000000
00010000
00000000
00000000
10000000
00000000
01000000
00100000
00000000
00010000
00000000
00000000
00000000
,
10100000
00000000
01000000
00000000
10000000
00000000
00000000
00100000
00000000
01000000
00010000
00000000
10000000
00000000
00000000
00000000
,
00100000
00100000
10000000
10000000
01000000
01000000
00010000
00010000
,
00001000
00001000
00000010
00000010
00000001
00000001
00000100
00000100
,
00000110
00000000
00000010
00000000
00000001
00000000
00000000
00001000
00000000
00000010
00000100
00000000
00000010
00000000
00000000
00000000
,
00001001
00000000
00001000
00000000
00000100
00000000
00000000
00001000
00000000
00000001
00000100
00000000
00000010
00000000
00000000
00000000
,
00001010
00000000
00010000
00000000
01000000
00000000
00000000
00100000
00000000
00010000
10000000
00000000
01000000
00000000
00000000
00000000
,
01100000
00000000
10000000
00000000
00010000
00000000
00000000
01000000
00000000
00100000
10000000
00000000
00100000
00000000
00000000
00000000
,
00110000
00000000
00001000
00000000
00010000
00000000
00000000
00001000
00000000
00000010
00000001
00000000
00000100
00000000
00000000
00000000
,
00001010
00000000
00000100
00000000
00001000
00000000
00000000
00000001
00000000
00000100
00000010
00000000
00000100
00000000
00000000
00000000
,
00000001
00000001
00000010
00000010
00000001
00000001
00000100
00000100
,
00001000
00001000
00010000
00010000
00100000
00100000
10000000
10000000
,
01010000
00000000
00010000
00000000
00100000
00000000
00000000
01000000
00000000
00010000
00100000
00000000
01000000
00000000
00000000
00000000
,
10010000
00000000
10000000
00000000
00100000
00000000
00000000
00010000
00000000
00001000
00010000
00000000
00000010
00000000
00000000
00000000
,
00001010
00000000
00000010
00000000
00000100
00000000
00000000
00000001
00000000
00000010
00000100
00000000
00001000
00000000
00000000
00000000
,
00011000
00000000
00010000
00000000
01000000
00000000
00000000
10000000
00000000
00100000
10000000
00000000
01000000
00000000
00000000
00000000
,
00110000
00000000
10000000
00000000
00010000
00000000
00000000
10000000
00000000
00100000
01000000
00000000
00010000
00000000
00000000
00000000
,
11000000
00000000
00100000
00000000
10000000
00000000
00000000
01000000
00000000
00100000
00010000
00000000
10000000
00000000
00000000
00000000
,
01000000
01000000
10000000
10000000
00100000
00100000
00010000
00010000
,
00001000
00001000
00000100
00000100
00000001
00000001
00000010
00000010
,
00000110
00000000
00001000
00000000
00000010
00000000
00000000
00000100
00000000
00000001
00000010
00000000
00000001
00000000
00000000
00000000
,
00000110
00000000
00001000
00000000
00010000
00001000
00000000
00022000
00000000
00000000
00000000
00000000
00033000
00000000
00000000
00000000
;

//---------------dance-single - ----------------
#NOTES:
     dance-single:
     :
     Challenge:
     13:
     0.622248,0.598649,0.581469,0.401742,0.713621,412.000000,357.000000,55.000000,38.000000,0.000000,0.000000,0.622248,0.598649,0.581469,0.401742,0.713621,412.000000,357.000000,55.000000,38.000000,0.000000,0.000000:
// measure 0
0000
0000
0000
0000
,  // measure 1
0000
0000
0000
0000
,  // measure 2
0001
0000
1000
0000
2001
0000
3001
0100
0000
0100
0010
0000
0200
0000
0320
0000
,  // measure 3
1030
0000
0100
0000
1200
0000
0310
0001
0000
0001
0100
0000
0101
0000
1100
0000
,  // measure 4
1000
0100
1000
0100
0010
0001
0010
0001
0000
0001
0100
0000
0101
0000
1100
0000
,  // measure 5
1000
0000
0000
0010
0000
0000
1000
0000
0000
0010
0000
0000
0100
0000
0000
0001
0000
0000
0100
0000
0000
0001
0000
0000
0010
0000
0000
0000
0001
0000
0100
0000
0000
0000
0000
0000
1000
0000
0000
0000
0000
0000
1000
0000
0000
0100
0000
0000
,  // measure 6
0010
0000
1000
0001
1000
0001
0000
0100
0010
0000
1000
0010
0000
0010
0100
0000
,  // measure 7
0101
0000
0110
0000
1010
0000
0010
0001
0000
0100
0010
0000
1020
0000
0130
0001
,  // measure 8
0000
0000
0000
0010
0000
0000
0100
0000
0000
1000
0000
0000
0100
0000
0000
0000
0000
0000
0010
0000
0000
1000
0000
0000
0000
0000
0000
0010
0000
0000
1000
0000
0000
0000
0000
0000
1000
0000
0001
0000
1000
0000
0001
0000
0000
1000
0000
0000
,  // measure 9
0200
0000
0000
0000
0000
0000
0000
0000
1300
0000
0000
0000
0010
0000
0000
0100
0000
0000
0001
0000
0000
0100
0000
0000
0001
0000
0000
0100
0000
0000
0010
0000
0000
0000
0000
0000
1010
0000
0000
0000
0000
0000
0101
0000
0000
0000
0000
0000
,  // measure 10
0022
0033
0202
0303
2200
3300
2020
3030
,  // measure 11
0220
0000
0330
0000
2002
0000
3003
0000
0110
0000
0000
1001
0000
0000
0110
0000
,  // measure 12
0100
0000
0000
0000
0000
0000
0001
0000
0000
0010
0000
0000
0001
0000
0000
0010
0000
0000
0100
0000
0000
1000
0000
0000
0100
0000
0000
1000
0000
0000
0100
0000
0000
0000
0010
0000
0100
0000
0000
0000
0000
0000
0001
0000
0000
0100
0000
0000
,  // measure 13
0010
0000
0000
0000
0000
0000
0010
0000
0000
0100
0000
0000
1000
0000
0000
0000
0000
0000
1000
0000
0000
0010
0000
0000
0100
0000
0001
0000
0000
0000
0100
0000
0001
0000
0000
0000
0100
0000
0000
0000
0000
0000
0100
0000
0000
0020
0000
0000
,  // measure 14
0000
0000
0000
0000
1030
0000
0100
0000
0102
0000
0103
0000
0000
0000
1000
0100
,  // measure 15
0000
0100
0001
0100
0020
0000
1030
0100
0000
0100
0001
0100
0010
0010
0100
0010
,  // measure 16
0000
0000
0000
0100
0000
0000
0010
0000
0000
1000
0000
0000
0002
0000
0000
0000
0000
0000
0000
0000
0000
0000
0000
0000
1003
0000
0000
0010
0000
0000
0100
0000
0000
0001
0000
0000
0010
0000
0100
0000
0010
0000
0100
0000
0000
0010
0000
0000
,  // measure 17
0000
0100
1000
0100
0020
0000
0000
0031
0000
0010
0100
1000
0001
1000
0001
1000
,  // measure 18
1001
0000
0000
0000
0101
0000
0000
0000
1100
0000
0000
0000
1010
0000
0000
1000
,  // measure 19
0001
1001
0000
1000
0100
0000
1100
0000
0010
0001
0100
0001
1000
0001
0100
0010
,  // measure 20
0200
0000
1300
0000
1001
0000
0101
0000
1000
0100
0001
0100
1000
0100
0010
0000
,  // measure 21
0210
0000
0000
0000
0310
0000
0000
0000
0000
0000
0000
0000
0000
0000
0000
0000
0000
0000
0000
0000
0010
0000
0000
0001
0100
0000
0000
0000
0010
0000
0000
0000
,  // measure 22
2000
0000
0000
3100
0010
0000
0001
0010
0000
0010
0100
0000
1100
0000
0101
0000
,  // measure 23
0210
0001
1300
1010
0110
0101
0011
0000
,  // measure 24
0020
0000
0000
0000
0000
0000
1030
0000
0001
0000
0000
0000
0100
0000
0010
0000
0000
0000
0010
0000
1000
0000
0000
0000
1000
0100
1000
0000
0100
0000
0010
0000
,  // measure 25
0002
0000
0000
0103
0001
0100
0001
0000
0101
0000
1001
0000
1010
0000
0000
0000
,  // measure 26
0120
1000
0001
0130
,  // measure 27
0210
0000
0000
0000
1300
0000
0010
0001
0010
0000
0001
0010
0000
0010
0100
0000
,  // measure 28
1000
0100
1000
0100
1000
0100
1000
0100
1000
0000
0100
0010
0100
0010
0001
0000
,  // measure 29
0001
0100
0001
0100
0001
0100
0001
0100
0010
0000
1000
0100
0010
0001
0100
0000
,  // measure 30
0002
0000
0000
0013
0100
0000
0010
1000
0000
0100
0001
0000
0101
0000
0110
0000
,  // measure 31
0200
0000
0000
1300
0001
0000
0100
0000
0110
0000
1010
0000
1001
0000
0000
0000
,  // measure 32
0200
0000
0000
0000
0000
0000
0000
0000
0000
0310
0000
0000
0001
0000
0000
0000
0000
0000
0010
0000
0000
1000
0000
0000
0000
0000
0000
1000
0000
0000
0001
0000
0000
0000
0000
0000
0100
0000
0001
0000
0100
0000
0001
0000
0000
0100
0000
0000
,  // measure 33
0020
0000
0000
0130
1000
0100
0001
0000
0101
0000
0110
0000
1010
0000
1001
0000
,  // measure 34
0001
0010
0000
0000
0000
0000
0000
0000
0000
0000
0000
0000
0010
1000
0000
0000
0000
0000
0000
0000
0000
0000
0000
0000
1000
0100
0000
0000
0000
0000
0000
0000
0000
0000
0000
0000
0100
0001
0000
0000
0000
0000
0000
0000
0000
0000
0000
0000
,  // measure 35
0100
0010
0000
0000
0000
0000
0000
0000
0000
0000
0000
0000
0001
1000
0000
0000
0000
0000
0100
0000
0000
0010
0000
0000
0200
0000
0000
0000
0000
0000
0310
0000
0000
0001
0000
0000
1000
0000
0000
0001
0000
0000
0100
0000
0000
0001
0000
0000
,  // measure 36
0100
0010
0100
0010
1000
0001
1000
0001
1000
0000
0100
1000
0000
1000
0001
0000
,  // measure 37
0101
0000
0110
0000
0010
1000
0000
2200
0000
0000
0000
0000
3300
0000
0000
0000
;
