#VERSION:0.83;
#TITLE:Be your wings;
#SUBTITLE:;
#ARTIST:GIRL NEXT DOOR;
#TITLETRANSLIT:;
#SUBTITLETRANSLIT:;
#ARTISTTRANSLIT:;
#GENRE:;
#ORIGIN:;
#CREDIT:;
#BANNER:Be your wings.png;
#BACKGROUND:Be your wings-bg.png;
#PREVIEWVID:;
#JACKET:Be your wings-jacket.png;
#CDIMAGE:;
#DISCIMAGE:;
#LYRICSPATH:;
#CDTITLE:;
#MUSIC:Be your wings.ogg;
#OFFSET:0.000000;
#SAMPLESTART:60.869999;
#SAMPLELENGTH:15.000000;
#SELECTABLE:YES;
#BPMS:0.000=138.000;
#STOPS:;
#DELAYS:;
#WARPS:;
#TIMESIGNATURES:0.000=4=4;
#TICKCOUNTS:0.000=4;
#COMBOS:0.000=1;
#SPEEDS:0.000=1.000=0.000=0;
#SCROLLS:0.000=1.000;
#FAKES:;
#LABELS:0.000=Song Start;
#BGCHANGES:0.000=Be your wings.avi=1.000=0=0=0=StretchNoLoop====,
99999=-nosongbg-=1.000=0=0=0 // don't automatically add -songbackground-
;
#KEYSOUNDS:;
#ATTACKS:
;

//---------------dance-single - ----------------
#NOTEDATA:;
#CHARTNAME:;
#STEPSTYPE:dance-single;
#DESCRIPTION:;
#CHARTSTYLE:;
#DIFFICULTY:Beginner;
#METER:1;
#RADARVALUES:0.087901,0.131130,0.020174,0.000000,0.000000,61.000000,59.000000,2.000000,0.000000,0.000000,0.000000,0.000000,0.000000,0.000000,0.087901,0.131130,0.020174,0.000000,0.000000,61.000000,59.000000,2.000000,0.000000,0.000000,0.000000,0.000000,0.000000,0.000000;
#CREDIT:;
#NOTES:
0000
0000
0000
0000
,
0000
0000
0000
0000
,
0000
0000
0000
0000
,
0000
0000
0000
0000
,
0000
0000
0000
0000
,
0001
0000
0000
0000
,
0001
0000
0000
0000
,
1000
0000
0000
0000
,
1000
0000
0000
0000
,
1001
0000
0000
0000
,
0010
0000
0000
0000
,
0010
0000
0000
0000
,
0100
0000
0000
0000
,
0100
0000
0000
0000
,
0010
0000
0000
0000
,
0100
0000
0000
0000
,
0010
0000
0000
0000
,
0100
0000
0000
0000
,
0001
0000
0000
0000
,
0001
0000
0000
0000
,
1000
0000
0000
0000
,
1000
0000
0000
0000
,
0001
0000
0000
0000
,
0001
0000
0000
0000
,
1000
0000
0000
0000
,
1000
0000
0000
0000
,
0001
0000
0000
0000
,
1000
0000
0000
0000
,
0001
0000
0000
0000
,
1000
0000
0000
0000
,
0001
0000
0001
0000
,
0010
0000
0010
0000
,
0100
0000
0100
0000
,
1000
0000
1000
0000
,
0000
0000
0000
0000
,
0001
0000
0001
0000
,
0010
0000
0010
0000
,
0100
0000
0000
0000
,
0100
0000
0000
0000
,
1000
0000
1000
0000
,
0100
0000
0100
0000
,
0010
0000
0000
0000
,
0010
0000
0000
0000
,
1000
0000
1000
0000
,
0100
0000
0100
0000
,
0010
0000
0000
0000
,
0010
0000
0000
0000
,
0001
0000
0001
0000
,
0010
0000
0010
0000
,
0100
0000
0000
0000
,
0100
0000
0000
0000
,
0010
0000
0000
0000
,
1001
0000
0000
0000
,
0000
0000
0000
0000
;

//---------------dance-single - ----------------
#NOTEDATA:;
#CHARTNAME:;
#STEPSTYPE:dance-single;
#DESCRIPTION:;
#CHARTSTYLE:;
#DIFFICULTY:Easy;
#METER:4;
#RADARVALUES:0.191652,0.236035,0.040348,0.060522,0.000000,133.000000,129.000000,4.000000,6.000000,0.000000,0.000000,0.000000,0.000000,0.000000,0.191652,0.236035,0.040348,0.060522,0.000000,133.000000,129.000000,4.000000,6.000000,0.000000,0.000000,0.000000,0.000000,0.000000;
#CREDIT:;
#NOTES:
0000
0000
0000
0000
,
0000
0000
0000
0000
,
0000
0000
0000
0000
,
0000
0000
0000
0000
,
0000
0000
0000
0000
,
0020
0130
0000
0100
,
0010
1000
0100
0010
,
0001
0010
0100
1000
,
0020
0000
0000
0030
,
0200
0000
0000
0310
,
1000
1000
0001
0000
,
0010
0100
0010
0000
,
0001
1000
0001
1000
,
0010
0100
0010
0000
,
0000
0001
0010
0001
,
0000
0100
1000
0010
,
0000
0010
1000
0001
,
0000
0000
1001
0000
,
0001
0001
1000
0000
,
0010
0100
0010
0000
,
1000
0001
1000
0001
,
0010
0100
0010
0000
,
0000
1000
0010
1000
,
0000
0100
0001
0010
,
0000
0010
0001
1000
,
0001
0000
1000
0000
,
0001
0000
1001
0000
,
0010
0100
0010
0000
,
1000
0000
1001
0000
,
0100
0010
0100
0000
,
0001
0001
0010
0010
,
0100
0100
1000
1000
,
0002
0000
0000
0000
,
2000
0000
0000
0000
,
3003
0000
0000
0000
,
0001
0001
0100
0100
,
0010
1000
0000
1000
,
0000
1000
0000
0100
,
0010
0001
0000
0100
,
0000
0010
1000
0010
,
0000
0100
0001
0100
,
0010
0000
0010
0000
,
0100
0000
0100
0000
,
1000
1000
0010
0010
,
0100
0001
0000
0001
,
0000
0001
0000
0010
,
0100
1000
0000
0010
,
0000
0100
0001
0100
,
0010
0010
0010
0000
,
0100
0000
0100
0000
,
0020
0000
0000
0000
,
1030
0001
0100
0010
,
1001
0000
0000
0000
,
0000
0000
0000
0000
;

//---------------dance-single - ----------------
#NOTEDATA:;
#CHARTNAME:;
#STEPSTYPE:dance-single;
#DESCRIPTION:;
#CHARTSTYLE:;
#DIFFICULTY:Medium;
#METER:8;
#RADARVALUES:0.272348,0.294035,0.020174,0.161391,0.000000,189.000000,187.000000,2.000000,16.000000,0.000000,0.000000,0.000000,0.000000,0.000000,0.272348,0.294035,0.020174,0.161391,0.000000,189.000000,187.000000,2.000000,16.000000,0.000000,0.000000,0.000000,0.000000,0.000000;
#CREDIT:;
#NOTES:
0000
0000
0000
0000
,
0000
0000
0000
0000
,
0000
0000
0000
0000
,
0000
0000
0000
0000
,
0000
0000
0000
0000
,
0002
1003
0010
1000
,
0001
0100
0010
1000
,
0100
1000
0010
0100
,
0200
0000
0000
0000
,
0320
0000
0000
0130
,
0001
0000
0010
0000
0001
0000
0100
0010
,
1000
0010
0100
0010
,
1000
0000
0001
0100
0001
0000
0010
0000
,
0100
1000
0100
0000
0010
0000
0100
0000
,
1000
0000
0001
0010
0100
0000
1000
0000
,
0010
0000
0100
0000
0001
0100
0010
0000
,
1000
0010
0100
0001
,
0100
0000
0010
0200
0000
0000
0300
0000
,
1000
0000
0100
0000
1000
0000
0010
0100
,
0001
0100
0010
1000
,
0001
0000
1000
0010
1000
0000
0100
0000
,
0010
0001
0010
0000
0100
0000
0010
0000
,
0001
0000
1000
0100
0010
0000
0001
0000
,
0100
0000
0010
0000
1000
0010
0100
0000
,
0001
0100
0010
1000
,
0100
0000
0010
0200
0000
0000
0300
0000
,
0200
0000
0000
0310
0100
0000
0001
0000
,
0010
0000
0100
1000
0000
0001
0000
0100
,
0020
0000
0000
0130
0010
0000
1000
0000
,
0100
0000
0010
0001
0000
1000
0000
0000
,
1000
0010
0100
0001
,
1000
0100
0010
0000
0001
0000
0010
0000
,
2000
0000
0001
0002
0000
0000
3003
0000
,
0100
0000
0000
0200
0000
0000
0000
0000
,
0320
0000
0000
0130
,
0010
0000
1000
0000
0001
0010
0001
0000
,
0010
0000
0100
0000
1000
0001
0100
0000
,
0010
1000
0001
0100
,
0200
0000
0000
0300
,
0001
0000
0010
0000
0001
1000
0100
0000
,
1000
0000
0010
0000
1000
0001
0100
0000
,
0010
0000
0100
0010
0000
0000
1001
0000
,
0100
0000
0010
0100
0000
0000
0001
0000
,
0100
0000
0001
0000
1000
0100
1000
0000
,
0100
0000
0010
0000
0001
1000
0010
0000
,
0100
0001
1000
0010
,
0020
0000
0000
0030
,
1000
0000
0100
0000
0001
0000
0010
0100
,
0000
1000
0000
0001
0000
0010
0100
0000
,
1000
0000
0010
0100
0000
0000
1000
0002
,
0000
0000
0000
0003
,
1000
0100
0010
0000
0100
0000
0000
2002
,
0000
0000
0000
0000
,
3003
0000
0000
0000
,
0000
0000
0000
0000
;

//---------------dance-single - ----------------
#NOTEDATA:;
#CHARTNAME:;
#STEPSTYPE:dance-single;
#DESCRIPTION:;
#CHARTSTYLE:;
#DIFFICULTY:Hard;
#METER:10;
#RADARVALUES:0.363130,0.427687,0.181565,0.201739,0.080696,252.000000,234.000000,18.000000,20.000000,0.000000,0.000000,0.000000,0.000000,0.000000,0.363130,0.427687,0.181565,0.201739,0.080696,252.000000,234.000000,18.000000,20.000000,0.000000,0.000000,0.000000,0.000000,0.000000;
#CREDIT:;
#NOTES:
0000
0000
0000
0000
,
0000
0000
0000
0000
,
0000
0000
0000
0000
,
0000
0000
0000
0000
,
0000
0000
0000
0000
,
0020
0130
0011
1001
,
0001
0000
1000
0000
1000
0000
0000
0000
0001
0000
0000
0100
0000
0000
0001
0000
,
0000
0000
1000
0000
0200
0000
0000
0000
0010
0000
0000
0010
0000
0000
0310
0000
,
0100
0000
0000
0010
0000
0000
2002
0000
0000
0000
0000
0000
3003
0000
0000
0000
,
0200
0000
0000
0310
,
0110
0000
1000
0100
1000
0000
0001
0100
,
0002
0000
1003
0010
0100
0000
0010
0000
,
0100
0000
0001
0010
0100
1000
0001
0100
,
0010
0000
0000
0100
0000
0000
0020
0000
0000
0000
0000
0000
0130
0000
0000
0000
,
1001
0000
0001
1000
0001
0000
0010
0100
,
0000
0010
0000
1001
0000
0100
0000
0010
,
0001
0000
1000
0100
0000
1001
0000
0010
,
0001
0000
1000
0200
0000
0000
0310
0000
,
1001
0000
1000
0100
0010
0001
1000
0010
,
0100
0000
0000
0010
0000
0000
0200
0000
0000
0000
0000
0000
0310
0000
0000
0000
,
1001
0000
0010
0100
0010
1000
0001
0010
,
0100
0000
0000
0010
0000
0000
1001
0000
0000
0000
1000
0000
0001
0000
0100
0000
,
1000
0000
0001
0010
0100
0000
0010
0100
,
0000
1000
0000
0001
0000
0010
0000
0100
,
0010
0000
0001
1000
0000
0010
0000
0100
,
0001
0000
0000
0010
0000
0000
0200
0000
0000
0000
0000
0000
0300
0000
0000
0000
,
2100
0000
3001
0010
0100
0000
1000
0010
,
0100
0000
0010
0100
0000
1001
0000
0010
,
0002
0000
1003
0100
0010
0000
0001
0100
,
0010
0000
0100
0010
0000
1001
0000
0000
,
1000
0000
0000
1000
0000
0000
1000
0000
0100
0000
0000
0100
0000
0000
0100
0000
,
0010
0000
0000
0010
0000
0000
0010
0000
0001
0000
0000
0001
0000
0000
0001
0000
,
2000
0000
0001
0002
0000
0000
3003
0000
,
0010
0000
0000
0100
0000
0000
1001
0000
0000
0000
0000
0000
0000
0000
0000
0000
,
0020
0000
0000
0130
,
0010
0000
1000
0000
0001
0100
0001
0010
,
0000
1000
0100
0000
1000
0100
0010
0001
,
0000
0001
0100
0010
0000
1000
0001
0010
,
0100
0000
0000
1000
0000
0000
0010
0000
0000
0000
0200
0000
0000
0000
0000
0000
,
0310
0000
0100
0001
0100
1000
0100
0000
,
0001
0010
1000
0010
0001
0000
0100
0000
,
0010
0000
0100
0200
0000
0000
0000
0000
,
0310
0000
0000
0100
0000
0000
1001
0000
0000
0000
0000
0000
0010
0000
0000
0000
,
0100
0000
0010
0000
1000
0100
0010
0001
,
0000
1000
0010
0000
0100
0010
1000
0100
,
0000
0010
0001
0100
0000
0001
1000
0010
,
0100
0000
0000
0010
0000
0000
0100
0000
0000
0000
0020
0000
0000
0000
0000
0000
,
0130
0000
0100
0001
0100
1000
0100
0001
,
0000
0011
0000
1100
0000
0010
0100
0000
,
0010
0000
0100
0010
0000
0001
1000
0100
,
0000
0000
0010
0100
0000
0010
0001
0000
,
1000
0000
0010
0000
0010
0000
0000
0000
0100
0000
0000
0010
0000
0000
2002
0000
,
0000
0000
0000
0000
,
3003
0000
0000
0000
,
0000
0000
0000
0000
;

//---------------dance-double - ----------------
#NOTEDATA:;
#CHARTNAME:;
#STEPSTYPE:dance-double;
#DESCRIPTION:;
#CHARTSTYLE:;
#DIFFICULTY:Easy;
#METER:4;
#RADARVALUES:0.195975,0.236035,0.030261,0.060522,0.000000,136.000000,133.000000,3.000000,6.000000,0.000000,0.000000,0.000000,0.000000,0.000000,0.195975,0.236035,0.030261,0.060522,0.000000,136.000000,133.000000,3.000000,6.000000,0.000000,0.000000,0.000000,0.000000,0.000000;
#CREDIT:;
#NOTES:
00000000
00000000
00000000
00000000
,
00000000
00000000
00000000
00000000
,
00000000
00000000
00000000
00000000
,
00000000
00000000
00000000
00000000
,
00000000
00000000
00000000
00000000
,
00000002
00000013
00000001
00000000
,
00000100
00000100
00000010
00000000
,
00000010
00001000
00000100
00010000
,
00002000
00000000
00000000
00000000
,
00023000
00000000
00000000
00000000
,
00030000
00001000
00000010
00000100
,
00000000
00000001
00000100
00000001
,
00000000
00000100
00000010
00001000
,
00000000
00010000
00100000
01000000
,
00000000
10000000
00100000
10000000
,
00000000
01000000
00001000
01000000
,
00000000
00010000
00001000
00010000
,
00000100
00001000
00000001
00000000
,
00000000
00000001
00000010
00000100
,
00000000
00001000
00000010
00010000
,
00000000
00001000
00010000
00100000
,
00000000
01000000
00010000
01000000
,
00000000
00010000
00100000
01000000
,
00000000
00010000
10000000
01000000
,
00000000
00010000
00001000
00000100
,
00000000
00001000
00000100
00000010
,
00000001
00000000
00000001
00000000
,
00001000
00001000
00001000
00000000
,
00010000
00000000
00010000
00000000
,
10000000
10000000
10000000
00000000
,
00100000
00100000
01000000
01000000
,
00010000
00010000
00001000
00001000
,
00000100
00000000
00000010
00000000
,
00001001
00000000
00000000
00000000
,
00000220
00000000
00000000
00000330
,
00000001
00000010
00000100
00001000
,
00000100
00010000
00000000
00001000
,
00000000
00100000
00000000
10000000
,
01000000
00100000
00010000
01000000
,
00000000
00100000
00001000
00100000
,
00000000
00010000
00000100
00010000
,
00000100
00000000
00010000
00000000
,
01000000
01000000
01000000
00000000
,
10000000
01000000
00100000
00010000
,
00100000
00001000
00000000
00010000
,
00000000
00000100
00000000
00000001
,
00000010
00000100
00001000
00000010
,
00000000
00000100
00010000
00000100
,
00000000
00001000
00100000
00001000
,
00100000
00000000
00001000
00000000
,
00000020
00000000
00000000
00000000
,
00000031
00001000
00000100
00010000
,
00011000
00000000
00000000
00000000
,
00000000
00000000
00000000
00000000
;

//---------------dance-double - ----------------
#NOTEDATA:;
#CHARTNAME:;
#STEPSTYPE:dance-double;
#DESCRIPTION:;
#CHARTSTYLE:;
#DIFFICULTY:Medium;
#METER:8;
#RADARVALUES:0.285317,0.320765,0.090783,0.151304,0.000000,198.000000,189.000000,9.000000,15.000000,0.000000,0.000000,0.000000,0.000000,0.000000,0.285317,0.320765,0.090783,0.151304,0.000000,198.000000,189.000000,9.000000,15.000000,0.000000,0.000000,0.000000,0.000000,0.000000;
#CREDIT:;
#NOTES:
00000000
00000000
00000000
00000000
,
00000000
00000000
00000000
00000000
,
00000000
00000000
00000000
00000000
,
00000000
00000000
00000000
00000000
,
00000000
00000000
00000000
00000000
,
00002000
00013000
00000100
00000010
,
00000001
00000100
00000001
00001000
,
00000010
00010000
00001000
00100000
,
00001000
00000000
00000000
00022000
00000000
00000000
00033000
00000000
,
00000020
00000000
00000000
00000130
,
00001000
00000000
00000010
00010000
00001000
00000000
00001000
00010000
,
00000100
00000010
00000001
00000100
,
00001000
00000000
00010000
00001000
00100000
00000000
00010000
00100000
,
01000000
10000000
00100000
00010000
,
00001000
00000000
00010000
00001000
00000100
00000000
00000010
00000000
,
00001000
00000001
00000100
00010000
,
01000000
00100000
10000000
00010000
,
00100000
00000000
00000000
02000000
00000000
00000000
00000000
00000000
,
03001000
00000000
01000000
00001000
00100000
00000000
01000000
00000000
,
00100000
00010000
00001000
00000100
,
00001001
00000000
00000001
00000100
00001000
00000000
00010000
00000000
,
00001000
00010000
01000000
00100000
,
10010000
00000000
10000000
00100000
01000000
00000000
00010000
00000000
,
00100000
00000000
00001000
00000000
01000000
00001000
00010000
00000000
,
00001000
00000100
00000001
00000010
,
00000100
00000000
00000000
00000200
00000000
00000000
00000300
00000000
,
00000020
00000000
00000000
00000130
00000010
00000000
00000001
00000000
,
00000100
00000000
00001000
00000000
00010000
01000000
00000000
00100000
,
02000000
00000000
00000000
03100000
01000000
00000000
10000000
00000000
,
01000000
00000000
00010000
00000000
00001000
00000100
00000000
00000000
,
00000001
00000010
00000100
00000000
00001000
00000010
00000100
00000000
,
00000001
00001000
00000100
00010000
,
00002000
00000000
00010000
00020000
00000000
00000000
00033000
00000000
,
00011000
00000000
00000000
00011000
00000000
00000000
00000000
00000000
,
02000000
00000000
00000000
03100000
,
01000000
00000000
00100000
00000000
01000000
00010000
00100000
00000000
,
00010000
00001000
00000100
00000000
00001000
00000000
00000010
00000000
,
00001000
00000000
00000100
00000000
00001000
00000010
00000100
00000000
,
00001000
00000000
00000000
00010000
00000000
00011000
00000000
00000000
,
00001000
00000000
00010000
01000000
10000000
00000000
00010000
00000000
,
01000000
00000000
00100000
00000000
00010000
00001000
00000100
00000000
,
00000020
00000000
00000100
00000100
00000000
00000000
00000000
00000000
,
00000001
00000000
00000000
00001000
00000000
00000000
00000030
00000000
,
00001000
00000000
00000001
00000000
00000100
00001000
00000010
00000000
,
00001000
00010000
01000000
00000000
00010000
00000000
00100000
00000000
,
00010000
00000000
01000000
00000000
00010000
00100000
01000000
00000000
,
00010000
00000000
00000000
00001000
00000000
00011000
00000000
00000000
,
00010000
00000000
00001000
00000000
00000010
00000000
00000001
00000100
,
00000000
00000100
00000000
00001000
00000000
00010000
00011000
00000000
,
00010000
00000000
01000000
00100000
00000000
00000000
10000000
00020000
,
00000000
00000000
00000000
00030000
,
00100000
00001000
00010000
00000000
00000100
00000000
00000000
00002002
,
00000000
00000000
00000000
00000000
,
00003003
00000000
00000000
00000000
,
00000000
00000000
00000000
00000000
;

//---------------dance-double - ----------------
#NOTEDATA:;
#CHARTNAME:;
#STEPSTYPE:dance-double;
#DESCRIPTION:;
#CHARTSTYLE:;
#DIFFICULTY:Hard;
#METER:10;
#RADARVALUES:0.355925,0.400956,0.141217,0.232000,0.085739,247.000000,233.000000,14.000000,23.000000,0.000000,0.000000,0.000000,0.000000,0.000000,0.355925,0.400956,0.141217,0.232000,0.085739,247.000000,233.000000,14.000000,23.000000,0.000000,0.000000,0.000000,0.000000,0.000000;
#CREDIT:;
#NOTES:
00000000
00000000
00000000
00000000
,
00000000
00000000
00000000
00000000
,
00000000
00000000
00000000
00000000
,
00000000
00000000
00000000
00000000
,
00000000
00000000
00000000
00000000
,
00000002
00001003
00000010
00000101
,
00000001
00000000
00000010
00000000
00000100
00000000
00000000
00000000
00001000
00000000
00000000
00000100
00000000
00000000
00010000
00000000
,
00000000
00000000
00001000
00000000
00200000
00000000
00000000
00000000
00010000
00000000
00000000
01000000
00000000
00000000
10300000
00000000
,
00100000
00000000
00000000
01000000
00000000
00000000
20020000
00000000
00000000
00000000
00000000
00000000
30030000
00000000
00000000
00000000
,
00002000
00000000
00000000
00013000
,
00010000
00000000
00001000
00000100
00000001
00000000
00000001
00000010
,
00000200
00000000
00001300
00000010
00000100
00000000
00000100
00000000
,
00001000
00000000
00010000
00001000
00010000
01000000
10000000
00100000
,
01000000
00000000
00000000
00010000
00000000
00000000
20000000
00000000
00000000
00000000
00000000
00000000
30010000
00000000
00000000
00000000
,
01100000
00000000
00100000
10000000
00010000
00000000
00100000
00001000
,
00000000
00000010
00000000
00000001
00000000
00001000
00000000
00000010
,
00001000
00000000
00000001
00000010
00000000
00001000
00000000
00010000
,
00001000
00000000
00000000
00010000
00000000
00000000
00002000
00000000
00000000
00000000
00000000
00000000
00013000
00000000
00000000
00000000
,
00110000
00000000
00001000
00010000
00100000
10000000
00100000
01000000
,
00010000
00000000
00000000
00100000
00000000
00000000
02000000
00000000
00000000
00000000
00000000
00000000
03100000
00000000
00000000
00000000
,
00010000
00000000
00100000
01000000
00010000
00001000
00000010
00000100
,
00001000
00000000
00000000
00000100
00000000
00000000
00000020
00000000
00000000
00000000
00000000
00000000
00000130
00000000
00000000
00000000
,
00001001
00000000
00000001
00000100
00001000
00000000
00000100
00001000
,
00000000
00010000
00000000
01000000
00000000
10000000
00000000
01000000
,
00100000
00000000
00100000
00001000
00000000
01000000
00000000
00001000
,
00100000
00000000
00000000
00001000
00000000
00000000
00000200
00000000
00000000
00000000
00000000
00000000
00000310
00000000
00000000
00000000
,
00000002
00000000
00000103
00000010
00001000
00000000
00000001
00000100
,
00001000
00000000
00010000
01000000
00000000
01100000
00000000
00100000
,
00020000
00000000
10030000
01000000
00100000
00000000
10000000
01000000
,
00010000
00000000
00001000
00000100
00000000
00000010
00000000
00000000
,
00001000
00000000
00000000
00000100
00000000
00000000
00000001
00000000
00000100
00000000
00000000
00001000
00000000
00000000
00000100
00000000
,
00010000
00000000
00000000
00001000
00000000
00000000
01000000
00000000
00100000
00000000
00000000
10000000
00000000
00000000
00010000
00000000
,
20000000
00000000
00100000
00200000
00000000
00000000
30300000
00000000
,
01100000
00000000
00000000
10010000
00000000
00000000
01100000
00000000
00000000
00000000
00000000
00000000
00000000
00000000
00000000
00000000
,
00200000
00000000
00301000
00010000
,
00001000
00000000
00000100
00000010
00001000
00000100
00000001
00000000
,
00001000
00000010
00000001
00000000
00000001
00000010
00001000
00000000
,
00000010
00000001
00001000
00000000
00000001
00000100
00001000
00000000
,
00001000
00000000
00000000
00010000
00000000
00000000
01000000
00000000
00000000
00000000
20000000
00000000
00000000
00000000
00000000
00000000
,
30010000
00000000
10000000
00100000
00010000
00001000
00000100
00000010
,
00000000
00001000
00000000
00000001
00001000
00000100
00001000
00000000
,
00010000
00000000
01000000
00200000
00000000
00000000
00000000
00000000
,
01300000
00000000
00000000
00100000
00000000
00000000
00011000
00000000
00000000
00000000
00000000
00000000
00000000
00000000
00000000
00000000
,
00000100
00000000
00001000
00000000
00010000
01000000
10000000
01000000
,
00000000
00100000
01000000
00000000
10000000
00010000
00100000
01000000
,
00000000
10000000
01000000
00010000
00000000
01000000
10000000
00100000
,
00010000
00000000
00000000
00001000
00000000
00000000
00000010
00000000
00000000
00000000
00000200
00000000
00000000
00000000
00000000
00000000
,
00000301
00000000
00000001
00000100
00001000
00010000
00100000
01000000
,
00000000
01100000
00000000
00110000
00000000
00001000
00011000
00000000
,
00010000
00000000
00000010
00000200
00000000
00000310
00010000
00000200
,
00000000
00000000
00001300
00000010
00000000
00001000
00000100
00000000
,
00000100
00000000
00010000
00000000
00000010
00000000
00000000
00000000
00001000
00000000
00000000
00000001
00000000
00000000
00002002
00000000
,
00000000
00000000
00000000
00000000
,
00003003
00000000
00000000
00000000
,
00000000
00000000
00000000
00000000
;

//---------------dance-single - ----------------
#NOTEDATA:;
#CHARTNAME:;
#STEPSTYPE:dance-single;
#DESCRIPTION:;
#CHARTSTYLE:;
#DIFFICULTY:Challenge;
#METER:15;
#RADARVALUES:0.752198,0.959206,0.292522,0.585043,0.887652,522.000000,493.000000,29.000000,58.000000,0.000000,0.000000,0.000000,0.000000,0.000000,0.752198,0.959206,0.292522,0.585043,0.887652,522.000000,493.000000,29.000000,58.000000,0.000000,0.000000,0.000000,0.000000,0.000000;
#CREDIT:;
#NOTES:
// measure 0
0000
0000
0000
0000
,  // measure 1
0000
0000
0000
0000
,  // measure 2
0000
0000
0000
0000
,  // measure 3
0000
0000
0000
0000
,  // measure 4
0000
0000
0000
0000
,  // measure 5
0200
0000
0010
0000
0310
0000
1000
0010
0100
0001
0010
0001
0000
0001
0100
0000
,  // measure 6
2000
0000
0100
0000
3100
0000
0010
0001
0100
0001
0010
1000
0000
1000
0100
0000
,  // measure 7
0020
0000
1000
0000
1030
0000
0100
0010
0001
0010
1000
0010
0000
0010
0100
0000
,  // measure 8
0001
0000
0010
0001
0000
0000
1002
0000
0000
0000
1003
0010
0100
0001
0010
0000
,  // measure 9
0002
0000
0000
0000
0023
0000
0000
0000
1030
0000
0100
0000
0001
0010
0100
0000
,  // measure 10
2001
0000
0001
0000
3100
0010
0001
0000
0200
0000
0010
0000
0310
1000
0100
0000
,  // measure 11
0120
0000
0001
0000
0031
0000
0010
0100
2000
0000
0100
0000
3001
0010
0100
0000
,  // measure 12
0120
0000
1000
0000
1030
0100
0001
0000
1000
0100
0010
0001
0100
0010
1000
0000
,  // measure 13
1100
0000
0000
0102
0000
0000
2000
0000
0000
0000
3003
0000
1000
0010
0100
0010
,  // measure 14
0102
0000
0010
0000
0013
0100
1000
0000
0021
0000
1000
0000
1030
0100
0010
0000
,  // measure 15
0100
0000
1000
0010
0001
0000
0200
0000
0000
0000
0002
0000
0303
0000
0001
0010
,  // measure 16
2000
0000
0000
0000
0001
0000
3002
0000
0000
0000
1003
0100
0001
0000
0010
0000
,  // measure 17
0100
0000
1000
0010
0000
0000
2002
0000
3003
0000
0001
0010
0100
1000
0010
0000
,  // measure 18
0012
0000
0010
0013
0100
1000
0001
0010
0100
1000
0010
0100
0001
1000
0010
0000
,  // measure 19
0100
0000
0010
2000
0000
0000
0200
0000
3300
0000
1000
0010
0100
0001
0010
0000
,  // measure 20
0210
0000
1000
1300
0010
0001
0010
0100
0001
1000
0010
0100
1000
0100
0010
0000
,  // measure 21
0001
0000
0100
0020
0000
0000
0002
0000
0033
0000
0001
0100
0010
1000
0100
0000
,  // measure 22
1020
0000
0100
0031
0100
0001
0010
0100
1000
0001
0100
0000
0010
0001
0100
0001
,  // measure 23
1000
0000
0100
0010
0001
0000
0010
0100
2000
0000
0020
0000
3030
0000
1000
0100
,  // measure 24
0002
0000
0100
0013
0100
0000
1000
0000
0000
0000
1100
0000
0000
0000
0101
0000
,  // measure 25
0011
0000
0001
0100
0000
0000
0202
0000
0000
0303
0001
0010
0100
1000
0010
0000
,  // measure 26
0200
0000
0010
0010
0320
0000
1000
1000
,  // measure 27
2030
0000
0000
0000
0001
0000
0002
0000
3000
0000
1003
0000
0001
0010
1000
0100
,  // measure 28
0020
0000
0100
0100
0230
0000
0001
0001
,  // measure 29
0302
0000
0000
0000
1000
0000
2003
0000
0000
0000
3001
0000
1000
0100
0001
0100
,  // measure 30
0010
0000
0100
0001
0000
0010
0100
0000
0010
0000
1000
0100
0000
0001
0100
0000
,  // measure 31
0010
0000
0000
0000
1000
0000
0001
0010
0100
0000
1000
0000
0001
0000
0000
0000
0010
0000
0000
0000
0000
0000
1010
0000
0000
0000
0000
0000
1100
0000
0000
0000
,  // measure 32
0110
0000
0000
0000
0001
0000
0200
0000
0000
0000
0010
0000
0310
0100
0010
0100
,  // measure 33
0110
0000
0000
1001
0000
0000
0110
0000
0001
0010
0100
1000
0100
0010
0002
0000
,  // measure 34
0100
0000
0000
1000
0000
0000
0103
0000
0001
0000
0100
0001
0010
0010
0010
0000
,  // measure 35
0010
0001
0100
0000
1000
0100
0010
0000
0001
0010
1000
0100
0010
0001
0020
0000
,  // measure 36
1000
0000
0001
0000
0032
0000
1000
0000
1003
0000
0001
0010
0100
1000
0200
0000
,  // measure 37
0001
0000
1300
0100
0010
0001
0020
0000
0100
0000
0031
0010
0100
1000
0001
0000
,  // measure 38
1000
0001
0000
0000
0000
0000
1000
0001
0000
0000
0000
0000
1000
0001
0000
0000
0000
0000
0000
0000
1001
0000
0000
0000
0001
0000
0010
0000
0100
0000
1000
0000
,  // measure 39
0010
0000
0001
0010
0100
1000
0001
0000
0010
0000
0001
1000
0200
0000
0010
0000
,  // measure 40
0000
0010
1000
0000
0000
1000
0010
0000
0000
0010
0301
0000
0010
0100
1000
0100
,  // measure 41
0010
0000
0000
0011
0000
0000
1001
0000
0001
0000
1000
0001
1000
0100
0010
0000
,  // measure 42
0001
0100
0000
0000
0000
0000
0100
1000
0000
0000
0000
0000
1000
0100
0000
0000
1000
0000
0000
0000
0010
0000
0100
0000
0001
0000
0100
0000
0010
0000
0000
0000
,  // measure 43
1000
0100
0010
0000
0100
0001
0010
2000
0001
0000
3001
0010
0100
0000
1020
0000
,  // measure 44
0001
0000
1030
0000
1200
0000
0010
0000
0301
0000
0100
0010
0001
0010
0200
0000
,  // measure 45
0001
0000
1300
0010
0001
0010
2000
0000
0010
0000
3001
0100
1000
0010
0001
0100
,  // measure 46
0010
1000
0000
0000
0000
0000
1000
0100
0000
0000
0000
0000
0001
0100
0000
0000
0001
0000
0000
0000
0010
0001
0000
0000
0100
0000
0010
0000
1000
0000
0010
0000
,  // measure 47
0100
0000
0000
0000
0000
0000
0010
0000
0000
1000
0000
0000
0001
0000
0010
0000
0100
0000
1000
0000
0100
0000
0010
0000
0001
0000
0000
0000
0000
0000
0100
0000
0000
1000
0000
0000
0020
0000
0000
0000
0000
0000
0001
0000
0000
0000
0000
0000
,  // measure 48
0000
0001
1000
0000
0000
1000
0001
0000
0000
0001
1030
0000
0001
0010
0100
1000
,  // measure 49
0001
0001
0010
0100
1000
0100
0100
0010
0001
0001
0010
0100
1000
1000
0100
0001
,  // measure 50
0010
0000
0010
0000
0100
0000
0010
0000
1000
0000
0100
0000
0001
0010
0100
0000
0000
0000
0100
0000
1000
0000
0100
0000
0010
0000
0010
0000
0100
0000
0100
0000
,  // measure 51
1000
0000
0000
0000
0000
0000
0000
0000
0100
0000
0000
0000
0000
0000
0000
0000
0010
0000
0000
0000
0000
0000
0000
0000
0001
0000
0000
0000
0000
0000
0000
0000
0000
0000
0000
0000
0100
0000
0000
0000
0000
0000
0000
0000
0000
0000
0000
0000
0010
0000
0000
0000
0000
0000
0000
0000
0000
0000
0000
0000
0000
0000
0000
0000
0000
0000
0000
0000
0000
0000
0000
0000
0100
0000
0000
0000
0000
0000
0010
0000
0000
0000
0000
0000
0001
0000
0000
0000
0000
0000
0000
0000
0000
0000
0000
0000
1000
0000
0000
0000
0000
0000
0000
0000
0000
0000
0000
0000
0000
0000
0000
0000
0000
0000
0000
0000
0000
0000
0000
0000
0000
0000
0000
0000
0000
0000
0000
0000
0000
0000
0000
0000
1001
0000
0000
0000
0000
0000
0000
0000
0000
0000
0000
0000
0000
0000
0000
0000
0000
0000
0000
0000
0000
0000
0000
0000
0000
0000
0000
0000
0000
0000
0000
0000
0000
0000
0000
0000
2020
0000
0000
0000
0000
0000
0000
0000
0000
0000
0000
0000
0000
0000
0000
0000
0000
0000
0000
0000
0000
0000
0000
0000
,  // measure 52
0000
0000
0000
0000
0000
0000
0000
0000
3030
0000
0010
0001
1000
0010
0002
0200
,  // measure 53
0000
0000
0000
0000
,  // measure 54
0000
0000
0000
0000
,  // measure 55
0000
0000
0000
0000
0000
0000
0000
0000
0000
0000
0000
0000
0000
0000
0000
0303
;
