#TITLE:Battle Without Honor Or Humanity;
#SUBTITLE:;
#ARTIST:布袋寅泰;
#TITLETRANSLIT:;
#SUBTITLETRANSLIT:;
#ARTISTTRANSLIT:Tomoyasu Hotei;
#GENRE:;
#CREDIT:;
#BANNER:Battle Without Honor Or Humanity.png;
#BACKGROUND:Battle Without Honor Or Humanity-bg.png;
#LYRICSPATH:;
#CDTITLE:;
#MUSIC:Battle Without Honor Or Humanity.ogg;
#OFFSET:0.000000;
#SAMPLESTART:32.930000;
#SAMPLELENGTH:15.000000;
#SELECTABLE:YES;
#DISPLAYBPM:95.000000;
#BPMS:0.000000=94.987000
,4.000000=94.737000
,14.000000=96.774002
,16.000000=91.371002
,18.000000=98.901001
,19.000000=81.818001
,19.500000=107.142998
,20.000000=94.737000
,21.000000=94.879997
,28.000000=94.737000
,31.000000=94.240997
,33.000000=94.405998
,36.000000=94.728996
;
#STOPS:
;
#BGCHANGES:;
#KEYSOUNDS:;
#ATTACKS:;

//---------------dance-single - ----------------
#NOTES:
     dance-single:
     :
     Easy:
     4:
     0.154693,0.189120,0.121442,0.263123,0.000000,107.000000,95.000000,12.000000,26.000000,0.000000,0.000000,0.154693,0.189120,0.121442,0.263123,0.000000,107.000000,95.000000,12.000000,26.000000,0.000000,0.000000:
0000
0000
0000
0000
,
0000
0000
0000
0000
,
0000
0000
0000
0000
,
1000
0000
0001
0000
,
1000
0000
2002
3003
,
0010
1000
0010
0000
,
1000
0001
1000
0000
,
0100
1000
0100
0000
,
0010
0001
1000
0100
,
1001
0100
0001
0000
,
1000
0001
1000
0000
,
0001
0010
0100
1000
,
0001
0001
0001
1000
,
1002
0000
0003
0100
,
0020
0000
0030
1000
,
0200
0000
1300
0001
,
0100
0100
0010
0010
,
2000
0000
3000
0100
,
0020
0000
0030
0001
,
0200
0000
0301
1000
,
0100
0100
0010
0010
,
2002
3003
0220
0330
,
2002
3003
1000
0100
,
0010
0000
0001
0000
,
1000
0000
0010
0100
,
0220
0330
2002
3003
,
0220
0330
0100
0001
,
0010
0000
0100
0000
,
1000
1000
0001
0001
,
1001
2000
0000
3000
,
0001
0002
0000
0003
,
0100
0200
0000
0300
,
0010
0020
0000
0030
,
0110
0000
1000
0000
,
0100
0100
0010
0000
,
0001
0000
1000
0000
,
0010
0010
0100
0001
,
1000
0000
2002
3003
0000
0000
0000
0000
;

//---------------dance-single - ----------------
#NOTES:
     dance-single:
     :
     Medium:
     8:
     0.297821,0.283680,0.212523,0.253003,0.020240,206.000000,185.000000,21.000000,25.000000,0.000000,0.000000,0.297821,0.283680,0.212523,0.253003,0.020240,206.000000,185.000000,21.000000,25.000000,0.000000,0.000000:
0000
0000
0000
0000
,
0000
0000
0000
0000
,
0000
0000
0000
0000
,
1000
0100
1000
0000
0010
0000
0100
0000
,
0001
0000
0010
0000
0002
0000
0000
0000
0000
0000
1003
0000
0000
0010
0000
0000
,
0201
0000
0310
0000
1000
1000
0010
0000
,
0100
0100
0001
0010
0001
0000
1000
0000
,
1200
0000
0310
0000
0001
0001
0010
0000
,
0100
0000
0100
0000
1000
0000
0010
0000
1000
0000
0001
0000
0000
0100
0000
0000
,
1020
0000
0130
0000
0001
0001
1000
0000
,
0010
0010
1000
0100
0001
0001
0100
0000
,
2000
3020
0032
0023
,
2030
0000
0001
0000
0001
0000
3001
0010
,
1200
0000
0010
0000
1300
0000
0010
0100
,
0201
0000
0010
0000
0301
0000
0010
1000
,
0200
0310
1100
1001
,
0101
0001
0010
0000
0100
1000
0010
0000
,
0210
0000
0001
0000
0310
1000
0100
0000
,
0210
0000
1000
0000
0310
0001
0100
0000
,
1001
0020
2030
3200
,
0310
0100
1000
0000
0010
0100
0001
0000
,
1002
0000
1003
0100
0002
0000
1003
0100
,
0002
0000
1003
0010
0100
0001
1000
0000
,
1001
0010
1000
0100
,
0001
0000
0010
0000
1000
1000
0001
0001
,
2000
0000
3001
0100
2000
0000
3001
0100
,
2000
0000
3001
0010
0100
1000
0001
0000
,
1001
0100
0001
0010
,
1000
0100
0001
0100
1100
0000
0101
0000
,
1001
0000
0100
0000
1000
1000
0100
0000
,
0001
0001
0100
0000
1000
0000
0110
0000
,
0001
0000
0100
0000
0001
0001
0100
0000
,
1000
1000
0100
0001
1000
0000
0001
0000
,
2010
0000
3100
0000
0010
1000
0100
0000
,
0001
0100
1000
0001
1000
0000
0010
0000
,
0102
0000
0013
0000
0100
0001
0010
0000
,
1000
0000
0010
0000
0001
0000
1000
0000
0001
0000
0100
0000
0000
0010
0000
0000
,
1000
0000
0000
0001
0000
0000
1001
0000
0000
0000
0000
0000
0000
0000
0000
0000
;

//---------------dance-single - ----------------
#NOTES:
     dance-single:
     :
     Hard:
     11:
     0.435165,0.434976,0.253003,0.273243,0.318784,301.000000,276.000000,25.000000,27.000000,0.000000,0.000000,0.435165,0.434976,0.253003,0.273243,0.318784,301.000000,276.000000,25.000000,27.000000,0.000000,0.000000:
0000
0000
0000
0000
,
0000
0000
0000
0000
,
0000
0000
0000
0000
,
0010
0010
1000
0100
1000
0001
0100
0001
,
1000
0000
0200
0000
0020
0000
0000
0000
0330
0000
0011
0000
0000
1001
0000
0000
,
1100
0000
1000
0000
0100
0000
0010
0000
0100
1000
0010
0000
1000
0000
0010
0000
,
0100
1000
0100
0000
0010
0000
1000
0000
0100
0010
0100
0000
1000
0000
0100
0000
,
0010
0000
0010
0000
0001
0000
0100
0000
0010
0100
0010
0000
0001
0000
0010
0000
,
0100
0001
0010
0000
0001
0000
0100
0000
0010
0000
0101
0000
0000
1001
0000
0000
,
1010
0000
0100
0000
0010
0000
1000
0000
0100
0010
0100
0000
1000
0000
0010
0000
,
0100
1000
0100
0000
0010
0000
1000
0000
0100
1000
0010
0000
0100
0000
0010
0000
,
0200
0001
0302
1000
2003
0100
3200
0010
,
0320
0000
0000
0000
1000
0000
0000
0000
0100
0000
0000
0000
0031
0000
1000
0001
,
0200
0000
0000
0000
1000
0000
0000
0000
0010
0000
0000
0000
0301
0010
0001
1000
,
0200
0000
0000
0000
0001
0000
0000
0000
0010
0000
0000
0000
1300
0010
1000
0001
,
0010
0100
1000
0001
1010
0000
0110
0000
,
0101
1000
0010
1000
0100
1000
0011
0000
,
0210
0000
0000
0000
0001
0000
0000
0000
0010
0000
0000
0000
1300
0010
0100
0001
,
0020
0000
0000
0000
1000
0000
0000
0000
0100
0000
0000
0000
0031
0100
0010
1000
,
0100
1000
0001
0100
0011
0000
0110
0000
,
1100
0000
0001
0000
0010
0000
0001
0000
0100
0000
0001
0000
1000
0100
1000
0010
,
2000
0000
0000
3001
0000
0100
0001
0000
0020
0000
0000
0130
0000
1000
0001
0000
,
0200
0000
0000
0301
0000
0010
0100
0000
0010
0001
1000
0000
0001
2000
0000
0000
,
0002
3000
0000
0000
1003
0000
0100
1000
0010
0000
0010
0000
1002
0000
0000
0000
,
2003
0000
0000
0000
3001
0000
0100
0001
0010
0000
0010
0000
0001
0010
0001
0100
,
0002
0000
0000
1003
0000
0001
0100
0000
0020
0000
0000
0130
0000
0001
0010
0000
,
0200
0000
0000
1300
0000
0100
0010
0000
0100
1000
0001
0000
1000
0002
0000
0000
,
2000
0003
0000
0000
3001
0000
0010
0001
0100
0000
0100
0000
1001
0000
0000
0000
,
0010
1001
0000
1100
0000
0101
0000
1100
0000
0010
0001
1000
0010
0200
0000
0000
,
0310
0000
0000
0000
0100
0000
0000
0000
0001
0000
1000
0000
1000
0000
0000
0100
,
0001
1000
1000
0010
0100
0001
0001
0000
,
0010
0000
0000
0000
0100
0000
0000
0000
1000
0000
0001
0000
0001
0000
0000
0100
,
1000
0000
0001
0000
0001
0000
0010
0100
0000
1000
0100
0000
1000
0010
0000
0100
,
0001
0000
1000
0000
0001
0000
0010
0000
0100
2000
0001
0000
0010
0000
3100
1000
,
0001
0000
0010
0000
0100
0000
1000
0000
0001
0200
0010
0000
1000
0000
0301
0100
,
0010
0000
0001
0000
0010
0000
1000
0000
0001
0020
0100
0000
1000
0000
0031
0010
,
0100
0000
0001
0000
0100
0000
1000
0000
0001
0000
1001
0000
0000
0110
0000
0000
,
0101
0000
0000
1100
0000
0000
1001
0000
0000
0000
0000
0000
0000
0000
0000
0000
;

//---------------dance-single - ----------------
#NOTES:
     dance-single:
     :
     Beginner:
     2:
     0.105538,0.113472,0.000000,0.040481,0.000000,73.000000,73.000000,0.000000,4.000000,0.000000,0.000000,0.105538,0.113472,0.000000,0.040481,0.000000,73.000000,73.000000,0.000000,4.000000,0.000000,0.000000:
0000
0000
0000
0000
,
0000
0000
0000
0000
,
0000
0000
0000
0000
,
1000
0000
1000
0000
,
0001
0000
2000
0000
,
3000
0100
0000
0010
,
0000
0001
0000
0010
,
0000
0100
0000
1000
,
0000
0001
0001
0000
,
1000
0000
0010
0000
,
0100
0000
0001
0000
,
0100
0000
0010
0000
,
2000
0000
0000
3000
,
0001
0000
0001
0000
,
1000
0000
1000
0000
,
0100
0000
0010
0010
,
0010
0000
0001
0000
,
1000
0000
1000
0000
,
0001
0000
0001
0000
,
0100
0000
0010
0010
,
0010
0000
1000
0000
,
0001
0000
1000
0000
,
0001
0000
0010
0010
,
0010
0000
0100
0000
,
0010
0000
0100
0000
,
1000
0000
0001
0000
,
1000
0000
0010
0010
,
0010
0000
0100
0000
,
0020
0000
0000
0030
,
0010
0000
0100
0000
,
0001
0000
1000
0000
,
0100
0000
0010
0000
,
0001
0000
0100
0000
,
0010
0010
0010
0000
,
1000
0000
0001
0000
,
0010
0010
0010
0000
,
0100
0000
1000
0000
,
0002
0000
0000
0003
0000
0000
0000
0000
;

//---------------dance-double - ----------------
#NOTES:
     dance-double:
     :
     Easy:
     3:
     0.159031,0.170208,0.050601,0.161922,0.000000,110.000000,105.000000,5.000000,16.000000,0.000000,0.000000,0.159031,0.170208,0.050601,0.161922,0.000000,110.000000,105.000000,5.000000,16.000000,0.000000,0.000000:
00000000
00000000
00000000
00000000
,
00000000
00000000
00000000
00000000
,
00000000
00000000
00000000
00000000
,
00000000
00000001
00000000
00000100
,
00000000
00001000
00022000
00033000
,
00001000
00010000
00000000
01000000
,
00000000
10000000
00000000
01000000
,
00010000
00001000
00000000
00000100
,
00000000
00000001
00000100
00001000
,
00011000
00010000
00100000
00000000
,
10000000
01000000
00100000
00000000
,
00010000
00100000
00001000
00010000
,
00000100
00001000
00000001
00000100
,
00000020
00001000
00000000
00001030
,
00002000
00000100
00000000
00003100
,
00020000
00000000
00031000
00100000
,
00010000
10000000
00010000
10000000
,
02000000
00100000
00000000
03100000
,
00200000
00001000
00000000
00301000
,
00020000
00000000
00031000
00010000
,
00000100
00001000
00000010
00000100
,
00000001
00000001
00001000
00001000
,
00000001
00000001
00000100
00001000
,
00010000
00000000
00000100
00000000
,
00010000
00000000
00001000
00100000
,
00010000
00010000
10000000
10000000
,
00010000
00010000
01000000
00100000
,
10000000
00000000
01000000
00000000
,
00010000
00010000
00001000
00001000
,
00021000
00030000
00000200
00000300
,
00002000
00003000
00000001
00001000
,
00000002
00000003
00000200
00000300
,
00002000
00003000
00010000
00001000
,
00011000
00000000
00100000
00000000
,
10000000
10000000
01000000
00000000
,
00010000
00000000
00001000
00000000
,
00000100
00000100
00000010
00001000
,
00000100
00000000
00000220
00000330
00000000
00000000
00000000
00000000
;

//---------------dance-double - ----------------
#NOTES:
     dance-double:
     :
     Medium:
     9:
     0.318061,0.321504,0.364325,0.242883,0.050601,220.000000,184.000000,36.000000,24.000000,0.000000,0.000000,0.318061,0.321504,0.364325,0.242883,0.050601,220.000000,184.000000,36.000000,24.000000,0.000000,0.000000:
00000000
00000000
00000000
00000000
,
00000000
00000000
00000000
00000000
,
00000000
00000000
00000000
00000000
,
00000001
00001000
00000001
00000000
00000010
00000000
00000100
00000000
,
00001000
00000000
00000010
00000000
00002000
00000000
00000000
00000000
00000000
00000000
00003100
00000000
00000000
00010000
00000000
00000000
,
00012000
00000000
00103000
00000000
00010000
00010000
10000000
00000000
,
00100000
00100000
01000000
00010000
00100000
00000000
00001000
00000000
,
00021000
00000000
00030100
00000000
00001000
00001000
00000001
00000000
,
00000100
00000000
00000100
00000000
00000010
00000000
00001000
00000000
00000100
00000000
00010000
00000000
00000000
00001000
00000000
00000000
,
00021000
00000000
01030000
00000000
10000000
10000000
00010000
00000000
,
01000000
01000000
00100000
00010000
00001000
00010000
00001000
00000000
,
00000110
00000101
00001100
00010100
,
00012000
00000000
00100000
00000000
00010000
00000000
00103000
00010000
,
10020000
00000000
01000000
00000000
00130000
00000000
00010000
10000000
,
20010000
00000000
00100000
00000000
31000000
00000000
10000000
01000000
,
00020000
00031000
00011000
00010010
,
00002010
00000000
00003100
00000000
00000010
00001000
00000100
00000000
,
00012000
00000000
00100000
00000000
01003000
00000000
00010000
10000000
,
21000000
00000000
00100000
00000000
30010000
00000000
01000000
00010000
,
02010000
03000000
00002000
00003000
01001000
00000000
00011000
00000000
,
00010200
00000000
00001300
00000000
00000010
00001000
00000001
00000000
,
00000102
00000000
00000000
00001003
00000000
00000000
00000000
00000000
00002100
00000000
00000000
00003001
00000000
00000000
00000000
00000000
,
00000201
00000000
00000000
00000310
00000000
00000000
00010000
00000000
00001000
00000000
00100000
00000000
00110000
00000000
00000000
00000000
,
10010000
00000000
00100000
00000000
10000000
01000000
00010000
00000000
,
00001000
00000000
00010000
00000000
00001000
00000100
00000001
00001000
,
00001002
00000000
00000000
00000103
00000000
00000000
00000000
00000000
00002001
00000000
00000000
00003100
00000000
00000000
00000000
00000000
,
00020100
00000000
00000000
00031000
00000000
00000000
00001000
00000000
00100000
00000000
00010000
00000000
01010000
00000000
00000000
00000000
,
10010000
00000000
01000000
00000000
10000000
00100000
00010000
00000000
,
00001000
00010000
00000100
00001000
00001010
00000000
00000101
00000000
,
00000002
00000000
00002003
00000000
00003001
00001000
00000001
00000000
,
00001000
00000100
00010000
00001000
00100000
00010000
10000000
00000000
,
00020000
00000000
20030000
00000000
30010000
10000000
00010000
00000000
,
01000000
00010000
00100000
00001000
00010000
00000100
00001000
00000000
,
00001001
00000000
00000110
00000000
00000001
00000100
00000010
00000000
,
00001000
00000100
00010000
00001000
01000000
00000000
00010000
00000000
,
10010000
00000000
01100000
00000000
10000000
00100000
01000000
00000000
,
00010000
00000000
01000000
00000000
00100000
00000000
00010000
00000000
00001000
00000000
00000100
00000000
00000000
00000001
00000000
00000000
,
00001000
00000000
00000000
00000100
00000000
00000000
00001001
00000000
00000000
00000000
00000000
00000000
00000000
00000000
00000000
00000000
;

//---------------dance-double - ----------------
#NOTES:
     dance-double:
     :
     Hard:
     11:
     0.469863,0.472800,0.293484,0.222643,0.328904,325.000000,296.000000,29.000000,22.000000,0.000000,0.000000,0.469863,0.472800,0.293484,0.222643,0.328904,325.000000,296.000000,29.000000,22.000000,0.000000,0.000000:
00000000
00000000
00000000
00000000
,
00000000
00000000
00000000
00000000
,
00000000
00000000
00000000
00000000
,
00001000
00000100
00000001
00000010
00000001
00000100
00001000
00010000
,
01000000
00000000
10000000
00000000
00200000
00000000
02000000
00000000
03300000
00000000
01100000
00000000
00000000
00011000
00000000
00000000
,
00000110
00000000
00001000
00000000
00000001
00000000
00000010
00000100
00001000
00000000
00000100
00000000
00000010
00000000
00000001
00000100
,
00000010
00000000
00001000
00000000
00000010
00000000
00000100
00000001
00000010
00000000
00001000
00000000
00010000
00001000
00010000
00001000
,
00010000
00000000
01000000
00000000
10000000
00000000
00100000
01000000
00010000
00000000
01000000
00000000
00100000
00000000
10000000
01000000
,
00100000
00000000
00010000
00000000
00100000
00000000
01000000
10000000
00100000
00000000
10010000
00000000
00000000
00011000
00000000
00000000
,
00001001
00000000
00000001
00000000
00000010
00000000
00001000
00000010
00000001
00000000
00000100
00000000
00000010
00000000
00000001
00000010
,
00001000
00000000
00010000
00000000
01000000
00000000
10000000
01000000
00010000
00000000
00100000
00000000
01000000
10000000
01000000
00010000
,
00002000
00003020
00000032
00002003
,
00003010
00000000
00001000
00000000
00000100
00000000
00000010
00000000
00001000
00000000
00100000
00000000
00010000
00000000
01000000
00100000
,
01000000
00000000
00001000
00000000
00100000
00000000
00001000
00000000
01000000
00000000
00100000
00000000
00010000
00001000
00100000
00001000
,
00010000
00000000
00000010
00000000
00000100
00000000
00000010
00000000
00010000
00000000
00000100
00000000
00001000
00000010
00010000
00000010
,
00001000
00000100
00000010
00001000
00020000
00000000
00230000
00000000
,
20300000
00000000
30010000
10000000
01000000
00010000
00011000
00000000
,
00001010
00000000
00010000
00000000
00000100
00000000
00010000
00000000
00000010
00000000
00000100
00000000
00001000
00010000
00000100
00010000
,
00001000
00000000
01000000
00000000
00100000
00000000
01000000
00000000
00001000
00000000
00100000
00000000
00010000
01000000
00001000
01000000
,
00010000
00100000
01000000
00010000
00002000
00000000
00003200
00000000
,
00000302
00000000
00000000
00000000
00001003
00000000
00000001
00000000
00000100
00000000
00001000
00000000
00010000
01000000
10000000
00000000
,
10010000
00000000
00000000
01010000
00000000
01000000
00100000
00000000
10100000
00000000
00000000
00110000
00000000
00100000
01000000
00000000
,
11000000
00000000
00000000
01010000
00000000
00010000
00001000
00000000
00000100
00000010
00001000
00000000
00000001
00001000
00000000
00000000
,
00001001
00000000
00000001
00000000
00001000
00000000
00000000
00000100
00001000
00000100
00000010
00000000
00000001
00000000
00000010
00001000
,
00010000
00000000
00010000
00000000
00001000
00000000
00000000
01000000
00010000
01000000
00100000
00000000
10000000
00000000
00010000
00000000
,
10010000
00000000
00000000
01100000
00000000
01000000
00100000
00000000
00110000
00000000
00000000
00011000
00000000
00010000
00001000
00000000
,
00001100
00000000
00000000
00000110
00000000
00000100
00000001
00000000
00000100
00001000
00010000
00000000
00100000
00010000
00000000
00000000
,
00011000
00000000
00001000
00000000
00010000
00000000
00000000
01000000
10000000
00010000
10000000
00000000
01000000
00000000
00100000
00010000
,
10000000
00020000
00000000
02030000
00000000
03200000
00000000
00320000
00000000
00031000
00000100
00000010
00000100
00001000
00000000
00000000
,
00011000
00010000
00001000
00000010
00000001
00000100
00000001
00000010
,
00001000
00010000
00100000
10000000
01000000
10000000
00100000
00010000
,
00001000
00000010
00000001
00000100
00000001
00000010
00001000
00100000
,
00010000
00000000
01000000
00000000
00100000
00000000
20000000
00000000
00000000
32000000
00000000
00000000
03020000
00000000
00000000
00030000
,
00011000
00000000
00010000
00000000
00000010
00000000
00000100
00000000
00000001
00000200
00001000
00000000
00000010
00000000
00000301
00000100
,
00001000
00000000
00010000
00000000
01000000
00000000
10000000
00000000
00100000
20000000
01000000
00000000
00010000
00000000
30100000
10000000
,
01000000
00000000
00010000
00000000
00001000
00000000
00000100
00000000
00000001
00000020
00001000
00000000
00000100
00000000
00000031
00000010
,
00001000
00000000
00000010
00000000
00000001
00000000
00000100
00000000
00001000
00000000
00011000
00000000
00000000
00110000
00000000
00000000
,
00001100
00000000
00000000
01010000
00000000
00000000
00011000
00000000
00000000
00000000
00000000
00000000
00000000
00000000
00000000
00000000
;

//---------------dance-single - ----------------
#NOTES:
     dance-single:
     :
     Challenge:
     13:
     0.575401,0.567360,0.404805,0.404805,0.657808,398.000000,358.000000,40.000000,40.000000,0.000000,0.000000,0.575401,0.567360,0.404805,0.404805,0.657808,398.000000,358.000000,40.000000,40.000000,0.000000,0.000000:
// measure 0
0000
0000
0000
0000
,  // measure 1
0000
0000
0000
0000
,  // measure 2
0000
0000
0000
0000
,  // measure 3
0100
0001
1000
0100
0010
0000
0001
0010
0000
0001
0010
0100
1000
0000
0010
0000
,  // measure 4
1000
0001
0100
0010
1000
0000
0010
1000
0000
0000
2020
3030
0000
0202
0303
0000
,  // measure 5
0022
0033
0001
0100
0001
0000
0010
1000
0000
0010
1000
0100
0010
0000
0011
0000
,  // measure 6
1000
0100
0010
0001
0100
0000
0010
1000
0000
0001
0010
0100
1000
0000
1001
0000
,  // measure 7
1000
0100
0010
0001
0100
0000
0010
1000
0000
0001
0010
0100
1000
0000
1001
0000
,  // measure 8
0001
0010
1000
0100
0010
0000
0001
0100
0000
0000
2002
3003
0000
0022
0033
0000
,  // measure 9
2200
3300
1000
0100
1000
0000
0010
0001
0000
0100
0010
1000
0002
0000
0013
0000
,  // measure 10
0100
0001
1000
0010
0100
0000
0001
0010
0000
0100
1000
0010
0200
0000
0301
0000
,  // measure 11
1001
1100
1001
0101
1001
1010
1001
0011
,  // measure 12
2002
0000
0000
0000
0000
0000
3003
0000
0110
0000
0001
0000
1000
0100
0010
0001
,  // measure 13
0100
0010
0001
0010
0100
0010
0001
0010
0100
0010
0001
0000
0001
0010
1000
0000
,  // measure 14
1000
0100
0010
0100
1000
0100
0010
0100
1000
0100
0010
0000
0001
0010
1000
0000
,  // measure 15
1000
0010
0001
0010
1000
0010
0001
0010
1010
0000
0000
0000
0101
0000
0000
0000
,  // measure 16
0012
0000
0000
0000
0100
0000
0000
0000
1000
0000
0000
0000
0103
0001
0010
0000
,  // measure 17
0001
0100
1000
0100
0001
0100
1000
0100
0001
0100
1000
0000
0010
0100
0001
0000
,  // measure 18
0010
1000
0001
0010
1000
0010
0001
1000
0010
0001
0010
0000
0001
0010
1000
0000
,  // measure 19
0100
1000
0010
1000
0100
0010
1000
0000
1010
0000
0000
0000
1100
0000
0000
0000
,  // measure 20
0210
0000
0000
0000
0001
0000
0000
0000
1300
0000
0001
0000
1000
0100
0010
0001
,  // measure 21
0100
0000
0010
0100
0000
0000
0110
0000
0010
0000
0001
0010
0000
0000
0011
0000
,  // measure 22
0001
0000
0100
0001
0000
0000
0101
0000
1000
0100
1000
0000
0100
1000
0000
0000
,  // measure 23
0100
0000
1000
0100
0010
0001
1000
0000
0010
0000
0001
0000
0010
0001
0100
0010
,  // measure 24
0001
0100
0010
1000
0001
0010
1000
0100
0001
1000
0100
0010
0001
0100
0010
1000
,  // measure 25
0001
0000
1000
0001
0000
0000
0110
0000
1000
0000
0001
1000
0000
0000
0110
0000
,  // measure 26
0001
0000
1000
0100
0000
0000
0110
0000
0001
0010
0001
0000
0010
0001
0000
0000
,  // measure 27
0120
0000
0000
0000
1000
0000
0000
0000
0100
0000
0000
0000
1030
0010
0001
0000
,  // measure 28
0000
1010
0000
0101
0000
1100
0000
0011
0000
0001
0010
0001
0100
0010
1000
0001
,  // measure 29
0010
0000
0001
0010
0001
0000
0010
0100
0000
0010
0100
1000
0001
0000
1001
0000
,  // measure 30
0100
0000
0010
0001
0100
0000
0010
0001
0000
1000
0100
0010
0001
0000
0101
0000
,  // measure 31
0010
0000
1000
0010
0100
0000
0001
1000
0000
0010
0100
0001
1000
0000
1010
0000
,  // measure 32
0010
0000
0000
0000
0001
0000
1000
0000
0100
0000
0000
0000
0020
0030
0002
0003
0000
0000
1000
0000
0100
0000
0010
0000
0001
0000
0000
0000
1001
0000
0000
0000
,  // measure 33
2000
0000
3100
0010
0002
0000
0103
0000
0020
0000
0031
0100
0020
0000
1030
0000
,  // measure 34
0002
0000
0013
0100
2000
0000
3010
0000
0200
0000
0301
0010
0200
0000
1300
0000
,  // measure 35
0020
0000
0031
1000
0200
0000
0310
0000
0002
0000
0013
0100
0002
0000
1003
0010
,  // measure 36
0200
0000
0301
1000
0020
0000
0031
0000
2000
0000
3010
0002
0000
0203
0000
0300
,  // measure 37
2000
0000
0000
3020
0000
0000
0130
0000
0000
0000
0000
0000
0000
0000
0000
0000
;
