#TITLE:별;
#SUBTITLE:;
#ARTIST:TEAM;
#TITLETRANSLIT:BYUL;
#SUBTITLETRANSLIT:;
#ARTISTTRANSLIT:;
#GENRE:;
#CREDIT:;
#BANNER:BYUL.png;
#BACKGROUND:BYUL-bg.png;
#LYRICSPATH:;
#CDTITLE:;
#MUSIC:BYUL.mp3;
#OFFSET:2.049000;
#SAMPLESTART:45.659000;
#SAMPLELENGTH:15.000000;
#LASTBEATHINT:1.835750;
#SELECTABLE:YES;
#DISPLAYBPM:105.000000:78.000000;
#BPMS:0.000000=105.000000
,174.000000=78.000000
;
#STOPS:
;
#BGCHANGES:;
#KEYSOUNDS:;
#ATTACKS:;

//---------------dance-single - ----------------
#NOTES:
     dance-single:
     :
     Easy:
     3:
     0.170244,0.192381,0.000000,0.009689,0.000000,123.000000,123.000000,0.000000,1.000000,0.000000,0.000000,0.170244,0.192381,0.000000,0.009689,0.000000,123.000000,123.000000,0.000000,1.000000,0.000000,0.000000:
// measure 0
0000
0000
0000
0000
,  // measure 1
0000
0000
0000
0000
,  // measure 2
0000
0000
0000
0000
,  // measure 3
0000
0000
0000
0000
,  // measure 4
0000
0000
0000
0000
,  // measure 5
1000
1000
1000
1000
,  // measure 6
1000
1000
1000
1000
,  // measure 7
0001
0001
0001
0001
,  // measure 8
0001
0001
0001
0001
,  // measure 9
1000
1000
1000
1000
,  // measure 10
0001
0001
0001
0001
,  // measure 11
0100
0100
0100
0100
,  // measure 12
0010
0010
0010
0010
,  // measure 13
1000
0000
1000
0000
,  // measure 14
0001
0000
0001
0000
,  // measure 15
1000
0000
1000
0000
,  // measure 16
0001
0000
0001
0000
,  // measure 17
0100
0000
0100
0000
,  // measure 18
0010
0000
0010
0000
,  // measure 19
0100
0000
0100
0000
,  // measure 20
0010
0000
0000
0000
,  // measure 21
1000
1000
1000
1000
,  // measure 22
0001
0001
0001
0001
,  // measure 23
1000
1000
0001
0001
,  // measure 24
0100
0100
0100
0100
,  // measure 25
0001
1000
0001
1000
,  // measure 26
0001
1000
0001
1000
,  // measure 27
0100
0010
0100
0010
,  // measure 28
0100
0010
0100
0010
,  // measure 29
0001
1000
0001
1000
,  // measure 30
0001
1000
0001
1000
,  // measure 31
0100
0010
0001
1000
,  // measure 32
0100
0000
0000
0000
,  // measure 33
0001
0001
0001
0000
,  // measure 34
1000
1000
1000
0000
,  // measure 35
0001
0001
0001
0000
,  // measure 36
1000
1000
1000
0000
,  // measure 37
0100
0100
0100
0100
,  // measure 38
0010
0010
0010
0010
,  // measure 39
0100
0100
0100
0001
,  // measure 40
0010
0010
0010
1000
,  // measure 41
0100
0000
0000
0000
,  // measure 42
0010
0000
0000
0000
,  // measure 43
0200
0000
0000
0000
,  // measure 44
0000
0300
0000
0000
0000
0000
0000
0000
;

//---------------dance-single - ----------------
#NOTES:
     dance-single:
     :
     Medium:
     5:
     0.213151,0.384763,0.261595,0.009689,0.000000,154.000000,127.000000,27.000000,1.000000,0.000000,0.000000,0.213151,0.384763,0.261595,0.009689,0.000000,154.000000,127.000000,27.000000,1.000000,0.000000,0.000000:
0000
0000
0000
0000
,
0000
0000
0000
0000
,
0000
0000
0000
0000
,
0000
0000
0000
0000
,
0000
0000
0000
0000
,
1001
0100
0100
0100
,
0001
0001
0100
0100
,
1001
0100
0100
0100
,
1000
1000
0100
0100
,
1001
0100
0100
0100
,
0001
0001
0100
0100
,
1001
0100
0100
0100
,
1000
0100
1000
0100
,
0000
0010
0000
1001
,
0000
0010
0000
1001
,
0000
0100
0000
1001
,
0000
0100
0000
1001
,
0000
0010
0000
1001
,
0000
0100
0000
1001
,
0000
0010
0000
1001
,
0000
1001
0000
0000
,
0010
0010
0010
1001
,
0100
0100
0100
1001
,
0010
1001
0100
1001
,
0010
0100
0010
1001
,
0100
0001
0010
1000
,
0100
0001
0010
1000
,
0010
0100
0001
1000
,
0010
0100
0001
1000
,
0100
0010
0001
1000
,
0100
0010
0001
1000
,
0010
0001
1000
0100
,
0001
0000
0000
0000
,
0001
0010
0100
1000
,
1000
0010
0100
0001
,
0001
0010
0100
1000
,
1000
0010
0100
0001
,
1000
0100
0001
0100
,
1000
0010
0001
0010
,
1001
1001
1001
1001
,
0110
0110
0110
0110
,
1001
0000
0000
0000
,
1001
0000
0000
0000
,
0200
0000
0000
0000
,
0000
0300
0000
0000
0000
0000
0000
0000
;

//---------------dance-single - ----------------
#NOTES:
     dance-single:
     :
     Hard:
     9:
     0.311423,0.513017,0.222840,0.048444,0.000000,225.000000,202.000000,23.000000,5.000000,0.000000,0.000000,0.311423,0.513017,0.222840,0.048444,0.000000,225.000000,202.000000,23.000000,5.000000,0.000000,0.000000:
0000
0000
0000
0000
,
0000
0000
0000
0000
,
0000
0000
0000
0000
,
0000
0000
0000
0000
,
0000
0000
0000
0000
,
1001
0000
0000
0100
1000
0100
0010
0000
,
1001
0000
0000
0100
0001
0100
0010
0000
,
1001
0000
0000
0100
1000
0100
0010
0000
,
0001
0000
0100
0000
0010
1000
0100
0000
,
1001
0000
0000
0010
0100
0001
0010
0000
,
1001
0000
0000
0100
0010
0001
0100
0000
,
1001
0000
0000
0010
0100
0001
0010
0000
,
0100
0000
1000
0000
0001
0100
0001
0000
,
1000
1000
1000
0000
0100
0000
0100
0000
,
0010
0010
0010
0000
0001
0000
0001
0000
,
0100
0100
0100
0000
0010
0000
0010
0000
,
1000
1000
1000
0000
0001
0000
0001
0000
,
0010
0100
0010
0000
0001
0000
1000
0000
,
0100
0010
0100
0000
1000
0000
0001
0000
,
0100
0010
1000
0000
0001
0000
0001
0000
,
0001
0000
0000
0000
,
1001
0000
0010
0100
0010
0100
0001
0000
,
1001
0000
0100
0010
0100
0010
0001
0000
,
1001
0000
0100
0000
1001
0000
0010
0100
,
1000
0001
0100
0010
1000
0000
1001
0000
,
0100
0010
0100
0010
0000
1000
0001
0000
,
0100
0010
0100
0010
0000
1000
0001
0000
,
0010
0100
1000
0001
0000
0001
1000
0000
,
0010
0100
0001
1000
0000
1000
0001
0000
,
0001
1000
0010
0100
0000
0100
0010
0000
,
1000
0001
0100
0010
0000
0010
0100
0000
,
0001
1000
0100
0010
0000
0001
1000
0100
,
0020
0000
0000
0030
,
0001
0100
0001
1000
0000
1001
0000
0100
,
0010
0001
0100
0010
0000
1001
0000
0100
,
0010
0001
0010
0000
1000
0100
1000
0000
,
0001
0100
1000
0100
,
0001
0000
0100
0100
0000
0010
0010
0000
,
1000
0000
0100
0100
0000
0010
0010
0000
,
0001
0001
0001
0000
1000
1000
1000
0000
,
0110
0110
0110
0110
1001
1001
1001
1001
,
2002
0000
0000
0000
3003
0100
0000
0100
,
0200
0300
0010
0100
,
1001
0001
0010
0100
0000
0010
0100
2000
,
0000
3000
0000
0000
0000
0000
0000
0000
;

//---------------dance-double - ----------------
#NOTES:
     dance-double:
     :
     Easy:
     4:
     0.146715,0.192381,0.038755,0.019377,0.000000,106.000000,102.000000,4.000000,2.000000,0.000000,0.000000,0.146715,0.192381,0.038755,0.019377,0.000000,106.000000,102.000000,4.000000,2.000000,0.000000,0.000000:
00000000
00000000
00000000
00000000
,
00000000
00000000
00000000
00000000
,
00000000
00000000
00000000
00000000
,
00000000
00000000
00000000
00000000
,
00000000
00000000
00000000
00000000
,
00010000
00000000
00010000
00000000
,
00010000
00000000
00010000
00000000
,
00001000
00000000
00001000
00000000
,
00001000
00000000
00001000
00000000
,
00010000
00000000
00010000
00000000
,
00010000
00000000
00010000
00000000
,
00001000
00000000
00001000
00000000
,
00001000
00000000
00001000
00000000
,
00010000
00010000
00010000
00000000
,
00001000
00001000
00001000
00000000
,
00100000
00100000
00100000
00000000
,
00010000
00010000
00010000
00000000
,
10000000
10000000
10000000
00000000
,
01000000
01000000
01000000
00000000
,
00100000
00100000
00100000
00000000
,
00001000
00000000
00000000
00000000
,
00010000
00001000
00010000
00001000
,
00010000
00010000
00010000
00000000
,
00000100
00000010
00000100
00000010
,
00000100
00000100
00000100
00000000
,
00001000
00000000
00000100
00000000
,
00010000
00000000
00001000
00000000
,
00011000
00000000
00011000
00000000
,
01000000
00000000
00001000
00000000
,
00010000
00000000
00000010
00000000
,
00000100
00000000
00000110
00000000
,
00001000
00000000
00000100
00000000
,
00010000
00000000
00000000
00000000
,
00001000
00001000
00001000
00001000
,
00010000
00010000
00010000
00010000
,
00000100
00000100
00000100
00000100
,
00001000
00001000
00001000
00001000
,
00000010
00000010
00000010
00000010
,
00010000
00010000
00010000
00010000
,
00001000
00001000
00001000
00001000
,
00100000
00100000
00100000
00100000
,
00010000
00000000
00000000
00000000
,
10000000
00000000
00000000
00000000
,
20020000
00000000
00000000
00000000
,
00000000
30030000
00000000
00000000
00000000
00000000
00000000
00000000
;

//---------------dance-double - ----------------
#NOTES:
     dance-double:
     :
     Medium:
     7:
     0.225608,0.384763,0.329416,0.019377,0.000000,163.000000,129.000000,34.000000,2.000000,0.000000,0.000000,0.225608,0.384763,0.329416,0.019377,0.000000,163.000000,129.000000,34.000000,2.000000,0.000000,0.000000:
00000000
00000000
00000000
00000000
,
00000000
00000000
00000000
00000000
,
00000000
00000000
00000000
00000000
,
00000000
00000000
00000000
00000000
,
00000000
00000000
00000000
00000000
,
00010000
00001000
00011000
00000000
,
00001000
00010000
00011000
00000000
,
00000100
00000010
00001000
00000010
,
00010000
00000100
00000010
00000000
,
00000001
00001000
00000110
00000000
,
00010000
00001000
00011000
00000000
,
00100000
00010000
01000000
00001000
,
00010000
01000000
10000000
00000000
,
00100000
01100000
01100000
00000000
,
00010000
01010000
01010000
00000000
,
00001000
00011000
00011000
00000000
,
00000100
00001100
00001100
00000000
,
00000010
00000011
00000011
00000000
,
00000100
00001100
00001100
00000000
,
00010000
00011000
00011000
00011000
,
00011000
00000000
00000000
00000000
,
00100000
00100000
00010000
00010000
,
01000000
01000000
00001000
00001000
,
00010000
00000100
00000010
00000001
,
00000100
00000010
00010000
00001000
,
00100000
00010000
00100000
00010000
,
10000000
01000000
10000000
01000000
,
00100000
00001000
00100000
00001000
,
00010000
00000100
00010000
00000100
,
00001000
00000010
00001000
00000010
,
00000100
00000001
00000100
00000001
,
00001000
00000100
00001000
00000100
,
00010000
00000000
00000000
00000000
,
00011000
01000000
00100000
10000000
,
10010000
01000000
00001000
00010000
,
00010100
00000010
00000001
00000100
,
00000010
00001000
00000010
00001000
,
00000100
00010000
00001000
00100000
,
00010000
10000000
01000000
00100000
,
10010000
10010000
01001000
01001000
,
00101000
00101000
00101000
00101000
,
00010100
00000000
00000000
00000000
,
00011000
00000000
00000000
00000000
,
00022000
00000000
00000000
00000000
,
00000000
00033000
00000000
00000000
00000000
00000000
00000000
00000000
;

//---------------dance-double - ----------------
#NOTES:
     dance-double:
     :
     Hard:
     10:
     0.305886,0.534392,0.174397,0.038755,0.000000,221.000000,203.000000,18.000000,4.000000,0.000000,0.000000,0.305886,0.534392,0.174397,0.038755,0.000000,221.000000,203.000000,18.000000,4.000000,0.000000,0.000000:
00000000
00000000
00000000
00000000
,
00000000
00000000
00000000
00000000
,
00000000
00000000
00000000
00000000
,
00000000
00000000
00000000
00000000
,
00000000
00000000
00000000
00000000
,
10000000
00000000
10000000
00000000
10000000
00010000
00100000
00000000
,
00001000
00000000
00001000
00000000
00001000
00010000
00000100
00000000
,
00001000
00000000
00001000
00000000
00001000
00000001
00000010
00000000
,
00000001
00000000
00000001
00000000
00000001
00001000
00000100
00000000
,
00010000
00000000
00010000
00000000
00010000
00001000
00100000
00000000
,
00010000
00000000
00010000
00000000
00010000
10000000
01000000
00000000
,
10000000
00000000
10000000
00000000
10000000
00010000
00100000
00000000
,
00001000
00010000
00000100
00000000
00001000
00000001
00000010
00000000
,
00000000
00000100
00000100
00000000
00000000
00001000
00010000
00000000
,
00000000
00000010
00000010
00000000
00000000
00001000
00010000
00000000
,
00000000
00001000
00001000
00000000
00000000
00010000
00100000
00000000
,
00000000
00010000
00010000
00000000
00000000
10000000
00100000
00000000
,
00000000
00001000
00001000
00000000
00000000
00010000
00010000
00000000
,
00000000
00000100
00000010
00000000
00000000
00000001
00001000
00000000
,
00000000
00000100
00010000
00000000
00000000
00001000
00100000
00000000
,
00000000
00010000
00000100
00000000
00000000
00000000
00000000
00000000
,
00001000
00000001
00000010
00000100
00000010
00000000
00001001
00000000
,
00000100
00010000
00001000
00100000
00010000
00000000
00011000
00000000
,
00100000
00010000
01000000
00001000
00010000
00000100
00001000
00000000
,
00000001
00001000
00000010
00000100
00000010
00000000
00001001
00000000
,
00000100
00000100
00000100
00000000
00000010
00001000
00000010
00000000
,
00001000
00001000
00001000
00000000
00000100
00010000
00000100
00000000
,
00010000
00010000
00010000
00000000
00001000
00100000
00001000
00000000
,
00100000
00100000
00100000
00000000
00010000
10000000
00010000
00000000
,
10000000
10000000
10000000
00000000
01000000
00100000
01000000
00000000
,
00100000
00100000
00100000
00000000
00001000
00010000
00001000
00000000
,
00010000
00010000
00010000
00000000
00000100
00001000
00000100
00000000
,
00000010
00000001
00000020
00000000
00000000
00000000
00000030
00000000
,
00000100
00010000
00001000
00100000
00010000
00000000
10010000
00000000
,
01000000
00001000
00010000
00000010
00001000
00000000
00001001
00000000
,
00000100
00010000
00001000
00100000
00010000
00000000
10010000
00000000
,
01000000
00001000
00010000
00000010
00001000
00000000
00001001
00000000
,
00000100
00000010
00001000
00000000
00000100
00010000
00001000
00000000
,
00100000
00010000
10000000
00000000
01000000
00100000
00010000
00000000
,
01000000
00001000
00010000
00000010
00010000
00001000
01000000
00000000
,
00011000
00011000
00010010
00010010
00011000
00011000
01001000
01001000
,
00022000
00000000
00000000
00033000
00000000
00000000
00000000
00000000
,
00001001
00000000
00010000
00001000
,
10010000
10000000
01000000
00100000
00000000
00100000
00010000
00002000
,
00000000
00003000
00000000
00000000
00000000
00000000
00000000
00000000
;

//---------------dance-single - ----------------
#NOTES:
     dance-single:
     :
     Beginner:
     1:
     0.053980,0.064127,0.000000,0.009689,0.000000,39.000000,39.000000,0.000000,1.000000,0.000000,0.000000,0.053980,0.064127,0.000000,0.009689,0.000000,39.000000,39.000000,0.000000,1.000000,0.000000,0.000000:
0000
0000
0000
0000
,
0000
0000
0000
0000
,
0000
0000
0000
0000
,
0000
0000
0000
0000
,
0000
0000
0000
0000
,
0001
0000
0000
0000
,
0010
0000
0000
0000
,
0100
0000
0000
0000
,
1000
0000
0000
0000
,
0100
0000
0000
0000
,
0010
0000
0000
0000
,
0001
0000
0000
0000
,
0010
0000
0000
0000
,
0100
0000
0000
0000
,
1000
0000
0000
0000
,
0100
0000
0000
0000
,
0010
0000
0000
0000
,
0001
0000
0000
0000
,
0010
0000
0000
0000
,
0100
0000
0000
0000
,
1000
0000
0000
0000
,
0100
0000
0000
0000
,
0010
0000
0000
0000
,
0001
0000
0000
0000
,
0010
0000
0000
0000
,
0100
0000
0000
0000
,
1000
0000
0000
0000
,
0010
0000
0000
0000
,
0100
0000
0000
0000
,
0001
0000
0000
0000
,
1000
0000
0000
0000
,
0010
0000
0000
0000
,
0100
0000
0000
0000
,
0001
0000
0000
0000
,
1000
0000
0000
0000
,
0010
0000
0000
0000
,
0100
0000
0000
0000
,
0001
0000
0000
0000
,
1000
0000
0000
0000
,
0010
0000
0000
0000
,
0100
0000
0000
0000
,
0001
0000
0000
0000
,
1000
0000
0000
0000
,
0020
0000
0000
0000
,
0000
0030
0000
0000
0000
0000
0000
0000
;

//---------------dance-single - ----------------
#NOTES:
     dance-single:
     :
     Challenge:
     12:
     0.467826,0.555768,0.348793,0.348793,0.184085,338.000000,302.000000,36.000000,36.000000,0.000000,0.000000,0.467826,0.555768,0.348793,0.348793,0.184085,338.000000,302.000000,36.000000,36.000000,0.000000,0.000000:
0000
0000
0000
0000
,
0000
0000
0000
0000
,
0000
0000
0000
0000
,
0000
0000
0000
0000
,
0000
0000
0000
0000
,
1000
0001
0100
0010
1000
0100
0000
2000
,
0000
3100
1000
0010
0100
0001
0000
0020
,
0000
0001
0000
0031
0000
0001
0010
0001
,
1000
0010
0100
0001
0000
0001
1000
0100
,
2000
0100
3100
1000
0020
0100
0000
0230
,
0000
0000
0301
0010
0001
1000
0000
1001
,
0000
0101
0000
1010
0000
1000
0100
1000
,
0001
0000
0100
0000
0010
0000
1000
0000
0000
0000
0100
0000
0100
1000
0001
0100
,
0002
0000
0013
0010
0001
1000
0010
0200
,
0001
0000
0310
1000
0001
0100
0001
0020
,
0001
0100
0031
0100
0010
1000
0100
0010
,
0000
0000
0010
0000
0100
0000
0010
0000
0000
0000
0010
0001
0100
0010
1000
0000
,
2000
0000
0010
0000
0010
0000
3100
0000
0010
0000
1000
0100
0010
0000
0001
0000
,
0000
1001
0000
0101
0000
0011
0001
0100
,
0020
1000
1030
0010
2000
0100
3100
0010
,
0002
0000
0010
0000
0013
0000
0001
0100
0010
0000
1000
0000
0100
0000
0101
0000
,
0000
0000
1010
0000
1000
0000
0100
0000
0010
0000
0001
0010
0100
0000
0110
0000
,
0000
0000
1100
0000
1000
0000
0001
0000
0100
0000
0002
0010
0013
0000
0011
0000
,
0000
1010
0000
0101
0000
1100
1000
0001
,
0000
1001
0000
1100
0000
0101
0100
0010
,
2000
0000
0100
0000
3100
1000
0100
1000
0010
0100
0010
0100
0001
0010
0001
0010
,
0002
0000
0010
0000
0010
0000
0103
0000
0000
0000
0001
0100
0010
0000
1000
0000
,
0100
0100
0010
0001
0000
0001
0010
0110
,
1000
0000
1000
0000
0100
0000
0100
0000
0010
0000
0010
0001
0010
0000
0001
0010
,
0100
0000
1000
0010
0100
0000
0010
0100
0001
0000
1000
0010
0100
0001
0010
0001
,
0000
0000
0100
1000
0100
0000
0010
0100
1000
0000
0010
0100
1000
0000
0001
0010
,
0100
1000
0010
0100
0001
0010
0001
1000
,
0100
1000
0020
0000
0000
0000
0130
0000
0001
0000
1000
0000
0100
0000
0010
0000
,
0001
0000
0010
0100
1000
0000
1000
0100
0010
0000
0010
0001
0010
0000
0001
0010
,
0001
0010
0100
1000
0010
1000
1100
1000
,
0010
0100
0001
0010
0000
0011
0000
1100
,
0000
1001
0000
0202
0303
0001
1000
0010
,
0200
0000
0000
0310
1000
0000
0002
0000
0000
0000
0010
0000
0103
0000
2000
0000
,
0000
0000
3100
0000
0100
0000
0020
0000
0000
0000
0130
1000
0010
0000
0100
0000
,
0001
0101
0101
1010
0000
1100
1100
0011
,
0002
0000
0023
0000
0230
0000
2300
0000
3002
0023
0230
2300
3200
0320
0032
0023
,
0130
1000
0100
1100
0000
1000
0010
1010
,
0000
0000
0010
0000
0100
0000
0101
0000
0000
0000
0001
0000
0010
0000
0001
1000
,
0100
0010
0001
0011
0000
0110
1001
0022
,
0000
0033
0000
0000
0000
0000
0000
0000
;
