#VERSION:0.83;
#TITLE:BUMBLE BEE;
#SUBTITLE:;
#ARTIST:bambee;
#TITLETRANSLIT:;
#SUBTITLETRANSLIT:;
#ARTISTTRANSLIT:;
#GENRE:;
#ORIGIN:;
#CREDIT:;
#BANNER:BUMBLE BEE.png;
#BACKGROUND:BUMBLE BEE-bg.png;
#PREVIEWVID:;
#JACKET:BUMBLE BEE-jacket.png;
#CDIMAGE:;
#DISCIMAGE:;
#LYRICSPATH:;
#CDTITLE:cdtitle.png;
#MUSIC:BUMBLE BEE.ogg;
#OFFSET:0.000000;
#SAMPLESTART:17.391001;
#SAMPLELENGTH:15.000000;
#SELECTABLE:YES;
#DISPLAYBPM:138.000000;
#BPMS:0.000=138.000;
#STOPS:;
#DELAYS:;
#WARPS:;
#TIMESIGNATURES:0.000=4=4;
#TICKCOUNTS:0.000=4;
#COMBOS:0.000=1;
#SPEEDS:0.000=1.000=0.000=0;
#SCROLLS:0.000=1.000;
#FAKES:;
#LABELS:0.000=Song Start;
#BGCHANGES:;
#KEYSOUNDS:;
#ATTACKS:
;

//---------------dance-single - ----------------
#NOTEDATA:;
#CHARTNAME:;
#STEPSTYPE:dance-single;
#DESCRIPTION:;
#CHARTSTYLE:;
#DIFFICULTY:Easy;
#METER:4;
#RADARVALUES:0.212334,0.276654,0.043397,0.000000,0.000000,137.000000,133.000000,4.000000,0.000000,0.000000,0.000000,0.000000,0.000000,0.000000,0.212334,0.276654,0.043397,0.000000,0.000000,137.000000,133.000000,4.000000,0.000000,0.000000,0.000000,0.000000,0.000000,0.000000;
#CREDIT:;
#DISPLAYBPM:138.000000;
#NOTES:
0000
0000
0000
0000
,
0000
0000
0000
0000
,
0000
0000
0000
0000
,
0000
0000
0000
0000
,
0000
0000
0000
0000
,
0000
0000
0000
0000
,
1000
0000
0000
0000
,
0001
0000
0000
0000
,
0100
0000
0000
0000
,
1001
0000
0000
0000
,
1000
1000
0001
0001
,
0010
0001
0100
1000
,
0001
0001
1000
0001
,
1000
1000
0001
1000
,
0100
0100
0010
0010
,
0100
1000
0010
0001
,
1000
1000
0001
1000
,
0001
0001
1000
0001
,
1001
0000
0000
0000
,
0010
0000
0010
0000
,
0001
1000
0100
0000
,
1000
1000
1000
0000
,
0001
0001
0001
0000
,
0010
0000
0100
0000
,
0001
1000
0001
0000
,
0001
0001
0010
0001
,
0010
0001
0100
0000
,
0001
0000
1000
0000
,
0001
0000
1000
0000
,
0010
0000
0010
0000
,
0100
0000
0100
0000
,
1000
0000
0001
0000
,
1000
0000
0001
0000
,
0100
0000
0010
0010
,
1001
0000
0000
0000
,
1000
1000
0001
0001
,
0010
0001
0100
1000
,
0001
0001
1000
0001
,
1000
1000
0001
1000
,
0100
0100
0010
0010
,
0100
1000
0010
0001
,
0100
0100
0010
0100
,
0010
0010
0100
0010
,
0001
0000
0100
0000
,
1000
0000
0010
0000
,
0001
0001
0001
0100
,
0001
0001
0001
0010
,
0001
0000
1000
0000
,
0010
0000
1000
0000
,
1000
1000
1000
0100
,
1000
1000
1000
0010
,
1001
0000
0000
0000
;

//---------------dance-single - ----------------
#NOTEDATA:;
#CHARTNAME:;
#STEPSTYPE:dance-single;
#DESCRIPTION:;
#CHARTSTYLE:;
#DIFFICULTY:Medium;
#METER:7;
#RADARVALUES:0.339424,0.442646,0.314626,0.000000,0.000000,219.000000,190.000000,29.000000,0.000000,0.000000,0.000000,0.000000,0.000000,0.000000,0.339424,0.442646,0.314626,0.000000,0.000000,219.000000,190.000000,29.000000,0.000000,0.000000,0.000000,0.000000,0.000000,0.000000;
#CREDIT:;
#DISPLAYBPM:138.000000;
#NOTES:
0000
0000
0000
0000
,
0000
0000
0000
0000
,
0000
0000
0000
0000
,
0000
0000
0000
0000
,
0000
0000
0000
0000
,
0000
0000
0000
0000
,
0001
0010
1000
0100
,
1000
0010
0001
0100
,
0001
0010
0100
1000
,
1000
0010
0100
0001
,
1000
0000
1000
0000
0001
0100
0001
0000
,
0010
0000
0010
0000
0100
0010
0100
0000
,
1001
1001
0010
0100
,
1001
1001
0010
0100
,
0001
0000
0001
0000
1000
0010
1000
0000
,
0100
0000
0100
0000
0010
0100
0010
0000
,
1001
1001
0100
0010
,
1001
1001
0100
0010
,
1001
0000
0000
0000
0000
0000
0000
1000
,
0100
0000
0010
0001
0010
0000
0000
0000
,
1000
0000
0100
0010
0000
0000
0000
0000
,
1001
0000
1100
0000
0101
0000
0010
1000
,
0100
0000
0001
0000
0100
0000
0010
1000
,
0010
0000
0100
0001
0100
0000
0000
0000
,
0010
0000
0001
0100
0000
0000
0000
0000
,
1000
0100
1000
0100
1000
0000
0010
0001
,
0001
1000
0010
0000
,
0100
0000
0001
0010
0001
0000
1000
0000
,
1000
0000
1000
0100
0000
0000
0000
0000
,
1000
0000
0001
1000
0001
0000
1000
0000
,
0001
0000
0000
0000
,
1000
0000
0001
0010
0001
0000
1000
0000
,
0010
0000
0100
0001
0000
0000
0000
0000
,
1000
0000
0100
0010
0100
0000
1000
0000
,
0001
0000
0000
0000
,
0001
0000
0001
0000
0010
0100
0010
0000
,
0001
0000
0001
0000
1000
0100
1000
0000
,
1001
1001
0100
0010
,
1001
0110
1000
0001
,
0010
0000
0100
1000
0100
1000
0100
0000
,
0010
0000
0001
0000
0100
0010
0100
0000
,
1001
1100
0001
0100
,
1001
0101
1000
0100
,
0010
0001
1000
0010
,
0100
0001
1000
0010
,
0101
0000
1100
0000
0010
0001
0010
0000
,
1100
0000
0101
0000
1000
0010
1000
0000
,
0001
0100
1000
0100
,
0010
0001
1000
0010
,
0101
0000
1010
0000
0100
0010
0100
0000
,
1001
0000
0110
0000
1000
0100
0001
0000
,
1001
0000
0000
0000
;

//---------------dance-single - ----------------
#NOTEDATA:;
#CHARTNAME:;
#STEPSTYPE:dance-single;
#DESCRIPTION:;
#CHARTSTYLE:;
#DIFFICULTY:Hard;
#METER:9;
#RADARVALUES:0.412268,0.442646,0.097642,0.000000,0.151888,266.000000,257.000000,9.000000,0.000000,0.000000,0.000000,0.000000,0.000000,0.000000,0.412268,0.442646,0.097642,0.000000,0.151888,266.000000,257.000000,9.000000,0.000000,0.000000,0.000000,0.000000,0.000000,0.000000;
#CREDIT:;
#DISPLAYBPM:138.000000;
#NOTES:
0000
0000
0000
0000
,
0000
0000
0000
0000
,
0000
0000
0000
0000
,
0000
0000
0000
0000
,
0000
0000
0000
0000
,
0000
0000
0000
0000
,
0001
0000
0000
0000
1000
0000
0000
0100
0000
0000
1000
0000
0000
0000
1000
0000
,
0001
0000
0000
0000
0010
0000
0000
0100
0000
0000
1000
0000
0010
0000
1000
0000
,
0001
0000
0000
0000
1000
0000
0000
0100
0000
0000
0010
0000
0000
0000
0010
0000
,
0001
0000
0000
0000
1000
0000
0000
0100
0000
0000
0010
0000
0001
0000
0010
0000
,
0100
0000
1000
0000
0001
0100
0001
0000
,
0010
0100
1000
0100
0010
0001
0010
0000
,
0100
0000
1000
0100
0000
1000
0100
0000
0010
0000
0000
0000
0001
0000
0000
0000
,
1000
0000
0100
0010
0000
0100
0010
0000
0001
0000
0000
0000
1000
0000
0000
0000
,
0010
0000
0100
0001
0100
0010
1000
0000
,
0001
0010
0100
1000
0001
0010
0001
0000
,
0100
0000
0001
0010
0000
0100
1000
0000
0001
0000
0000
0000
0100
0000
0000
0000
,
0010
0000
1000
0001
0000
0100
0010
0000
1000
0000
0000
0000
0100
0000
0000
0000
,
0101
0000
0000
0000
,
1000
0100
0010
0100
0010
0001
1000
0000
,
0010
0100
0001
0100
0000
0000
0000
0000
,
0001
0010
0100
0010
0001
0000
1100
0000
,
0010
0001
1000
0001
0100
0000
1100
0000
,
0010
0001
0100
0010
1000
0100
0010
0000
,
0001
0100
0010
0100
0000
0000
0000
0000
,
0010
1000
0001
0010
0100
0000
1001
0000
,
0100
0010
0100
0000
1001
0000
0000
0000
,
0010
0100
1000
0100
0010
0000
0001
0100
,
0010
0000
1000
0100
0000
0000
0000
0000
,
0010
0000
0001
0100
0001
0000
1000
0100
,
0000
0010
0000
0000
0000
0000
0000
0000
,
0001
0000
1000
0010
1000
0000
1000
0100
,
1000
0000
0010
0001
0000
0000
0000
0000
,
1000
0000
0010
0100
0010
0000
0100
0000
,
1001
0000
0000
0000
,
1100
0000
0010
0001
1000
0100
0010
0000
,
0001
1000
0001
0100
0001
0010
0010
0000
,
0100
0000
1000
0010
0000
0100
0010
0000
1000
0000
0000
0000
0001
0000
0000
0000
,
0010
0000
0100
1000
0000
0100
0010
0000
0001
0000
0000
0000
0100
0000
0000
0000
,
1100
0000
0010
0001
1000
0100
0010
0000
,
0001
1000
0001
0100
0010
0100
0100
0000
,
0001
0000
0010
0100
0000
1000
0100
0000
0010
0000
0000
0000
0001
0000
0000
0000
,
1000
0000
0010
0100
0000
0001
0100
0000
0010
0000
0000
0000
1000
0000
0000
0000
,
0100
0000
0010
0001
0000
1000
0000
1000
,
0100
0000
0010
0001
0000
0001
0010
0100
,
1000
0000
0100
0010
0000
0100
1000
0000
0001
0000
0000
0000
0010
0000
0000
0000
,
0100
0000
1000
0010
0000
0100
0001
0000
0100
0000
0000
0000
0010
0000
0000
0000
,
1000
0000
0100
0010
0000
0001
0000
1000
,
0010
0000
0100
0010
0000
1000
0100
0010
,
0001
0000
0100
0010
0000
1000
0100
0000
0010
0000
0000
0000
0001
0000
0000
0000
,
0100
0000
0010
1000
0000
0100
0010
0000
0001
0000
0000
0000
1000
0000
0000
0000
,
0110
0000
0000
0000
;

//---------------dance-couple - ----------------
#NOTEDATA:;
#CHARTNAME:;
#STEPSTYPE:dance-couple;
#DESCRIPTION:;
#CHARTSTYLE:;
#DIFFICULTY:Medium;
#METER:7;
#RADARVALUES:0.237132,0.442646,0.141039,0.000000,0.043397,153.000000,140.000000,13.000000,0.000000,0.000000,0.000000,0.000000,0.000000,0.000000,0.237132,0.442646,0.141039,0.000000,0.043397,153.000000,140.000000,13.000000,0.000000,0.000000,0.000000,0.000000,0.000000,0.000000;
#CREDIT:;
#DISPLAYBPM:138.000000;
#NOTES:
00000000
00000000
00000000
00000000
,
00000000
00000000
00000000
00000000
,
00000000
00000000
00000000
00000000
,
00000000
00000000
00000000
00000000
,
00000000
00000000
00000000
00000000
,
00000000
00000000
00000000
00000000
,
00010000
00000000
00000000
00000000
10000000
00000000
00000000
01000000
00000000
00000000
10000000
00000000
00000000
00000000
10000000
00000000
,
00010000
00000000
00000000
00000000
00100000
00000000
00000000
01000000
00000000
00000000
10000000
00000000
00100000
00000000
10000000
00000000
,
00000001
00000000
00000000
00000000
00001000
00000000
00000000
00000100
00000000
00000000
00000010
00000000
00000000
00000000
00000010
00000000
,
00000001
00000000
00000000
00000000
00001000
00000000
00000000
00000100
00000000
00000000
00000010
00000000
00000001
00000000
00000010
00000000
,
10000000
00000000
10000001
00000000
00010000
01000000
00010001
00000000
,
00100000
00000000
00100001
00000000
01000000
00100000
01000001
00000000
,
10010000
10010001
00100000
01000001
,
10010000
10010001
00100000
01000000
,
00000001
00000000
10000001
00000000
00001000
00000010
10001000
00000000
,
00000100
00000000
10000100
00000000
00000010
00000100
10000010
00000000
,
00001001
10001001
00000100
10000010
,
00001001
10001001
00000100
00000010
,
10011001
00000000
00000000
00000000
00000000
00000000
01000000
10000000
,
01000000
00000000
00100100
00010000
00100000
00000000
00000100
00000000
,
10000000
00000000
01000100
00100000
00000000
00000000
00000100
00000000
,
10010000
00000000
00000101
00000000
01010000
00000000
00100000
10000000
,
01000000
00000000
00100100
00000000
00010100
00000000
00000010
00001000
,
00000010
00000000
01000100
00000001
00000100
00000000
01000000
00000000
,
00000010
00000000
01000001
00000100
00000000
00000000
01000000
00000000
,
00001001
00000000
11000000
00000000
00000101
00000000
00000010
00001000
,
00000100
01000010
01000001
00000000
,
01000010
00000000
00010000
00100000
00010000
00000000
10000000
00000000
,
10000010
00000000
10000000
01000000
00000000
00000000
00000000
00000000
,
10000010
00000000
00010000
10000000
00010000
00000000
10000000
00000000
,
00010010
00000000
00000000
00000000
,
00101000
00000000
00000001
00000010
00000001
00000000
00001000
00000000
,
00100010
00000000
00000100
00000001
00000000
00000000
00000000
00000000
,
00101000
00000000
00000100
00000010
00000100
00000000
00001000
00000000
,
00100001
00000000
00000000
00000000
,
10000000
00000000
10000000
00000000
00000010
00000100
00000010
00000000
,
10000000
00000000
10000000
00000000
00001000
00000100
00001000
00000000
,
10010000
10010000
00000001
00000100
,
10010000
01100000
00001000
00000100
,
00000001
00000000
00000001
00000000
00010000
10000000
00010000
00000000
,
00000001
00000000
00000001
00000000
01000000
00100000
01000000
00000000
,
00001001
00001001
00010000
01000000
,
00001001
00000110
10000000
01000000
,
01000100
00000000
00100010
00010001
00000000
10001000
00000000
10001000
,
01000100
00000000
00100010
00010001
00000000
00010001
00100010
01000100
,
10001000
00000000
01000100
00100010
00000000
01000100
10001000
00000000
00010001
00000000
00000000
00000000
00100010
00000000
00000000
00000000
,
01000100
00000000
10001000
00100010
00000000
01000100
00010001
00000000
01000100
00000000
00000000
00000000
00100010
00000000
00000000
00000000
,
10001000
00000000
01000100
00100010
00000000
00010001
00000000
10001000
,
00100010
00000000
01000100
00100010
00000000
10001000
01000100
00100010
,
00010000
00000000
01000000
00100000
00000000
10000000
01000000
00000000
00100000
00000000
00000000
00000000
00010000
00000000
00000000
00000000
,
00000001
00000000
00000100
00000010
00000000
00001000
00000100
00000000
00000010
00000000
00000000
00000000
00000001
00000000
00000000
00000000
,
01100110
00000000
00000000
00000000
;

//---------------dance-double - ----------------
#NOTEDATA:;
#CHARTNAME:;
#STEPSTYPE:dance-double;
#DESCRIPTION:;
#CHARTSTYLE:;
#DIFFICULTY:Easy;
#METER:3;
#RADARVALUES:0.215433,0.276654,0.043397,0.000000,0.000000,139.000000,135.000000,4.000000,0.000000,0.000000,0.000000,0.000000,0.000000,0.000000,0.215433,0.276654,0.043397,0.000000,0.000000,139.000000,135.000000,4.000000,0.000000,0.000000,0.000000,0.000000,0.000000,0.000000;
#CREDIT:;
#DISPLAYBPM:138.000000;
#NOTES:
00000000
00000000
00000000
00000000
,
00000000
00000000
00000000
00000000
,
00000000
00000000
00000000
00000000
,
00000000
00000000
00000000
00000000
,
00000000
00000000
00000000
00000000
,
00000000
00000000
00000000
00000000
,
00010000
00000000
00001000
00000000
,
00000100
00000000
00000001
00000000
,
00001000
00000000
00000000
00000000
,
00011000
00000000
00000000
00000000
,
00100000
00100000
01000000
10000000
,
00010000
01000000
10000000
00100000
,
01000000
01000000
00001000
00000100
,
00000010
00000010
00010000
01000000
,
00100000
00100000
01000000
10000000
,
00010000
01000000
10000000
00100000
,
01000000
01000000
00001000
00000100
,
00000010
00000010
00010000
01000000
,
10010000
00000000
00000000
00000000
,
00001000
00000000
00001000
00000000
,
00010000
00001000
00000100
00000000
,
00000001
00000001
00000001
00000000
,
00001000
00001000
00001000
00000000
,
00000100
00000000
00010000
00000000
,
00001000
00100000
01000000
00000000
,
10000000
00010000
01000000
00100000
,
10000000
00010000
01000000
00000000
,
00100000
00000000
10000000
00000000
,
01000000
00000000
00010000
00000000
,
00001000
00000000
00000100
00000000
,
00000001
00000000
00000010
00000000
,
00000010
00000000
00000001
00000000
,
00000100
00000000
00001000
00000000
,
00010000
00000000
01000000
10000000
,
01100000
00000000
00000000
00000000
,
00100000
00100000
01000000
10000000
,
00010000
01000000
10000000
00100000
,
01000000
01000000
00001000
00000100
,
00000010
00000010
00010000
01000000
,
00100000
00100000
01000000
10000000
,
00010000
01000000
10000000
00100000
,
01000000
01000000
00001000
00000100
,
00000010
00000010
00010000
01000000
,
10000000
00000000
00010000
00000000
,
10000000
00000000
00010000
00000000
,
01000000
01000000
00010000
00010000
,
00000100
00000100
00000001
00000001
,
00001000
00000000
00000001
00000000
,
00000010
00000000
00000001
00000000
,
00001000
00001000
01000000
01000000
,
10000000
10000000
00010000
00010000
,
10010000
00000000
00000000
00000000
;

//---------------dance-double - ----------------
#NOTEDATA:;
#CHARTNAME:;
#STEPSTYPE:dance-double;
#DESCRIPTION:;
#CHARTSTYLE:;
#DIFFICULTY:Medium;
#METER:5;
#RADARVALUES:0.347173,0.387315,0.509911,0.000000,0.000000,224.000000,177.000000,47.000000,0.000000,0.000000,0.000000,0.000000,0.000000,0.000000,0.347173,0.387315,0.509911,0.000000,0.000000,224.000000,177.000000,47.000000,0.000000,0.000000,0.000000,0.000000,0.000000,0.000000;
#CREDIT:;
#DISPLAYBPM:138.000000;
#NOTES:
00000000
00000000
00000000
00000000
,
00000000
00000000
00000000
00000000
,
00000000
00000000
00000000
00000000
,
00000000
00000000
00000000
00000000
,
00000000
00000000
00000000
00000000
,
00000000
00000000
00000000
00000000
,
00000001
00000010
00000100
00010000
,
00001000
00100000
01000000
10000000
,
00010000
00000000
01000000
01000000
00000000
00100000
00100000
00000000
,
10010000
00000000
01000000
01000000
00000000
00000000
00000000
00000000
,
00011000
00000000
00001010
00000000
00000000
00000001
00000001
00000000
,
00001100
00000000
00011000
00000000
00000000
00100000
00100000
00000000
,
10010000
01100000
00001000
00010000
,
00001010
00000101
00001000
00000100
,
00011000
00000000
00110000
00000000
00000000
10000000
10000000
00000000
,
01100000
00000000
10010000
00000000
00000000
01000000
01000000
00000000
,
00011000
00001010
00000100
00000001
,
00001100
00011000
00100000
01000000
,
10010000
00000000
00000000
00000000
,
00100000
00001000
00010000
00000000
00000100
00010000
00001000
00000000
,
00100000
00010000
01000000
00000000
11000000
00000000
00000000
00000000
,
00100000
00001000
00010000
00000100
,
00000010
00000001
00001100
00000000
,
00010000
00001000
01000000
00000000
00010000
10000000
01000000
00000000
,
00100000
00001000
00010000
00000000
00001010
00000000
00000000
00000000
,
00010000
00000100
00000010
00000001
,
00001000
00000100
00011000
00000000
,
00100000
00000000
01000000
10000000
00000000
10000000
01000000
00000000
,
00100000
00000000
00001000
00010000
00000000
00000000
00000000
00000000
,
00000010
00000100
00000001
00001000
,
00000110
00000000
00000000
00000000
,
00010000
00001000
00010000
00000100
00000000
00010000
00001000
00000000
,
00100000
00000000
00010000
01000000
00000000
00000000
00000000
00000000
,
00001000
00010000
00000010
00000100
,
00001001
00000000
00000000
00000000
,
00011000
00000000
01010000
00000000
00000000
00100000
00100000
00000000
,
10010000
00000000
01100000
00000000
00000000
00010000
00010000
00000000
,
00011000
00001010
00000001
00000010
,
00001100
00011000
00100000
00010000
,
11000000
00000000
01010000
00000000
00000000
00001000
00001000
00000000
,
00011000
00000000
00001010
00000000
00000000
00000100
00000100
00000000
,
00011000
00110000
10000000
01000000
,
00110000
00011000
00000100
00000010
,
00000001
00000100
00000010
00010000
,
00001000
00100000
01000000
10000000
,
01010000
00000000
00001000
00001000
00000000
00010000
00010000
00000000
,
00001010
00000000
00000100
00000100
00000000
00000000
00001001
00000000
,
00000010
00000100
00010000
00001000
,
00100000
01000000
10000000
00100000
,
01010000
00000000
00001000
00001000
00000000
00010000
00010000
00000000
,
00001010
00000000
00000001
00000001
00000000
00000000
00000110
00000000
,
00011000
00000000
00000000
00000000
;

//---------------dance-double - ----------------
#NOTEDATA:;
#CHARTNAME:;
#STEPSTYPE:dance-double;
#DESCRIPTION:;
#CHARTSTYLE:;
#DIFFICULTY:Hard;
#METER:7;
#RADARVALUES:0.420018,0.442646,0.292927,0.000000,0.000000,271.000000,244.000000,27.000000,0.000000,0.000000,0.000000,0.000000,0.000000,0.000000,0.420018,0.442646,0.292927,0.000000,0.000000,271.000000,244.000000,27.000000,0.000000,0.000000,0.000000,0.000000,0.000000,0.000000;
#CREDIT:;
#DISPLAYBPM:138.000000;
#NOTES:
00000000
00000000
00000000
00000000
,
00000000
00000000
00000000
00000000
,
00000000
00000000
00000000
00000000
,
00000000
00000000
00000000
00000000
,
00000000
00000000
00000000
00000000
,
00000000
00000000
00000000
00000000
,
10000000
00010000
00100000
00001000
00000000
00010000
00000000
00010000
,
00000100
00000010
00000001
00000100
00000000
00000010
00000010
00000010
,
00010000
00001000
00100000
00010000
00000000
01000000
00000000
01000000
,
00100000
10000000
01000000
00100000
00000000
00010000
00010000
00010000
,
01000000
00000000
00001000
00010000
00000100
00001000
00000100
00000000
,
00010000
00001000
00010000
00000000
00000010
00001000
00000010
00000000
,
00000100
00000001
00000100
00000001
00000100
00000000
00001100
00000000
,
00010000
00001000
00010000
00001000
00010000
00000000
00110000
00000000
,
10000000
00000000
00100000
01000000
00010000
00100000
00001000
00000000
,
00010000
00000010
00001000
00000000
00000100
00010000
00001000
00000000
,
00100000
00010000
01000000
00100000
10000000
00000000
01010000
00000000
,
00100000
00001000
00010000
00000100
00001000
00000000
00000101
00000000
,
00001100
00000000
00000000
00000000
,
00010000
00001000
00100000
00000000
00010000
01000000
00100000
00000000
,
10000000
01000000
00100000
00010000
01000000
00000000
00000000
00000000
,
00011000
00001001
00000110
00011000
,
00100000
00010000
10000000
01000000
00100000
00000000
00000000
00000000
,
00010000
01000000
00001000
00000000
00010000
00001000
00100000
00000000
,
00001000
00010000
00000010
00001000
00000100
00000000
00000000
00000000
,
00011000
10010000
01100000
00011000
,
00000010
00000100
00000001
00000000
00001100
00000000
00000000
00000000
,
00010000
00000000
00001000
00001000
00001000
00000000
00100000
00010000
,
00100000
00000000
01000000
10000000
00000000
00000000
00000000
00000000
,
00100000
01000000
00001000
00010000
00000100
00000000
00000010
00000001
,
00000000
00000001
00000000
00000000
00000000
00000000
00000000
00000000
,
00001000
00000000
00000100
00010000
00001000
00000000
00100000
00010000
,
10000000
00000000
00100000
01000000
00000000
00000000
00000000
00000000
,
00010000
00100000
00001000
00010000
00000010
00000000
00001001
00000000
,
00000100
00000010
00001000
00000100
,
00010000
00000000
00001000
00100000
00010000
01000000
00100000
00000000
,
10000000
01000000
00100000
00010000
01000000
00001000
00001000
00000000
,
00010010
00000000
00001001
00000000
00000100
00000010
00000010
00000000
,
00011000
00000000
10010000
00000000
01000000
00100000
00100000
00000000
,
10000000
01000000
00100000
00010000
01000000
00000000
00011000
00000000
,
00000010
00001000
00000100
00000010
00000000
00000001
00000001
00000000
,
00001000
00000100
00010000
00001000
00100000
00000000
10010000
00000000
,
01000000
00010000
01000000
00000000
00011000
00000000
00001001
00000000
,
00000100
00000010
00001000
00000100
00000000
00010000
00000000
00010000
,
00001000
00100000
01000000
10000000
00000000
00100000
01000000
00000000
,
00010000
01000000
00001000
00010000
00000010
00000000
00001001
00000000
,
00000010
00000100
00010000
00001000
00000000
00100000
00100000
00000000
,
01000000
10000000
00100000
01000000
00010000
00000000
00011000
00000000
,
00000010
00000100
00000001
00000010
00000000
00000100
00000100
00000000
,
00010000
00001000
00100000
00010000
10000000
00000000
01100000
00000000
,
00001000
00000000
00010000
00000100
00000000
00000010
00000001
00000000
,
00001100
00000000
00000000
00000000
;

//---------------dance-solo - ----------------
#NOTEDATA:;
#CHARTNAME:;
#STEPSTYPE:dance-solo;
#DESCRIPTION:;
#CHARTSTYLE:;
#DIFFICULTY:Easy;
#METER:4;
#RADARVALUES:0.235582,0.304319,0.032547,0.000000,0.000000,152.000000,149.000000,3.000000,0.000000,0.000000,0.000000,0.000000,0.000000,0.000000,0.235582,0.304319,0.032547,0.000000,0.000000,152.000000,149.000000,3.000000,0.000000,0.000000,0.000000,0.000000,0.000000,0.000000;
#CREDIT:;
#DISPLAYBPM:138.000000;
#NOTES:
000000
000000
000000
000000
,
000000
000000
000000
000000
,
000000
000000
000000
000000
,
000000
000000
000000
000000
,
000000
000000
000000
000000
,
000000
000000
000000
000000
,
000010
000000
001000
000000
,
010000
000000
001000
000000
,
000100
001000
000010
010000
,
000001
000001
100000
100000
,
000010
001000
100000
001000
,
000001
001000
010000
001000
,
000010
000010
100000
000001
,
001000
001000
100000
000001
,
010000
001000
000001
001000
,
100000
001000
000010
001000
,
000100
000100
100000
000001
,
001000
001000
100000
000010
,
100001
000000
000000
000000
,
000010
000010
100000
000001
,
010000
010000
000001
001000
,
000010
010000
001000
000000
,
010000
000010
001000
000000
,
010000
010000
000001
100000
,
000010
000010
100000
001000
,
000010
010000
001000
000000
,
010000
000010
001000
000000
,
000100
000000
000100
000000
,
001000
000000
001000
000000
,
000001
001000
100000
001000
,
000010
000010
010000
010000
,
001000
000000
001000
000000
,
000100
000000
000100
000000
,
100000
001000
000001
001000
,
001000
001000
001000
000000
,
000010
001000
100000
001000
,
000001
001000
010000
001000
,
000100
000100
100000
000010
,
001000
001000
100000
000001
,
010000
001000
000001
001000
,
100000
001000
000010
001000
,
000100
000100
100000
000001
,
001000
001000
010000
000001
,
100000
000000
000000
000000
,
000001
000000
000000
000000
,
010000
010000
000001
100000
,
000010
000010
100000
000001
,
010000
000000
000000
000000
,
000001
000000
000000
000000
,
000100
001000
000010
100001
,
001000
001000
000001
010000
,
100001
000000
000000
000000
;

//---------------dance-solo - ----------------
#NOTEDATA:;
#CHARTNAME:;
#STEPSTYPE:dance-solo;
#DESCRIPTION:;
#CHARTSTYLE:;
#DIFFICULTY:Medium;
#METER:5;
#RADARVALUES:0.345623,0.497977,0.401419,0.000000,0.000000,223.000000,186.000000,37.000000,0.000000,0.000000,0.000000,0.000000,0.000000,0.000000,0.345623,0.497977,0.401419,0.000000,0.000000,223.000000,186.000000,37.000000,0.000000,0.000000,0.000000,0.000000,0.000000,0.000000;
#CREDIT:;
#DISPLAYBPM:138.000000;
#NOTES:
000000
000000
000000
000000
,
000000
000000
000000
000000
,
000000
000000
000000
000000
,
000000
000000
000000
000000
,
000000
000000
000000
000000
,
000000
000000
000000
000000
,
000010
001000
100000
001000
,
000001
001000
010000
001000
,
000010
000010
010000
010000
,
001000
001000
100000
100000
,
000010
000000
010000
000000
000001
100000
001000
000000
,
010000
000000
000010
000000
100000
000001
001000
000000
,
010100
010010
001000
001000
,
000110
010010
001000
001000
,
000010
000000
010000
000000
000001
100000
001000
000000
,
010000
000000
000010
000000
100000
000001
001000
000000
,
010100
010010
001000
001000
,
000110
010010
001000
001000
,
100001
000000
000000
000000
,
010000
000000
000010
010000
000001
000000
010000
000010
,
100000
000000
100000
000001
000000
000000
000000
000000
,
010010
000000
001001
000000
101000
000000
000001
100000
,
001000
000100
100001
000000
,
000001
100000
000010
010000
,
001000
000000
100000
000001
000000
000000
000000
000000
,
010010
000000
001001
000000
101000
000000
000001
100000
,
001000
000000
000100
001000
000000
000000
000000
000000
,
000100
000000
100000
000001
001000
000000
010000
000000
,
000010
000000
100000
000001
000000
000000
000000
000000
,
000100
001000
100000
000001
,
001000
001000
000100
000100
,
100000
000000
000001
001000
000001
000000
010000
000000
,
000010
000000
100000
001000
000000
000000
000000
000000
,
100000
000000
001000
000100
001000
000000
010000
000000
,
000010
001000
001000
000000
,
000010
000000
010000
000000
000001
100000
001000
000000
,
010000
000000
000010
000000
100000
000001
001000
000000
,
000110
010010
001000
001000
,
010100
010010
001000
001000
,
000010
000000
010000
000000
000001
100000
001000
000000
,
010000
000000
000010
000000
100000
000001
001000
000000
,
000110
010010
001000
001000
,
010100
010010
001000
001000
,
100000
001000
000001
001000
,
010000
000010
100000
001000
,
000110
101000
000001
000001
,
010100
001001
100000
001000
,
000100
000001
100000
001000
,
100000
000001
000100
001000
,
000110
000110
101000
101000
,
010100
010100
001001
001001
,
100001
000000
000000
000000
;

//---------------dance-solo - ----------------
#NOTEDATA:;
#CHARTNAME:;
#STEPSTYPE:dance-solo;
#DESCRIPTION:;
#CHARTSTYLE:;
#DIFFICULTY:Hard;
#METER:7;
#RADARVALUES:0.389020,0.497977,0.238682,0.000000,0.130190,251.000000,229.000000,22.000000,0.000000,0.000000,0.000000,0.000000,0.000000,0.000000,0.389020,0.497977,0.238682,0.000000,0.130190,251.000000,229.000000,22.000000,0.000000,0.000000,0.000000,0.000000,0.000000,0.000000;
#CREDIT:;
#DISPLAYBPM:138.000000;
#NOTES:
000000
000000
000000
000000
,
000000
000000
000000
000000
,
000000
000000
000000
000000
,
000000
000000
000000
000000
,
000000
000000
000000
000000
,
000000
000000
000000
000000
,
010000
000000
000001
001000
000001
000000
000100
000000
,
001000
100000
001000
100000
000000
000001
010000
000000
,
000010
000010
100000
100000
,
000001
100000
000001
001000
000000
100000
001000
000000
,
010000
000000
000001
000000
100000
000001
001000
000000
,
000010
000000
100000
000000
000001
100000
001000
000000
,
100000
000000
000100
100000
000000
000100
100000
000000
000010
000000
000000
000000
001000
000000
000000
000000
,
000001
000000
000100
000001
000000
000100
000001
000000
010000
000000
000000
000000
001000
000000
000000
000000
,
000010
000000
100000
000000
000001
100000
001000
000000
,
010000
000000
000001
000000
100000
000001
001000
000000
,
000001
000000
000100
000001
000000
000100
000001
000000
010000
000000
000000
000000
001000
000000
000000
000000
,
100000
000000
000100
100000
000000
000100
100000
000000
000010
000000
000000
000000
001000
000000
000000
000000
,
100001
000000
000000
000000
000000
000000
000000
000100
,
001000
000000
100000
000001
001000
000000
010000
000010
,
001000
000000
100000
000001
000000
000000
000000
000000
,
010010
000000
101000
000000
001001
000000
100000
001000
,
100001
000000
000100
000000
010010
000000
000001
100000
,
001000
100000
000001
001000
,
000100
000000
100000
000001
000000
000000
000000
000000
,
010010
101000
001001
100000
,
000001
000000
000100
001000
000000
000000
000000
000000
,
100000
000000
000001
001000
000001
000000
100000
000000
,
000001
000000
000100
000001
000000
000000
000000
000000
,
010000
010000
000010
000010
,
000100
000001
100000
001000
,
000001
000000
100000
001000
100000
000000
000010
000000
,
010000
000000
000001
100000
000000
000000
000000
000000
,
000010
000000
000010
010000
001000
000000
100000
000000
,
001000
001000
001000
000000
,
010000
000000
000001
000000
100000
000001
001000
000000
,
000010
000000
100000
000000
000001
100000
001000
000000
,
100000
000000
000100
100000
000000
000100
100000
000000
000010
000000
000000
000000
001000
000000
000000
000000
,
000001
000000
000100
000001
000000
000100
000001
000000
010000
000000
000000
000000
001000
000000
000000
000000
,
000010
000000
100000
000000
000001
100000
001000
000000
,
010000
000000
000001
000000
100000
000001
001000
000000
,
000001
000000
000100
000001
000000
000100
000001
000000
010000
000000
000000
000000
001000
000000
000000
000000
,
100000
000000
000100
100000
000000
000100
100000
000000
000010
000000
000000
000000
001000
000000
000000
000000
,
000010
101000
010000
001001
,
100000
101000
000001
001001
,
000001
000000
000100
000001
000000
000100
000001
000000
010000
000000
000000
000000
001000
000000
000000
000000
,
100000
000000
000100
100000
000000
000100
100000
000000
000010
000000
000000
000000
001000
000000
000000
000000
,
000001
101000
100000
001001
,
101000
101000
001001
001001
,
000001
000000
000100
000001
000000
000100
000001
000000
010000
000000
000000
000000
101000
000000
000000
000000
,
100000
000000
000100
100000
000000
000100
100000
000000
000010
000000
000000
000000
001001
000000
000000
000000
,
100001
000000
000000
000000
;

//---------------dance-single - ----------------
#NOTEDATA:;
#CHARTNAME:;
#STEPSTYPE:dance-single;
#DESCRIPTION:;
#CHARTSTYLE:;
#DIFFICULTY:Beginner;
#METER:2;
#RADARVALUES:0.162737,0.193658,0.010849,0.000000,0.000000,105.000000,104.000000,1.000000,0.000000,0.000000,0.000000,0.000000,0.000000,0.000000,0.162737,0.193658,0.010849,0.000000,0.000000,105.000000,104.000000,1.000000,0.000000,0.000000,0.000000,0.000000,0.000000,0.000000;
#CREDIT:;
#DISPLAYBPM:138.000000;
#NOTES:
0000
0000
0000
0000
,
0000
0000
0000
0000
,
0000
0000
0000
0000
,
0000
0000
0000
0000
,
0000
0000
0000
0000
,
0000
0000
0000
0000
,
1000
0000
0000
0000
,
1000
0000
0000
0000
,
0010
0000
0000
0000
,
0010
0000
0000
0000
,
0100
0000
0100
0000
,
1000
0000
1000
0000
,
0001
1000
0001
0000
,
0010
0100
0010
0000
,
0010
0000
0010
0000
,
0001
0000
0001
0000
,
1000
0001
1000
0000
,
0100
0010
0100
0000
,
0100
0000
0000
0000
,
1000
0000
1000
0000
,
0010
0000
0010
0000
,
0100
0010
0100
0000
,
0010
0100
0010
0000
,
0001
0000
0001
0000
,
0100
0000
0100
0000
,
1000
0001
1000
0000
,
0001
1000
0001
0000
,
1000
0000
1000
0000
,
0010
0000
0010
0000
,
0100
0000
0100
0000
,
0001
0000
0001
0000
,
1000
1000
1000
0000
,
0010
0010
0010
0000
,
0100
0100
0100
0000
,
0001
0000
0000
0000
,
1000
1000
1000
0000
,
0100
0100
0100
0000
,
0010
0001
0010
0000
,
0001
0010
0001
0000
,
0001
0001
0001
0000
,
0010
0010
0010
0000
,
1000
0100
1000
0000
,
0100
1000
0100
0000
,
1000
0000
1000
0000
,
0010
0000
0010
0000
,
0100
0000
0100
0000
,
0001
0000
0001
0000
,
0001
0000
0001
0000
,
0010
0000
0010
0000
,
0100
0000
0100
0000
,
1000
0000
1000
0000
,
1001
0000
0000
0000
;

//---------------dance-single - ----------------
#NOTEDATA:;
#CHARTNAME:;
#STEPSTYPE:dance-single;
#DESCRIPTION:;
#CHARTSTYLE:;
#DIFFICULTY:Challenge;
#METER:13;
#RADARVALUES:0.663349,0.733404,0.618402,0.347173,0.455665,428.000000,371.000000,57.000000,32.000000,0.000000,0.000000,0.000000,0.000000,0.000000,0.663349,0.733404,0.618402,0.347173,0.455665,428.000000,371.000000,57.000000,32.000000,0.000000,0.000000,0.000000,0.000000,0.000000;
#CREDIT:;
#DISPLAYBPM:138.000000;
#NOTES:
// measure 0
0000
0000
0000
0000
,  // measure 1
0000
0000
0000
0000
,  // measure 2
0000
0000
0000
0000
,  // measure 3
0020
0000
0000
0000
0130
0000
0001
0000
0000
0000
1001
0000
0000
0000
1000
0100
,  // measure 4
1000
0000
1000
0100
1000
0000
1000
0100
0000
0000
1100
0000
0000
0000
0100
0000
,  // measure 5
0001
0000
0001
0100
0001
0000
0001
0100
0000
0000
0101
0000
0000
0000
0010
0000
,  // measure 6
0200
2300
3020
0032
,  // measure 7
0203
0000
0301
1000
0000
1001
0000
0001
,  // measure 8
0001
0000
0001
0010
0001
0000
0010
0001
0000
0010
0001
0000
0010
0000
0200
0000
,  // measure 9
2000
0000
0000
3300
,  // measure 10
0101
0000
1100
1000
0100
0001
0011
0000
,  // measure 11
0001
0010
1000
0100
0001
0010
1000
0000
,  // measure 12
0101
0000
1000
0100
0000
0010
0001
0000
0100
0001
1000
0000
0100
0001
1000
0000
,  // measure 13
1100
0000
0100
1000
0000
0010
0100
0000
0100
1000
0001
0000
0100
1000
0001
0000
,  // measure 14
0011
0000
1010
1000
0010
0001
1100
0000
,  // measure 15
0100
1000
0010
0001
0100
1000
0010
0000
,  // measure 16
0101
0000
0001
0010
0000
0100
1000
0000
0010
0100
0001
0000
0010
1000
0100
0000
,  // measure 17
0110
0000
0010
1000
0000
0001
0010
0000
0100
0010
0001
0000
0100
1000
0010
0000
,  // measure 18
2002
0000
3003
0000
0101
0000
0000
1010
0000
0000
0101
0000
0000
0000
1100
0000
,  // measure 19
0100
0001
1000
0000
0010
0000
0100
0000
0100
0001
1000
0000
0010
0000
0100
0000
,  // measure 20
0001
0010
0100
0000
1000
0000
0001
0000
0000
0000
0001
0010
0100
0000
1000
0000
,  // measure 21
0100
1000
0001
0000
0100
0001
1000
0000
2002
0000
3003
0000
0001
0100
0010
0000
,  // measure 22
1000
0010
0001
0000
0100
0010
1000
0000
0220
0000
0330
0000
0100
0001
1000
0000
,  // measure 23
1000
0010
0100
0000
2200
0000
3300
0000
1000
0010
0100
0000
2200
0000
3300
0000
,  // measure 24
1000
0000
0001
0000
0100
0000
0010
0000
0000
0000
0110
0000
0110
0000
0010
1000
,  // measure 25
0001
0000
0010
0001
1000
0000
0010
1000
0001
0000
0000
0000
0101
0000
0000
0000
,  // measure 26
0100
0000
0010
1000
0001
0000
0100
0000
0000
0000
1001
0000
1001
0000
0000
0000
,  // measure 27
0001
0100
0000
0000
0010
0000
1000
0000
0100
1000
0000
0000
0010
0000
0100
0000
,  // measure 28
0001
0000
0000
0000
1000
0000
0001
0000
0000
0000
0101
0000
0101
0000
0001
0100
,  // measure 29
0010
0000
1010
0000
0101
0000
1000
0100
,  // measure 30
0000
0000
0200
0000
0000
0000
1300
0000
0001
0000
0010
0001
0000
0100
0001
0000
,  // measure 31
0010
0001
0000
0000
0100
0000
0010
0000
1000
0100
0000
0000
0010
0000
1000
0000
,  // measure 32
0001
0000
0010
0001
0000
0110
0110
0000
,  // measure 33
0100
0010
0100
0000
0010
1000
0010
0000
0001
0010
0001
0000
1000
0100
1000
0000
,  // measure 34
0220
0000
0000
0330
,  // measure 35
0011
0000
1100
0010
0001
0100
0110
0000
,  // measure 36
0100
0001
1000
0010
0001
0100
1000
0000
,  // measure 37
0101
0000
0010
1000
0000
0001
0010
0000
0100
0001
0010
0000
0100
0001
0010
0000
,  // measure 38
0110
0000
0100
1000
0000
0001
0010
0000
0100
1000
0010
0000
0100
1000
0010
0000
,  // measure 39
1010
0000
0101
1000
0010
0001
1001
0000
,  // measure 40
0010
0001
1000
0010
0001
0100
1000
0000
,  // measure 41
0011
0000
1000
0100
0000
0010
0001
0000
0100
0010
0100
0000
0010
0100
0010
0000
,  // measure 42
1001
0000
0001
0100
0000
0010
1000
0000
0001
1000
0001
0000
1000
0001
1000
0000
,  // measure 43
0020
0032
0203
2300
,  // measure 44
3020
0000
0130
0001
0000
0202
0000
0303
,  // measure 45
0101
0000
0010
0001
0000
0100
0001
0000
0010
0001
0100
0000
0010
0001
0100
0000
,  // measure 46
0110
0000
0010
1000
0000
0100
1000
0000
0010
1000
0100
0000
0010
1000
0100
0000
,  // measure 47
0110
1010
0011
0101
,  // measure 48
1001
0000
1000
0100
0000
2200
0000
3300
,  // measure 49
1010
0000
0010
0001
0000
0100
0010
0000
1000
0010
0001
0000
0001
0100
1000
0000
,  // measure 50
1001
0000
0001
0100
0000
1000
0100
0000
0001
0100
1000
0000
1000
0010
0001
0000
,  // measure 51
2002
0000
0000
0000
,  // measure 52
3003
0000
0000
0000
;
