#VERSION:0.83;
#TITLE:BE TOGETHER;
#SUBTITLE:;
#ARTIST:NI-NI;
#TITLETRANSLIT:;
#SUBTITLETRANSLIT:;
#ARTISTTRANSLIT:;
#GENRE:;
#ORIGIN:;
#CREDIT:;
#BANNER:BE TOGETHER.png;
#BACKGROUND:BE TOGETHER-bg.png;
#PREVIEWVID:;
#JACKET:BE TOGETHER-jacket.png;
#CDIMAGE:;
#DISCIMAGE:;
#LYRICSPATH:;
#CDTITLE:;
#MUSIC:BE TOGETHER.ogg;
#OFFSET:0.000000;
#SAMPLESTART:49.701000;
#SAMPLELENGTH:15.000000;
#SELECTABLE:YES;
#DISPLAYBPM:140.000000;
#BPMS:0.000=140.017,
4.000=140.016,
144.000=140.040,
148.000=140.665,
156.000=139.977;
#STOPS:;
#DELAYS:;
#WARPS:;
#TIMESIGNATURES:0.000=4=4;
#TICKCOUNTS:0.000=4;
#COMBOS:0.000=1;
#SPEEDS:0.000=1.000=0.000=0;
#SCROLLS:0.000=1.000;
#FAKES:;
#LABELS:0.000=Song Start;
#BGCHANGES:;
#KEYSOUNDS:;
#ATTACKS:
;

//---------------dance-single - ----------------
#NOTEDATA:;
#CHARTNAME:;
#STEPSTYPE:dance-single;
#DESCRIPTION:;
#CHARTSTYLE:;
#DIFFICULTY:Easy;
#METER:5;
#RADARVALUES:0.181065,0.251166,0.069768,0.023256,0.000000,109.000000,103.000000,6.000000,2.000000,0.000000,0.000000,0.000000,0.000000,0.000000,0.181065,0.251166,0.069768,0.023256,0.000000,109.000000,103.000000,6.000000,2.000000,0.000000,0.000000,0.000000,0.000000,0.000000;
#CREDIT:;
#DISPLAYBPM:140.000000;
#NOTES:
0000
0000
0000
0000
,
0000
0000
0000
0000
,
0000
0000
0000
0000
,
0000
0000
0000
0000
,
0000
0000
0000
0000
,
1000
0000
0001
0000
,
0000
0000
0000
0000
,
1000
0000
0001
0000
,
1000
0000
0001
0000
,
0000
0000
0000
0000
,
0000
0000
0000
0000
,
1000
0000
0001
0000
,
0001
0000
1000
0000
,
0100
0000
0010
0000
,
1001
0000
0000
0000
,
0100
0000
0010
0000
,
0010
0000
0100
0000
,
0001
0000
1000
0000
,
1001
0000
0000
0000
,
1000
0000
0001
0000
,
1000
0000
0001
0000
,
1000
0001
1000
0001
,
1000
0000
0001
0000
,
0010
0000
0100
0000
,
0010
0000
0100
0000
,
1000
0000
0001
0000
,
1001
0000
1001
0000
,
1000
0000
0100
0000
,
0010
0000
0000
0001
1000
0000
0000
0000
,
0001
0000
1000
0000
,
0001
0100
1000
0010
,
1000
0000
0001
0000
,
1000
0010
0001
0100
,
0001
0000
1000
0000
,
0001
0100
1000
0010
,
0001
0000
0100
0000
,
1000
0000
0010
0000
,
1000
1000
1000
1000
,
1000
0100
0001
0010
,
0001
0001
0001
0001
,
0001
0010
1000
0100
,
1000
1000
1000
1000
,
1000
0100
0001
0010
,
0001
0001
0001
0001
,
0001
0010
1000
0100
,
0001
0000
0010
0000
,
1000
0000
0100
0000
,
1001
0000
2002
0000
,
3003
0000
0000
0000
;

//---------------dance-single - ----------------
#NOTEDATA:;
#CHARTNAME:;
#STEPSTYPE:dance-single;
#DESCRIPTION:;
#CHARTSTYLE:;
#DIFFICULTY:Medium;
#METER:9;
#RADARVALUES:0.358808,0.446517,0.244189,0.023256,0.017442,216.000000,195.000000,21.000000,2.000000,0.000000,0.000000,0.000000,0.000000,0.000000,0.358808,0.446517,0.244189,0.023256,0.017442,216.000000,195.000000,21.000000,2.000000,0.000000,0.000000,0.000000,0.000000,0.000000;
#CREDIT:;
#DISPLAYBPM:140.000000;
#NOTES:
0000
0000
0000
0000
,
0000
0000
0000
0000
,
0000
0000
0000
0000
,
0000
0000
0000
0000
,
0000
0000
0000
0000
,
1000
0001
1000
0000
0001
1000
0001
0000
,
0100
0010
0100
0010
,
1000
0100
0001
0100
,
1000
0100
0001
0100
,
1000
1000
0001
0001
,
0100
0000
0010
0000
0100
0010
0110
0000
,
1000
0100
1000
0000
0001
0100
0001
0000
,
1000
0000
0001
0000
1000
0001
1001
0000
,
0100
0010
0100
0000
0010
0100
0010
0000
,
1001
0000
0000
0000
,
1000
0100
0001
0000
0001
0100
1000
0000
,
1000
0100
0001
0000
0001
0100
0001
0000
,
0001
0010
1000
0000
1000
0010
0001
0000
,
1001
0000
0000
0000
,
1000
0011
0001
1100
,
1000
0000
0011
0000
0001
1000
1001
0000
,
0001
1000
1000
0000
1000
0001
0001
0000
,
1010
0000
0101
0000
0100
0010
0010
0000
,
0001
1010
1000
0101
,
0010
0000
1100
0000
0010
0100
0100
0000
,
1000
0000
0001
0000
,
0110
0000
0110
1001
,
1000
0000
0000
0001
0000
0000
0000
0000
0100
0000
0000
0010
0000
0000
0000
0000
,
1000
0000
0000
0001
0000
0000
1000
0000
0001
0000
0000
0000
1001
0000
0000
0000
,
1000
0100
1000
0000
0001
0010
0001
0000
,
1000
0100
0001
0010
,
0001
0010
0001
0000
1000
0100
1000
0000
,
0001
0010
1000
0100
,
0010
0100
0010
0000
0100
0010
0100
0000
,
1000
0100
0001
0010
,
0100
0010
0100
0000
0010
0100
0010
0000
,
0001
0010
1000
0100
,
0001
0000
0001
0000
0001
0000
0001
0100
,
1000
0100
0001
0010
,
1000
0000
1000
0000
1000
0000
1000
0010
,
0001
0010
1000
0100
,
1000
0001
1000
0000
0100
0010
0100
0010
,
1000
0100
0001
0010
,
0001
1000
0001
0000
0010
0100
0010
0100
,
0001
0010
1000
0100
,
0011
0000
1100
0000
,
1000
0100
0001
0010
,
1100
0000
0022
0000
,
0033
0000
0000
0000
;

//---------------dance-single - ----------------
#NOTEDATA:;
#CHARTNAME:;
#STEPSTYPE:dance-single;
#DESCRIPTION:;
#CHARTSTYLE:;
#DIFFICULTY:Hard;
#METER:11;
#RADARVALUES:0.423593,0.502331,0.255817,0.046512,0.250003,255.000000,233.000000,22.000000,4.000000,0.000000,0.000000,0.000000,0.000000,0.000000,0.423593,0.502331,0.255817,0.046512,0.250003,255.000000,233.000000,22.000000,4.000000,0.000000,0.000000,0.000000,0.000000,0.000000;
#CREDIT:;
#DISPLAYBPM:140.000000;
#NOTES:
0000
0000
0000
0000
,
0000
0000
0000
0000
,
0000
0000
0000
0000
,
0000
0000
0000
0000
,
0000
0000
0000
0000
,
1000
0000
0000
0001
0000
0000
0100
0000
0010
0000
0000
1000
0000
0000
0001
0000
,
0000
0000
0000
0000
,
1000
0100
1000
0000
0001
0010
0001
0000
,
1000
1000
0010
0000
0001
0001
0100
0000
,
1000
0000
0000
0001
0000
0000
1000
0000
1000
0000
0000
0100
0000
0000
1000
0000
,
0001
0000
0000
1000
0000
0000
0001
0000
0100
0010
0000
0010
0100
0000
0000
0000
,
0001
0000
0000
0011
0000
0000
0010
0000
1000
0000
0000
1100
0000
0000
0100
0000
,
1000
0000
0100
0000
0001
1000
0001
0000
,
0100
0000
0000
0001
0000
0000
0100
0000
0010
0000
0000
1000
0000
0000
0010
0000
,
0100
0000
0000
0000
,
0110
0000
0000
1000
0000
0000
0001
0000
1001
0000
0000
0010
0000
0000
0100
0000
,
1000
0000
0001
0000
0010
0100
0010
0000
,
1000
0000
0000
0001
0000
0000
0001
0000
0100
0000
0000
0010
0000
0000
0010
0000
,
1000
0000
0000
0000
,
0001
0000
0000
0010
0000
0000
0100
0000
1000
0000
0000
0100
0000
0000
0001
0000
,
0100
0000
0000
0100
0000
0000
0010
0000
1000
0000
0000
0001
0000
0000
1001
0000
,
1000
0000
0000
0001
0000
0000
1000
0000
1000
0000
0000
0010
0000
0000
0100
0000
,
0010
0000
0000
0110
1001
0000
0000
0000
,
1001
0000
0000
0110
0000
0000
1000
0000
0001
0000
0000
0010
0000
0000
0100
0000
,
0110
0000
0000
1001
0000
0000
0010
0000
0001
0000
0000
1000
0000
0000
1001
0000
,
1000
0000
0110
0000
,
0001
0000
1010
0101
,
0010
0000
0000
0100
0000
0000
0000
0000
1000
0000
0000
0001
0000
0000
0000
0000
,
1000
0000
0000
0101
0000
0000
0001
0000
2200
0000
0000
0000
3300
0000
0000
0000
,
1000
0000
0000
1000
0100
0000
0000
0000
0010
0000
0000
0010
0001
0000
0000
0000
,
0100
0000
0000
0100
0010
0000
0000
0010
1000
0000
0000
1000
0100
0000
0000
0000
,
0010
0000
0000
0010
0001
0000
0000
0000
0010
0000
0000
0010
0100
0000
0000
0000
,
1000
0000
0000
1000
0010
0000
0000
0010
0100
0000
0000
0100
0001
0000
0000
0000
,
1000
0000
0000
1000
0100
0000
0000
0000
0010
0000
0000
0010
0001
0000
0000
0000
,
1000
0000
0000
1000
0001
0000
0000
0001
0100
0000
0000
0100
0010
0000
0000
0000
,
0100
0010
0001
0000
0010
0100
1000
0000
,
1000
0100
0010
0001
1000
0100
0011
0000
,
1000
0001
1000
0001
1000
0001
1000
0001
,
1000
0100
0001
0100
1000
0100
0001
0000
,
1000
0100
0010
0001
1000
0100
0010
0001
,
1000
0100
0001
0100
1000
0100
0001
0000
,
0001
0010
0100
1000
0001
0010
0100
1000
,
0001
0100
1000
0100
0001
0100
1000
0000
,
0001
0010
0100
1000
1000
0100
0010
0001
,
0001
0010
0100
1000
1000
0100
0010
0000
,
0011
0000
1100
0000
,
1000
0100
0001
0010
,
1100
0000
0022
0000
,
0033
0000
0000
0000
;

//---------------dance-double - ----------------
#NOTEDATA:;
#CHARTNAME:;
#STEPSTYPE:dance-double;
#DESCRIPTION:;
#CHARTSTYLE:;
#DIFFICULTY:Easy;
#METER:3;
#RADARVALUES:0.182726,0.248549,0.081396,0.000000,0.000000,110.000000,103.000000,7.000000,0.000000,0.000000,0.000000,0.000000,0.000000,0.000000,0.182726,0.248549,0.081396,0.000000,0.000000,110.000000,103.000000,7.000000,0.000000,0.000000,0.000000,0.000000,0.000000,0.000000;
#CREDIT:;
#DISPLAYBPM:140.000000;
#NOTES:
00000000
00000000
00000000
00000000
,
00000000
00000000
00000000
00000000
,
00000000
00000000
00000000
00000000
,
00000000
00000000
00000000
00000000
,
00000000
00000000
00000000
00000000
,
00001000
00000000
00010000
00000000
,
00000000
00000000
00000000
00000000
,
00010000
00000000
10000000
00000000
,
00010000
00000000
00011000
00000000
,
00000000
00000000
00000000
00000000
,
00000000
00000000
00000000
00000000
,
00001000
00000000
00000001
00000000
,
00001000
00000000
00010000
00000000
,
01000000
00000000
00100000
00000000
,
00011000
00000000
00000000
00000000
,
01000000
00000000
00010000
00000000
,
00001000
00000000
00000100
00000000
,
00000001
00000000
00001000
00000000
,
00011000
00000000
00000000
00000000
,
10000000
00000000
00010000
00000000
,
10000000
00000000
00010000
00000000
,
00001000
00010000
00001000
00010000
,
00001000
00000000
00010000
00000000
,
00100000
00000000
01000000
00000000
,
00100000
00000000
01000000
00000000
,
00100000
00000000
00011000
00000000
,
00001000
00000000
00001001
00000000
,
00001000
00000000
00010000
00000000
,
00011000
00000000
00000000
00010000
00001000
00000000
00000000
00000000
,
00010000
00000000
10000000
00000000
,
00010000
01000000
10000000
00100000
,
10000000
00000000
00010000
00000000
,
10000000
00100000
00010000
01000000
,
00010000
00000000
00001000
00000000
,
00000001
00000010
00001000
00000100
,
00000001
00000000
00000100
00000000
,
00001000
00000000
00000010
00000000
,
00001000
00001000
00001000
00001000
,
00010000
00100000
10000000
10000000
,
10000000
10000000
01000000
00100000
,
00010000
00100000
10000000
01000000
,
00010000
00010000
00010000
00010000
,
00001000
00000100
00000001
00000010
,
00001000
00001000
00001000
00001000
,
00010000
00100000
10000000
01000000
,
00010000
00000000
00100000
00000000
,
10000000
00000000
01000000
00000000
,
00100000
00000000
00011000
00000000
;

//---------------dance-double - ----------------
#NOTEDATA:;
#CHARTNAME:;
#STEPSTYPE:dance-double;
#DESCRIPTION:;
#CHARTSTYLE:;
#DIFFICULTY:Medium;
#METER:5;
#RADARVALUES:0.353825,0.386632,0.209305,0.000000,0.017442,213.000000,195.000000,18.000000,0.000000,0.000000,0.000000,0.000000,0.000000,0.000000,0.353825,0.386632,0.209305,0.000000,0.017442,213.000000,195.000000,18.000000,0.000000,0.000000,0.000000,0.000000,0.000000,0.000000;
#CREDIT:;
#DISPLAYBPM:140.000000;
#NOTES:
00000000
00000000
00000000
00000000
,
00000000
00000000
00000000
00000000
,
00000000
00000000
00000000
00000000
,
00000000
00000000
00000000
00000000
,
00000000
00000000
00000000
00000000
,
10000000
00010000
10000000
00000000
00010000
00001000
00010000
00000000
,
00001000
00000100
00000010
00000001
,
00001000
00000100
00000001
00000010
,
00001000
00000100
00000001
00000010
,
00001000
00010000
01000000
10000000
,
01000000
00000000
00100000
00000000
01000000
00100000
01100000
00000000
,
00010000
00001000
00010000
00000000
00001000
00010000
00001000
00000000
,
00010000
00000000
00001000
00000000
00010000
00001000
00011000
00000000
,
00010000
00100000
01000000
00000000
01000000
00100000
00010000
00000000
,
00011000
00000000
00000000
00000000
,
10000000
01000000
00010000
00000000
00001000
00000100
00000001
00000000
,
00000001
00000100
00001000
00000000
00010000
00001000
00010000
00000000
,
00010000
01000000
10000000
00000000
10000000
01000000
00010000
00000000
,
00011000
00000000
00000000
00000000
,
00010000
00100000
00010000
00001000
,
00000100
00000000
00001000
00000000
00000001
00001000
00001000
00000000
,
00010000
00010000
10000000
00000000
10000000
00010000
00010000
00000000
,
10100000
00000000
01010000
00000000
01000000
00100000
00100000
00000000
,
00010000
10100000
10000000
01010000
,
00010000
00000000
00011000
00000000
00001000
00010000
00011000
00000000
,
00010000
00000000
10000000
00000000
,
01100000
00000000
01100000
10010000
,
10000000
00000000
00000000
00010000
00000000
00000000
00000000
00000000
00001000
00000000
00000000
00010000
00000000
00000000
00000000
00000000
,
00001000
00000000
00000000
00000100
00000000
00000000
00000010
00000000
00000001
00000000
00000000
00000000
00001001
00000000
00000000
00000000
,
00001000
00000100
00001000
00000000
00010000
00100000
00010000
00000000
,
10000000
01000000
00010000
00100000
,
00010000
00001000
00010000
00000000
00001000
00010000
00001000
00000000
,
00010000
00100000
10000000
01000000
,
00100000
00010000
00100000
00000000
00010000
00001000
00010000
00000000
,
00001000
00000100
00000001
00000010
,
00000100
00000010
00000100
00000000
00001000
00010000
00001000
00000000
,
00010000
00100000
10000000
01000000
,
00010000
00000000
00010000
00000000
00010000
00000000
00010000
01000000
,
10000000
01000000
00010000
00100000
,
00001000
00000000
00001000
00000000
00001000
00000000
00001000
00000100
,
00000001
00000010
00001000
00000100
,
00000001
00001000
00000001
00000000
00000100
00000010
00000100
00001000
,
00010000
00100000
10000000
01000000
,
00010000
10000000
00010000
00000000
00100000
01000000
00100000
00010000
,
00001000
00000010
00000001
00000100
,
00000011
00000000
00001100
00000000
,
00001000
00010000
00100000
10000000
,
00110000
00000000
00001100
00000000
;

//---------------dance-double - ----------------
#NOTEDATA:;
#CHARTNAME:;
#STEPSTYPE:dance-double;
#DESCRIPTION:;
#CHARTSTYLE:;
#DIFFICULTY:Hard;
#METER:7;
#RADARVALUES:0.433560,0.469482,0.197677,0.000000,0.250003,261.000000,244.000000,17.000000,0.000000,0.000000,0.000000,0.000000,0.000000,0.000000,0.433560,0.469482,0.197677,0.000000,0.250003,261.000000,244.000000,17.000000,0.000000,0.000000,0.000000,0.000000,0.000000,0.000000;
#CREDIT:;
#DISPLAYBPM:140.000000;
#NOTES:
00000000
00000000
00000000
00000000
,
00000000
00000000
00000000
00000000
,
00000000
00000000
00000000
00000000
,
00000000
00000000
00000000
00000000
,
00000000
00000000
00000000
00000000
,
00100000
00000000
00000000
00010000
00000000
00000000
00010000
00000000
00001000
00000000
00000000
00001000
00000000
00000000
00000100
00000000
,
00001000
00000001
00001000
00000010
,
00000001
00000100
00001000
00000000
00000001
00000100
00001000
00000000
,
00010000
00100000
10000000
00000000
00010000
01000000
10000000
00000000
,
10000000
00000000
00000000
00010000
00000000
00000000
00100000
00000000
00010000
00000000
00000000
01000000
00000000
00000000
00100000
00000000
,
00010000
00000000
00000000
10000000
00000000
00000000
01000000
00000000
00100000
00010000
00000000
00010000
00100000
00000000
00000000
00000000
,
00010000
00000000
00000000
00100000
00000000
00000000
00010000
00000000
10000000
00000000
00000000
01000000
00000000
00000000
00010000
00000000
,
10000000
00000000
01000000
00000000
00010000
00001000
00010000
00000000
,
00001000
00000000
00000000
00000010
00000000
00000000
00000100
00000000
00000010
00000000
00000000
00001000
00000000
00000000
00010000
00000000
,
00100000
10000000
00010000
10000000
,
01100000
00000000
00000000
10000000
00000000
00000000
00010000
00000000
10010000
00000000
00000000
00100000
00000000
00000000
01000000
00000000
,
00010000
00000000
00001000
00000000
00000100
00000001
00000100
00000000
,
00001000
00000000
00000000
00000100
00000000
00000000
00001000
00000000
00000010
00000000
00000000
00000100
00000000
00000000
00000010
00000000
,
00001001
00000100
00010000
00001000
,
00010000
00000000
00000000
00100000
00000000
00000000
01000000
00000000
10000000
00000000
00000000
01000000
00000000
00000000
00010000
00000000
,
00001000
00000000
00000000
00000010
00000000
00000000
00000100
00000000
00000010
00000000
00000000
00001000
00000000
00000000
00010000
00000000
,
00100000
00000000
00000000
01000000
00000000
00000000
00010000
00000000
10000000
00000000
00000000
00100000
00000000
00000000
01000000
00000000
,
00100000
00000000
00000000
01100000
10010000
00000000
00100000
00000000
,
00010000
00000000
00000000
00001000
00000000
00000000
00000100
00000000
00000001
00000000
00000000
00000010
00000000
00000000
00000100
00000000
,
00000110
00000000
00000000
00001001
00000000
00000000
00000010
00000000
00000001
00000000
00000000
00001000
00000000
00000000
00001001
00000000
,
00001000
00000000
00011000
00000000
,
00010000
00000000
01100000
10010000
,
00100000
00000000
00000000
00101000
00000000
00000000
00000000
00000000
00001000
00000000
00000000
00010100
00000000
00000000
00000000
00000000
,
00001000
00000000
00000000
00001000
00000000
00000000
00010000
00000000
00001000
00000000
00000000
00000000
00000000
00000000
00000000
00000000
,
00001000
00000000
00000000
00001000
00000100
00000000
00000000
00000000
00000010
00000000
00000000
00000010
00000001
00000000
00000000
00000000
,
00000100
00000000
00000000
00000100
00000010
00000000
00000000
00000010
00001000
00000000
00000000
00001000
00010000
00000000
00000000
00000000
,
01000000
00000000
00000000
01000000
00100000
00000000
00000000
00000000
10000000
00000000
00000000
10000000
01000000
00000000
00000000
00000000
,
10000000
00000000
00000000
10000000
01000000
00000000
00000000
01000000
00100000
00000000
00000000
00100000
00001000
00000000
00000000
00000000
,
00010000
00000000
00000000
00010000
00000100
00000000
00000000
00000000
00000010
00000000
00000000
00000010
00000001
00000000
00000000
00000000
,
00000100
00000000
00000000
00000100
00000010
00000000
00000000
00000010
00001000
00000000
00000000
00001000
00010000
00000000
00000000
00000000
,
00010000
00100000
10000000
00000000
10000000
01000000
00010000
00000000
,
00010000
00001000
00000100
00001000
00000100
00000010
00000001
00000000
,
00000001
00000100
00000001
00000100
00000001
00000100
00000010
00000001
,
00001000
00000100
00001000
00000100
00001000
00010000
00100000
00000000
,
01000000
10000000
01000000
10000000
01000000
00100000
00010000
00001000
,
00000100
00001000
00000100
00001000
00000100
00000001
00000010
00000000
,
00001000
00000100
00000010
00000001
00001000
00000100
00000010
00000001
,
00000001
00000010
00000100
00001000
00000001
00000010
00000100
00000000
,
00000001
00000010
00000100
00001000
00010000
00100000
01000000
10000000
,
01000000
00100000
00010000
00001000
00000100
00000010
00000001
00000000
,
00000011
00000000
00001100
00000000
,
00010000
01000000
00100000
10000000
,
11000000
00000000
00110000
00000000
;

//---------------dance-single - ----------------
#NOTEDATA:;
#CHARTNAME:;
#STEPSTYPE:dance-single;
#DESCRIPTION:;
#CHARTSTYLE:;
#DIFFICULTY:Beginner;
#METER:2;
#RADARVALUES:0.091363,0.195351,0.011628,0.162793,0.000000,55.000000,54.000000,1.000000,14.000000,0.000000,0.000000,0.000000,0.000000,0.000000,0.091363,0.195351,0.011628,0.162793,0.000000,55.000000,54.000000,1.000000,14.000000,0.000000,0.000000,0.000000,0.000000,0.000000;
#CREDIT:;
#DISPLAYBPM:140.000000;
#NOTES:
0000
0000
0000
0000
,
0000
0000
0000
0000
,
0000
0000
0000
0000
,
0000
0000
0000
0000
,
0000
0000
0000
0000
,
2000
0000
0000
0000
,
3000
0000
0000
0000
,
0000
0000
0000
0000
,
0000
0000
0000
0000
,
0000
0000
0000
0000
,
0000
0000
0000
0000
,
0001
0000
0000
0000
,
0000
0000
0000
0000
,
1000
0000
0000
0000
,
0000
0000
0000
0000
,
0100
0000
0000
0000
,
0000
0000
0000
0000
,
0010
0000
0000
0000
,
0000
0000
0000
0000
,
0001
0000
0000
0000
,
0000
0000
0000
0000
,
0000
0000
0000
0000
,
2000
0000
3000
0000
,
0000
0000
0000
0000
,
0010
0000
0000
0000
,
0000
0000
0000
0000
,
0100
0000
0000
0000
,
0002
0003
2000
3000
,
0010
0100
0220
0330
,
0100
0000
0100
0000
,
0100
0100
0100
0000
,
0010
0000
0010
0000
,
0010
0010
0010
0000
,
1000
0000
1000
0000
,
1000
1000
1000
0000
,
0001
0000
0001
0000
,
0001
0001
0001
0000
,
0200
0000
0300
0000
,
0100
0100
0100
0000
,
0020
0000
0030
0000
,
0010
0010
0010
0000
,
2000
0000
3000
0000
,
1000
1000
1000
0000
,
0002
0000
0003
0000
,
0001
0001
0001
0000
,
0002
0003
2000
3000
,
0000
0000
0000
0000
,
0020
0030
0200
0000
,
0300
0000
0000
0000
;

//---------------dance-single - ----------------
#NOTEDATA:;
#CHARTNAME:;
#STEPSTYPE:dance-single;
#DESCRIPTION:;
#CHARTSTYLE:;
#DIFFICULTY:Challenge;
#METER:14;
#RADARVALUES:0.759145,0.837219,0.616286,0.500006,0.819777,457.000000,404.000000,53.000000,43.000000,0.000000,0.000000,0.000000,0.000000,0.000000,0.759145,0.837219,0.616286,0.500006,0.819777,457.000000,404.000000,53.000000,43.000000,0.000000,0.000000,0.000000,0.000000,0.000000;
#CREDIT:;
#DISPLAYBPM:140.000000;
#NOTES:
// measure 0
0000
0000
0000
0000
,  // measure 1
0000
0000
0000
0000
,  // measure 2
0000
0000
0000
0000
,  // measure 3
0000
0000
0000
0000
,  // measure 4
0000
0000
0000
0000
,  // measure 5
1000
0000
0001
0010
0000
0000
0100
0000
1000
0000
0001
1000
0000
0000
0100
0000
,  // measure 6
0010
0010
0001
0001
1000
0100
1000
0100
,  // measure 7
0020
1000
0031
0010
0002
1000
0013
0001
,  // measure 8
0200
0010
1300
0100
2000
0100
3010
1000
,  // measure 9
1100
0000
0000
0110
0000
0000
0011
0000
0101
0000
0000
0110
0000
0000
1010
0000
,  // measure 10
1001
0000
0000
0110
0000
0000
1001
0000
0001
1000
0000
0001
1000
0000
0000
0000
,  // measure 11
1100
0000
1000
0010
0000
0100
0001
0000
0011
0000
0001
0010
0000
0100
1000
0100
,  // measure 12
0010
0000
0110
0000
0101
1100
0110
0000
,  // measure 13
1010
0000
0010
1000
0000
0010
0001
0000
0101
0000
0100
0010
0000
1000
0001
1000
,  // measure 14
0200
0000
0000
0000
0010
0000
0010
0000
0310
0000
0000
0010
0100
0000
1000
0000
,  // measure 15
1001
0000
0001
0010
0000
0100
1000
0000
1001
0000
1000
0100
0000
0010
0001
0000
,  // measure 16
1001
0000
0000
1000
0010
0000
0000
0100
0001
0000
0000
0010
0001
0000
0000
0000
,  // measure 17
1001
0000
0001
0100
0000
0010
1000
0010
1000
0000
0010
1000
0000
1000
0010
1000
,  // measure 18
0100
0000
0000
0100
1000
0000
0000
1000
0001
1000
0000
0001
0100
0000
0001
0000
,  // measure 19
0020
0000
0000
0001
0000
0000
0031
0000
0200
0000
0000
0010
0000
0000
0310
0000
,  // measure 20
2000
0000
0000
0100
0000
0000
3100
0000
0002
0000
0000
1000
0000
0000
1003
0000
,  // measure 21
1001
0000
0001
1000
0000
0010
1000
0000
1001
0000
1000
0100
0000
0010
0001
0000
,  // measure 22
0201
0000
0000
0000
0000
0000
0010
0000
0310
0000
0000
0100
0010
0000
0100
0000
,  // measure 23
1000
0000
0000
0100
0000
0000
0010
0000
0011
0000
0000
0101
0000
0000
1001
0000
,  // measure 24
1100
0000
0000
1010
0000
0000
0101
0000
0011
0000
0000
0110
0000
0000
1100
0000
,  // measure 25
2000
0000
0000
3001
0100
0000
0001
0000
0020
0000
0000
1030
0001
0000
0010
0000
,  // measure 26
0002
0000
0000
1003
0001
0000
0010
0000
0200
0000
1000
0000
1300
0000
0000
0000
,  // measure 27
1100
0000
0000
1100
0000
0000
0000
0000
0101
0000
0000
0101
0000
0000
0000
0000
,  // measure 28
0011
0000
0000
0110
0000
0000
1010
0000
0202
0000
0000
0000
0303
0000
0000
0000
,  // measure 29
1001
0000
0001
1000
0000
1000
0001
0000
1001
0000
1000
0001
0000
0001
1000
0001
,  // measure 30
0100
0001
0100
0001
0010
0001
0010
0001
0100
0001
0010
0001
0100
0000
0001
0000
,  // measure 31
1001
0000
0001
1000
0000
1000
0001
0000
1001
0000
1000
0001
0000
0001
1000
0001
,  // measure 32
1000
0100
1000
0100
1000
0010
1000
0010
1000
0100
1000
0010
1000
0000
0100
0000
,  // measure 33
0110
0000
0001
0100
0000
1000
0100
0000
0110
0000
1000
0010
0000
0001
0010
0001
,  // measure 34
0100
0001
0100
0001
1000
0010
1000
0010
0100
0001
1000
0010
0100
0000
0001
0000
,  // measure 35
1000
0100
0010
0100
1000
0000
1001
0000
0001
0010
0100
0010
0001
0000
1001
0000
,  // measure 36
1000
0100
0001
0100
1000
0000
0110
0000
0001
0100
1000
0100
0001
0000
0110
0000
,  // measure 37
0020
0000
0031
0010
0200
0000
1300
0001
0020
0000
0031
0010
0200
0000
1300
0001
,  // measure 38
0010
0100
1000
0100
0010
0001
1000
0001
0100
0010
1000
0001
0010
0100
1000
0000
,  // measure 39
0002
0000
0013
0100
2000
0000
3100
0010
0002
0000
0013
0100
2000
0000
3100
0010
,  // measure 40
0001
0010
0001
0010
0100
1000
0100
1000
0001
0010
0100
1000
0100
0010
0001
0000
,  // measure 41
0002
0000
0103
0010
2000
0000
3010
0100
0002
0000
0103
0010
2000
0000
3010
0100
,  // measure 42
0001
0100
0010
1000
0100
0010
0001
0010
0100
1000
0001
0100
0010
1000
0001
0000
,  // measure 43
0200
0000
1300
0001
0020
0000
1030
0001
0200
0000
1300
0001
0020
0000
1030
0001
,  // measure 44
0100
0001
0100
0001
1000
0010
1000
0010
0100
0001
1000
0100
0010
0001
1000
0000
,  // measure 45
0020
0000
1030
0100
0000
0000
0110
0000
0002
0000
0103
0010
0000
0000
0110
0000
,  // measure 46
0002
0023
2030
3200
0320
0032
0203
2300
,  // measure 47
0200
0000
0000
0000
,  // measure 48
3300
0000
0000
0000
;
