#VERSION:0.83;
#TITLE:BAILA! BAILA!;
#SUBTITLE:;
#ARTIST:DANDY MINEIRO;
#TITLETRANSLIT:;
#SUBTITLETRANSLIT:;
#ARTISTTRANSLIT:;
#GENRE:;
#ORIGIN:;
#CREDIT:;
#BANNER:BAILA! BAILA!.png;
#BACKGROUND:BAILA! BAILA!-bg.png;
#PREVIEWVID:;
#JACKET:BAILA! BAILA!-jacket.png;
#CDIMAGE:;
#DISCIMAGE:;
#LYRICSPATH:;
#CDTITLE:;
#MUSIC:BAILA! BAILA!.ogg;
#OFFSET:0.000000;
#SAMPLESTART:59.099998;
#SAMPLELENGTH:15.000000;
#SELECTABLE:YES;
#BPMS:0.000=130.000;
#STOPS:;
#DELAYS:;
#WARPS:;
#TIMESIGNATURES:0.000=4=4;
#TICKCOUNTS:0.000=4;
#COMBOS:0.000=1;
#SPEEDS:0.000=1.000=0.000=0;
#SCROLLS:0.000=1.000;
#FAKES:;
#LABELS:0.000=Song Start;
#BGCHANGES:;
#KEYSOUNDS:;
#ATTACKS:
;

//---------------dance-single - ----------------
#NOTEDATA:;
#CHARTNAME:;
#STEPSTYPE:dance-single;
#DESCRIPTION:;
#CHARTSTYLE:;
#DIFFICULTY:Beginner;
#METER:2;
#RADARVALUES:0.122403,0.155114,0.059091,0.000000,0.000000,87.000000,81.000000,6.000000,0.000000,0.000000,0.000000,0.000000,0.000000,0.000000,0.122403,0.155114,0.059091,0.000000,0.000000,87.000000,81.000000,6.000000,0.000000,0.000000,0.000000,0.000000,0.000000,0.000000;
#CREDIT:;
#NOTES:
0000
0000
0000
0000
,
0000
0000
0000
0000
,
0000
0000
0000
0000
,
0000
0000
0000
0000
,
0000
0000
0000
0000
,
0000
0000
0000
0000
,
0010
0000
0100
0000
,
0001
0000
0100
0000
,
1000
0000
0001
0000
,
0010
0000
1000
0000
,
1000
0000
0100
0000
,
0001
0000
0100
0000
,
1000
0000
0100
0000
,
0001
0000
0100
0000
,
0010
0000
1000
0000
,
0001
0000
0100
0000
,
1000
0000
0001
0000
,
0100
0000
1000
0000
,
0010
0000
0100
0000
,
1000
0000
0100
0000
,
0010
0000
1000
0000
,
0001
0000
0010
0000
,
1001
0000
0000
0010
,
0000
0000
0000
1000
,
0000
0000
0000
1000
,
0000
0000
0000
0000
,
0110
0000
0000
0100
,
0000
0000
0000
0100
,
0000
0000
0000
0001
,
0000
0000
0000
0000
,
0110
0000
0100
0000
,
1001
0000
0000
0000
,
0100
0100
0000
1000
,
0000
0010
0000
0001
,
0000
1000
0000
0010
,
0000
0001
0000
0100
,
0000
0010
0000
0100
,
0000
0010
0000
0100
,
0000
0010
0000
1000
,
0000
0010
0000
0001
,
0000
0000
0000
0000
,
1001
0000
0000
0000
,
0100
0000
0000
0000
,
1001
0000
0000
0000
,
0100
0000
1000
0000
,
0100
0000
1000
0000
,
0010
0000
1000
0000
,
0010
0000
1000
0000
,
1000
0000
0010
0000
,
1000
0000
0100
0000
,
0010
0000
1000
0000
,
1000
0000
0100
0000
,
1000
0000
0001
0000
,
0000
0000
0000
0000
;

//---------------dance-single - ----------------
#NOTEDATA:;
#CHARTNAME:;
#STEPSTYPE:dance-single;
#DESCRIPTION:;
#CHARTSTYLE:;
#DIFFICULTY:Easy;
#METER:4;
#RADARVALUES:0.204005,0.259755,0.108334,0.285607,0.000000,145.000000,134.000000,11.000000,29.000000,0.000000,0.000000,0.000000,0.000000,0.000000,0.204005,0.259755,0.108334,0.285607,0.000000,145.000000,134.000000,11.000000,29.000000,0.000000,0.000000,0.000000,0.000000,0.000000;
#CREDIT:;
#NOTES:
0000
0000
0000
0000
,
0000
0000
0000
0000
,
0000
0000
0000
0000
,
0000
0000
0000
0000
,
0000
0000
0000
0000
,
0000
0000
0000
0000
,
0010
0000
0100
1000
,
0001
0000
0100
0010
,
1000
0000
0001
0100
,
0010
0000
1000
0001
,
1000
0000
0100
0010
,
0001
0000
0100
0010
,
1000
0000
0100
0010
,
0001
0000
0200
0010
,
0320
0000
1030
0000
,
0001
0010
0100
0000
,
2000
0000
3001
0000
,
0100
0010
1000
0001
,
0020
0000
0130
0000
,
1000
0001
0100
0000
,
0020
0000
1030
0000
,
0001
1000
0010
0100
,
1001
0000
0000
0010
,
0200
0000
0300
1000
,
0002
0000
0003
1000
,
2002
0000
3003
0000
,
0110
0000
0000
0100
,
0010
0000
0000
0100
,
0010
0000
0000
0001
,
2000
0000
3000
0000
,
0110
0000
0011
0000
,
2002
0000
3003
0000
,
0100
0100
0001
1000
,
0010
0010
0100
0001
,
1000
1000
0100
0010
,
0001
0001
1000
0100
,
0010
0010
0001
0100
,
0010
0010
1000
0100
,
0010
0010
0001
1000
,
0010
0010
0100
0001
,
2020
0000
0000
3030
,
2002
0000
0000
3003
,
0022
0000
0000
0033
,
2002
0000
0000
3003
,
0200
0310
1000
0001
,
0100
0020
1030
0001
,
0010
0100
2000
3001
,
0010
0100
1000
0020
,
2030
3001
0010
0100
,
1000
0020
0130
0001
,
0010
0100
2000
3010
,
1000
0001
0100
0020
,
2030
0000
3001
1001
,
0000
0000
0000
0000
;

//---------------dance-single - ----------------
#NOTEDATA:;
#CHARTNAME:;
#STEPSTYPE:dance-single;
#DESCRIPTION:;
#CHARTSTYLE:;
#DIFFICULTY:Medium;
#METER:8;
#RADARVALUES:0.341885,0.363657,0.128031,0.256062,0.039394,243.000000,230.000000,13.000000,26.000000,0.000000,0.000000,0.000000,0.000000,0.000000,0.341885,0.363657,0.128031,0.256062,0.039394,243.000000,230.000000,13.000000,26.000000,0.000000,0.000000,0.000000,0.000000,0.000000;
#CREDIT:;
#NOTES:
0000
0000
0000
0000
,
0000
0000
0000
0000
,
0000
0000
0000
0000
,
0000
0000
0000
0000
,
0000
0000
0000
0000
,
1100
0101
1100
0000
,
2000
0000
3001
0100
0001
1000
0001
0000
,
0002
0000
0003
0000
0010
0001
0100
0000
,
0001
0100
0001
0000
1000
0100
1000
0000
,
0010
0000
0100
0000
0001
0100
1000
0000
,
0200
0000
0301
1000
0001
0100
0001
0000
,
2000
0000
3000
0000
0010
1000
0100
0000
,
1000
0100
1000
0000
0001
0100
0001
0000
,
0010
0000
0100
0000
1000
0100
0001
0000
,
0100
0100
0010
0010
,
0001
1000
0100
0010
0001
0100
0010
0000
,
1000
1000
0001
0001
,
0010
0001
0100
0001
0010
0100
1000
0000
,
0020
0130
2000
3100
,
0001
1000
0100
0000
1000
0001
0010
0000
,
0100
0000
1001
0000
0010
1000
0001
1000
,
0010
0200
0000
0000
0000
0000
0300
0000
,
0010
0000
0000
0010
0000
0000
0010
0000
0000
0000
1000
0000
0001
0000
0100
0000
,
0001
0000
0000
0001
0000
0000
0001
0000
0000
0000
0010
0000
0100
0000
0010
0000
,
0100
0000
0000
0100
0000
0000
0100
0000
0000
0000
1000
0000
0001
0000
0100
0000
,
0001
0200
0000
0000
0300
0000
0000
0000
,
0001
0000
0000
0001
0000
0000
0001
0000
0000
0000
0100
0000
0001
0000
1000
0000
,
0010
0000
0000
0010
0000
0000
0010
0000
0000
0000
1000
0000
0010
0000
1000
0000
,
0100
0000
0000
0100
0000
0000
0100
0000
0000
0000
1000
0000
0001
0000
0100
0000
,
0010
2000
0000
0000
3000
0000
0000
0000
,
0011
0000
0000
0000
1100
0000
0000
0001
,
1000
0001
1000
0010
0200
0000
0300
0000
,
0020
0000
1030
0100
1000
0001
1000
0000
,
0200
0000
0300
0000
0001
1000
0001
0000
,
1000
0100
1000
0000
0001
0100
0001
0000
,
0010
0000
0100
0000
1000
0100
0001
0000
,
0200
0000
1300
0001
1000
0100
1000
0000
,
0002
0000
0003
0000
0010
0001
0100
0000
,
0001
0100
0001
0000
1000
0100
1000
0000
,
0010
0000
0100
0000
0001
0100
1000
0000
,
0202
0000
0000
0303
,
2020
0000
0000
3030
,
0220
0330
2002
3003
,
0101
1100
0101
0000
,
2000
0000
3001
0100
0001
1000
0001
0000
,
0002
0000
0003
0000
0010
0001
0100
0000
,
0001
0100
0001
0000
1000
0100
1000
0000
,
0010
0000
0100
0000
0001
0100
1000
0000
,
0200
0000
0301
0100
0001
1000
0001
0000
,
2000
0000
3000
0000
0010
1000
0100
0000
,
1000
0100
1000
0000
0001
0100
0001
0000
,
0010
0000
0100
0000
1000
0100
0001
0000
,
0010
0000
0000
0100
0000
0000
1000
0001
1000
0001
0000
0000
,
0000
0000
0000
0000
;

//---------------dance-single - ----------------
#NOTEDATA:;
#CHARTNAME:;
#STEPSTYPE:dance-single;
#DESCRIPTION:;
#CHARTSTYLE:;
#DIFFICULTY:Hard;
#METER:10;
#RADARVALUES:0.430521,0.519510,0.265910,0.246213,0.241289,306.000000,279.000000,27.000000,25.000000,0.000000,0.000000,0.000000,0.000000,0.000000,0.430521,0.519510,0.265910,0.246213,0.241289,306.000000,279.000000,27.000000,25.000000,0.000000,0.000000,0.000000,0.000000,0.000000;
#CREDIT:;
#NOTES:
0000
0000
0000
0000
,
0000
0000
0000
0000
,
0000
0000
0000
0000
,
0000
0000
0000
0000
,
0000
0000
0000
0000
,
0000
0000
0000
0000
,
0020
0000
0000
0000
1030
0000
0001
0000
1000
0000
0000
0001
0000
0000
0000
0000
,
2000
0000
3001
1000
0010
0100
0001
0000
,
1000
0200
1300
0000
0001
0200
0301
0000
,
0010
0001
0100
0010
1000
0100
1000
0000
,
0020
0000
0000
0000
0031
0000
1000
0000
0001
0000
0000
1000
0000
0000
0000
0000
,
0002
0000
1003
0001
0010
0100
1000
0000
,
0001
0200
0301
0000
1000
0200
1300
0000
,
0010
1000
0100
0010
0001
0100
0001
0000
,
0010
0001
1000
0000
0010
1000
0100
0000
,
0010
0000
0001
1000
0000
0100
0000
1000
0000
0001
0000
0010
0100
0000
1000
0000
,
0010
1000
0100
0000
0010
0001
0100
0000
,
0010
0000
1000
0001
0000
0100
0000
0001
0000
1000
0000
0010
0100
0000
0001
0000
,
0010
0000
0001
1000
0000
0100
0000
0010
0000
0001
0000
0100
0010
0000
1000
0000
,
0010
0000
1000
0001
0000
0100
0000
0010
0000
0100
0000
0001
0100
0000
0010
0000
,
1000
0000
0001
0010
0000
0100
0000
0010
0000
0001
0000
1000
0000
0001
0100
0000
,
0010
0200
0000
0000
0300
0000
0000
0000
,
1100
0000
0000
0110
0000
0000
1001
0000
0000
0000
0100
0000
1000
0000
0001
0000
,
0110
0000
0000
0011
0000
0000
1100
0000
0000
0001
0000
0100
0000
0000
0010
0000
,
1010
0000
0000
0101
0000
0000
1100
0000
0000
0000
0001
0000
1000
0000
0001
0000
,
0100
0020
0000
0000
0030
0000
0000
0000
,
0101
0000
0000
0110
0000
0000
1001
0000
0000
0000
0100
0000
0001
0000
1000
0000
,
0110
0000
0000
1010
0000
0000
0101
0000
0000
1000
0000
0100
0000
0000
0010
0000
,
0101
0000
0000
1001
0000
0000
1100
0000
0000
0010
0000
0000
0000
0000
1000
0001
,
0200
0000
0300
0000
,
1001
0000
1001
0000
,
0001
1000
0001
0100
0010
0000
0000
0000
,
0020
0000
0000
0000
1030
0000
0001
0000
1000
0000
0000
0001
0000
0000
0000
0000
,
2000
0000
3001
1000
0010
0100
0001
0000
,
1000
0200
1300
0000
0001
0200
0301
0000
,
0010
0001
0100
0010
1000
0100
1000
0000
,
0020
0000
0000
0000
0031
0000
1000
0000
0001
0000
0000
1000
0000
0000
0000
0000
,
0002
0000
1003
0001
0010
0100
1000
0000
,
0001
0200
0301
0000
1000
0200
1300
0000
,
0010
1000
0100
0010
0001
0100
0001
0000
,
1001
0000
0000
0000
,
0110
0000
0000
0000
,
1100
0000
0110
0000
,
0101
1100
0101
0000
,
0010
0000
0010
0000
1000
0000
0001
0000
2000
0000
0000
0001
3000
0000
1000
0000
,
0001
0100
0001
1000
0010
0100
0001
0001
,
1000
0200
1300
1000
0001
0200
0301
0001
,
0010
0001
0100
0010
1000
0100
1000
0100
,
0010
0000
0010
0000
0001
0000
1000
0000
0002
0000
0000
1000
0003
0000
0001
0000
,
1000
0100
1000
0001
0010
0100
1000
1000
,
0001
0200
0301
0001
1000
0200
1300
1000
,
0010
1000
0100
0010
0001
0100
0001
0100
,
0010
0000
0000
0000
0000
0000
1000
0000
0000
0001
0000
0000
0000
0000
0000
0100
0000
0000
0000
0000
0000
0010
0000
0000
1000
0000
0000
0000
0001
0000
0000
0000
1000
0000
0000
0000
0001
0000
0000
0000
0000
0000
0000
0000
0000
0000
0000
0000
,
0000
0000
0000
0000
;

//---------------dance-double - ----------------
#NOTEDATA:;
#CHARTNAME:;
#STEPSTYPE:dance-double;
#DESCRIPTION:;
#CHARTSTYLE:;
#DIFFICULTY:Easy;
#METER:5;
#RADARVALUES:0.219482,0.285730,0.196971,0.147728,0.000000,156.000000,136.000000,20.000000,15.000000,0.000000,0.000000,0.000000,0.000000,0.000000,0.219482,0.285730,0.196971,0.147728,0.000000,156.000000,136.000000,20.000000,15.000000,0.000000,0.000000,0.000000,0.000000,0.000000;
#CREDIT:;
#NOTES:
00000000
00000000
00000000
00000000
,
00000000
00000000
00000000
00000000
,
00000000
00000000
00000000
00000000
,
00000000
00000000
00000000
00000000
,
00000000
00000000
00000000
00000000
,
00000000
00000000
00000000
00000000
,
10000000
00000000
00100000
01000000
,
00010000
00000000
00100000
00001000
,
00010000
00000000
00001000
00010000
,
00000100
00000000
00001000
00000100
,
00001000
00000000
00000001
00001000
,
00000010
00000000
00010000
00001000
,
01000000
00000000
00010000
00100000
,
01000000
00000000
20000000
00100000
,
30100000
00000000
10100000
00000000
,
00010000
01000000
00001000
00000000
,
00010000
00000000
00011000
00000000
,
00010000
00000010
00001000
00000001
,
00000010
00000000
00000110
00000000
,
00001000
00000010
00001000
00000000
,
00000100
00000000
00010000
00000000
,
00001000
00100000
00010000
10000000
,
01100000
00000000
00000000
01000000
,
00001000
00000000
00001000
00010000
,
00000100
00000000
00000100
00001000
,
00002002
00000000
00003003
00000000
,
00001001
00000000
00000000
00001000
,
00000100
00000000
00000000
00010000
,
00001000
00000000
00000000
00100000
,
00010000
00000000
00010000
00000000
,
01010000
00000000
00011000
00000000
,
00002200
00000000
00003300
00000000
,
00010000
00000000
00011000
00010000
,
00001000
00000000
00011000
00000100
,
00001000
00000000
00001001
00001000
,
00000010
00000000
00010000
00001000
,
00100000
00000000
00010000
10000000
,
01000000
00000000
01100000
00010000
,
00100000
00000000
00001000
00010000
,
00000010
00000000
00001000
00001010
,
00001001
00000000
00000100
00010000
,
00011000
00000000
00001000
00100000
,
00020000
00030000
20000000
30000000
,
10010000
10010000
10010000
00000000
,
20000000
30010000
00100000
00010000
,
01000000
00002000
00013000
00000100
,
00001000
00000001
00000200
00000301
,
00000010
00000100
00001000
00000200
,
00020300
00031000
00100000
00010000
,
10000000
00200000
01300000
00010000
,
00100000
00001000
00010000
00000100
,
00001000
00000001
00000100
00000020
,
00000230
00000000
00000301
00000110
,
00000000
00000000
00000000
00000000
;

//---------------dance-double - ----------------
#NOTEDATA:;
#CHARTNAME:;
#STEPSTYPE:dance-double;
#DESCRIPTION:;
#CHARTSTYLE:;
#DIFFICULTY:Medium;
#METER:8;
#RADARVALUES:0.367209,0.467559,0.354547,0.157576,0.029546,261.000000,225.000000,36.000000,16.000000,0.000000,0.000000,0.000000,0.000000,0.000000,0.367209,0.467559,0.354547,0.157576,0.029546,261.000000,225.000000,36.000000,16.000000,0.000000,0.000000,0.000000,0.000000,0.000000;
#CREDIT:;
#NOTES:
00000000
00000000
00000000
00000000
,
00000000
00000000
00000000
00000000
,
00000000
00000000
00000000
00000000
,
00000000
00000000
00000000
00000000
,
00000000
00000000
00000000
00000000
,
00000000
00000000
00000000
00000000
,
10000000
00000000
00000000
00000000
01000000
10000000
00010000
00000000
,
00110000
00000000
00000000
00000000
00001000
00010000
00001000
00010000
,
00001000
00000000
00000000
00000000
00100000
00010000
00100000
00000000
,
00001000
00000000
00000000
00000000
00010000
00001000
00010000
00001000
,
01000000
00000000
00000000
00000000
00010000
01000000
00001000
00000000
,
00011000
00000000
00000000
00000000
00000100
00001000
00000100
00001000
,
00000100
00000000
00000000
00000000
00000010
00000001
00001000
00000000
,
00001001
00000000
00001000
00001010
,
00010000
00001000
00010000
00000000
00010000
00000000
00010000
00001000
,
02000000
00000000
03010000
00010000
10000000
00000000
00010000
00010000
,
00100000
00001000
00010000
00000000
00010000
00000000
00010000
00000010
,
00002000
00000000
00003010
00000010
00000100
00000000
00000001
00000001
,
00000001
00001000
00000010
00000000
00000010
00000000
00000010
00010000
,
00001000
00000000
00011000
00010000
00001000
00000000
00010000
00010000
,
00001000
01000000
00010000
00000000
00010000
00000000
00010000
01000000
,
00200000
00000000
00000000
00000000
10300000
00100000
10000000
00010000
,
10010000
00000000
00000000
10000000
00000000
00000000
01000000
00000000
00000000
00000000
01000000
00000000
00000000
00000000
00100000
00000000
,
00110000
00000000
00000000
00001000
00000000
00000000
00010000
00000000
00000000
00000000
00010000
00000000
00000000
00000000
00000100
00000000
,
00001100
00000000
00000000
00000100
00000000
00000000
00000100
00000000
00000000
00000000
00000100
00000000
00001000
00000000
00000010
00000000
,
00002000
00000020
00000000
00000000
00003030
00000000
00000000
00000000
,
00011000
00000000
00000000
00001000
00000000
00000000
00001000
00000000
00000000
00000000
00001000
00000000
00000000
00000000
00100000
00000000
,
00110000
00000000
00000000
00010000
00000000
00000000
00010000
00000000
00000000
00000000
00010000
00000000
00000000
00000000
01000000
00000000
,
01100000
00000000
00000000
00100000
00000000
00000000
00100000
00000000
00000000
00000000
00100000
00000000
10000000
00000000
00010000
00000000
,
20000000
02000000
00000000
00000000
33000000
00000000
00000000
00100000
,
00110000
00000000
00000000
00001000
00011000
00000000
00000000
00000000
,
00001100
00001001
00000202
00000303
,
00001000
00000000
00000000
00000000
00000010
00001000
00000100
00000000
,
00010100
00000000
00000000
00000000
00001000
00100000
00010000
10000000
,
01000000
00000000
00000000
00000000
10000000
00010000
01000000
00000000
,
01010000
00000000
00000000
00000000
01000000
00001000
00010000
00001000
,
00010000
00000000
00000000
00000000
00000100
00001000
00000001
00000000
,
00000101
00000000
00000000
00000000
00000001
00000100
00000010
00001000
,
00000100
00000000
00000000
00000000
00010000
00001000
01000000
00000000
,
01010000
00000000
10000000
01000000
,
11000000
01000000
00010000
00000000
00001000
00000010
00000100
00000000
,
00000110
00000001
00000100
00000000
00000101
00000000
00001100
00000000
,
00011000
00000000
00001000
00100000
00110000
00000000
00010000
10000000
,
10010000
00101000
00010010
00000000
,
00001000
00000000
00001001
00001000
00000020
00000000
00000130
00000010
,
00001000
00000000
00000100
00000000
00010000
00001000
02000000
00000000
,
03010000
01000000
00100000
00000000
10000000
00000000
10100000
01000000
,
00020000
00000000
00130000
01000000
10000000
00000000
00200000
00000000
,
10300000
00000000
10100000
10000000
00010000
00000000
00100000
00001000
,
00010000
00000000
00000010
00000000
00001010
00000001
00002000
00000000
,
00003001
00000100
00000010
00000000
00001000
00000000
00001010
00010000
,
00002000
00000000
00013000
00001000
01000000
00000000
00010000
00000000
,
00210000
00000000
01300000
10010000
,
00000000
00000000
00000000
00000000
;

//---------------dance-double - ----------------
#NOTEDATA:;
#CHARTNAME:;
#STEPSTYPE:dance-double;
#DESCRIPTION:;
#CHARTSTYLE:;
#DIFFICULTY:Hard;
#METER:10;
#RADARVALUES:0.476950,0.545485,0.748488,0.196971,0.103410,339.000000,263.000000,76.000000,20.000000,0.000000,0.000000,0.000000,0.000000,0.000000,0.476950,0.545485,0.748488,0.196971,0.103410,339.000000,263.000000,76.000000,20.000000,0.000000,0.000000,0.000000,0.000000,0.000000;
#CREDIT:;
#NOTES:
00000000
00000000
00000000
00000000
,
00000000
00000000
00000000
00000000
,
00000000
00000000
00000000
00000000
,
00000000
00000000
00000000
00000000
,
00000000
00000000
00000000
00000000
,
00000000
00000000
00000000
00000000
,
10100000
00100000
10000000
00000000
11000000
10000000
00020000
00030000
,
00110000
00000000
00000000
00000000
00011000
00000100
00001000
00000100
,
00000110
00000000
00000000
00000000
00001001
00000011
00000010
00000000
,
00000110
00000000
00000000
00000000
00000100
00010000
00001000
00100000
,
00001000
00000000
00000000
00000000
00011000
01000000
00010000
00010000
,
01100000
00000000
00000000
00000000
10010000
00010000
01000000
00100000
,
10010000
00000000
00000000
00000000
00110000
00001000
00001000
00000000
,
00011000
00000000
00000000
00000000
00000100
00000100
00001000
00000010
,
00000110
00000001
00001000
00000001
00001000
00000001
00001000
00000100
,
00010000
00000000
00011000
00100000
00010000
00000000
10000000
00100000
,
10000000
00100000
01000000
00100000
01000000
00100000
01000000
00010000
,
00200000
00000000
00301000
00010000
00000200
00000000
00001300
00001000
,
00001001
00001001
00000001
00001000
00000001
00001000
00000001
00001000
,
00000010
00000000
00001010
00000100
00020000
00000000
00031000
01000000
,
00010000
01000000
00100000
01000000
00100000
01000000
00100000
01000000
,
00020000
00000000
00000000
00000000
00030000
00000000
00000000
00000000
01000000
00001000
00000000
00000000
00010000
00000010
00001000
00000000
,
00000001
00000000
00000000
00001001
00000000
00000000
00001001
00000000
00000000
00000000
00001001
00000000
00000000
00000000
00001000
00000000
,
00000010
00000000
00000000
00000110
00000000
00000000
00001010
00000000
00000000
00000000
00001010
00000000
00000000
00000000
00010000
00000000
,
00001000
00000000
00000000
00011000
00000000
00000000
00011000
00000000
00000000
00000000
00011000
00000000
01000000
00000000
00010000
00000000
,
20000000
00020000
00000000
00000000
30030000
00000000
00000000
00000000
,
01100000
00000000
00000000
10010000
00000000
00000000
01100000
00000000
00000000
00000000
01100000
00000000
00000000
00000000
00010000
00000000
,
00110000
00000000
00000000
00001000
00000000
00000000
00010000
00000000
00000000
00000000
00010000
00000000
00000000
00000000
00000010
00000000
,
00001010
00000000
00000000
00001000
00000000
00000000
00000110
00000000
00000000
00000000
00000110
00000000
00000001
00000000
00001000
00000000
,
00000200
00002000
00000000
00000000
00003300
00000000
00000000
00000100
,
00010000
00000000
00000000
00011000
00000000
00000000
00001000
00000000
01000000
00000000
00000000
01010000
00000000
00000000
01000000
00000000
,
00010000
01000000
00100000
10100000
00020000
00000000
00030000
00000000
,
00110000
00010000
00100000
00100000
00001000
00001000
00010000
00010000
,
00001100
00000000
00000000
00000000
00001010
00000001
00000100
00000001
,
00001010
00000000
00000000
00000000
00001010
00001100
00000100
00000000
,
00001100
00000000
00000000
00000000
00011000
00001000
01000000
00010000
,
01010000
00000000
00000000
00000000
01100000
10000000
00010000
00010000
,
01100000
00000000
00000000
00000000
01000000
00001000
00010000
00000010
,
00001010
00000000
00000000
00000000
00001001
00000101
00000100
00000000
,
00000110
00000000
00000000
00000000
00001000
00001001
00000011
00000000
,
00001010
00000000
00000000
00001000
00000000
00000100
00000000
00010000
00001000
00000000
00100000
00010000
00000000
10000000
00000000
01000000
,
11000000
00000000
00000000
10000000
00000000
00010000
00000000
00100000
00001000
00000000
00000000
00000000
00101000
00000000
00000000
00000000
,
00020100
00000000
00031000
00000000
00002010
00000000
00003001
00000010
,
00001100
00000100
00011000
00001000
02020000
00000000
03030000
00000000
,
10000000
10000000
00010000
10010000
00200000
00000000
01300000
00100000
,
10010000
00000000
00010000
00010000
10000000
10010000
02000000
00000000
,
03001000
00010000
00001010
00000000
00000100
00000100
00001000
00001100
,
00000010
00000000
00000001
00000010
00001001
00000000
00000020
00000000
,
00001030
00001000
00000010
00001010
00000002
00000000
00000103
00000010
,
00001010
00000000
00000100
00000100
00010000
00001000
00100000
00000000
,
00110000
01000000
10010000
00000000
00100000
00100000
01000000
01010000
,
00200000
00000000
00310000
00100000
01010000
00000000
00200000
00000000
,
10300000
00000000
00000000
00000000
00000000
00000000
10000000
01000000
10000000
01000000
00000000
00000000
,
00000000
00000000
00000000
00000000
;

//---------------dance-single - ----------------
#NOTEDATA:;
#CHARTNAME:;
#STEPSTYPE:dance-single;
#DESCRIPTION:;
#CHARTSTYLE:;
#DIFFICULTY:Challenge;
#METER:15;
#RADARVALUES:0.748488,0.805240,0.413638,0.315153,1.004550,532.000000,490.000000,42.000000,32.000000,0.000000,0.000000,0.000000,0.000000,0.000000,0.748488,0.805240,0.413638,0.315153,1.004550,532.000000,490.000000,42.000000,32.000000,0.000000,0.000000,0.000000,0.000000,0.000000;
#CREDIT:;
#NOTES:
// measure 0
0000
0000
0000
0000
,  // measure 1
0000
0000
0000
0000
,  // measure 2
0000
0000
0000
0000
,  // measure 3
0000
0000
0000
0000
,  // measure 4
0000
0000
0000
0000
,  // measure 5
1000
0001
1000
0001
1000
0002
2000
0000
0000
3003
0000
0000
,  // measure 6
0200
0000
0000
0000
0301
0010
0200
0000
1000
0000
0000
1000
0000
0000
1300
0100
,  // measure 7
0010
0000
0001
0000
0200
0000
0310
0001
0200
0000
0000
1000
0000
0000
0301
0010
,  // measure 8
0100
0000
1000
0010
0001
0000
0010
0000
0011
0000
0001
0010
1000
0000
1000
0010
,  // measure 9
0001
0000
0100
0000
0101
0000
0100
0010
1000
0000
0100
1000
0000
1100
0000
0100
,  // measure 10
0002
0000
0000
0000
0103
0010
0002
0000
0100
0000
0000
0100
0000
0000
0103
0010
,  // measure 11
0001
0000
0010
0000
0002
0000
0013
1000
0002
0000
0000
1000
0000
0000
1003
0001
,  // measure 12
0010
0000
0100
0001
1000
0000
0100
0000
1100
0000
1000
0010
0001
0000
0001
0010
,  // measure 13
1000
0000
1000
0010
0001
0000
0100
0000
0101
0000
0001
1000
0000
1100
0000
1000
,  // measure 14
0010
0100
0001
0100
0010
0001
0100
0010
1000
0100
0010
0001
0100
0010
1000
0001
,  // measure 15
0100
0000
0010
0001
0000
0101
0000
1100
0000
1001
0000
0101
0000
1000
0100
1000
,  // measure 16
0001
0000
0000
0000
0000
0000
0010
0000
0000
1000
0000
0000
0000
0000
0000
1000
0000
0000
0010
0000
0000
0100
0000
0000
0001
0000
0000
0010
0000
0000
0001
0000
0000
0100
0000
0000
0010
0000
0000
1000
0000
0000
0100
0000
0010
0000
0000
0000
,  // measure 17
0001
0000
0010
0001
0000
1001
0000
0101
0000
1100
0000
1010
0000
0010
1000
0000
,  // measure 18
0100
0000
0010
1000
0000
1100
0000
1000
0010
0000
0001
0010
0000
0110
0000
0100
,  // measure 19
0001
0000
1000
0001
0000
0101
0000
1000
0100
0000
0110
0000
0000
1001
0000
0000
,  // measure 20
0101
0000
0001
0010
0000
0100
0010
1000
0200
0000
0000
1000
0000
0000
0301
0000
,  // measure 21
0010
0001
0100
0010
1000
0010
0100
0001
1000
0010
0100
0001
0010
0001
0100
0010
,  // measure 22
1000
0000
0100
1000
0000
0000
1100
0000
0000
0100
0010
0000
0001
0000
0100
0000
,  // measure 23
0010
0000
0001
0010
0000
0000
0011
0000
0000
0001
0100
0000
0010
0000
1000
0000
,  // measure 24
0010
0000
1000
0010
0000
0000
1010
0000
0000
0010
1000
0000
0100
0000
0010
0000
,  // measure 25
0002
0200
0000
0000
0303
0000
0101
0000
,  // measure 26
1000
0000
0001
1000
0000
0000
1001
0000
0000
0001
1000
0000
0100
0000
0010
0000
,  // measure 27
0100
0000
0010
0100
0000
0000
0110
0000
0000
0010
0100
0000
0010
0000
1000
0000
,  // measure 28
1001
0000
0000
0011
0000
0000
1010
0000
0000
1100
0000
0000
0101
0000
0001
0010
,  // measure 29
0100
1000
0100
1000
0100
1000
0100
1000
0100
1000
0100
1000
0100
0000
1000
0000
,  // measure 30
0010
0001
0010
0001
0010
0000
0001
0000
0010
0100
0010
0100
0010
0000
0100
0000
,  // measure 31
0010
0000
0000
1000
0000
0000
0010
0000
0000
0000
0000
0000
0010
0000
0000
1000
0000
0000
0010
0000
0000
0000
0000
0000
0010
0000
0000
0000
0001
0000
0000
0000
0100
0000
0000
0000
0010
0000
0000
0000
1000
0000
0000
0000
0100
0000
0000
0000
,  // measure 32
0020
0000
0000
0000
0031
0100
0020
0000
1000
0000
0000
0100
0000
0000
1030
0100
,  // measure 33
0020
0000
0031
0010
0100
1000
0020
0000
1000
0000
0000
0100
0000
0000
1030
0100
,  // measure 34
0010
0001
0010
0100
0020
0000
0000
0000
0031
0100
0010
1000
0020
0000
0000
0000
,  // measure 35
0130
0001
1000
0001
0100
0000
1000
0000
0020
0000
0000
0100
0000
0000
0031
0100
,  // measure 36
2000
0000
0000
0000
3100
0010
2000
0000
0100
0000
0000
0100
0000
0000
3100
0010
,  // measure 37
2000
0000
3100
0010
2000
0000
3010
0100
2000
0000
0000
0001
0000
0000
3001
0010
,  // measure 38
0100
1000
0010
0100
2000
0000
0000
0000
3001
0100
0010
0100
2000
0000
0000
0000
,  // measure 39
3100
0010
0001
0010
1000
0010
0100
0001
2000
0000
0000
0010
0000
0000
3001
0000
,  // measure 40
2002
0000
0000
0003
0000
0000
3001
0000
0010
0000
0001
0000
0010
0000
0100
0000
1000
0000
0200
0000
0000
0000
0000
0000
,  // measure 41
2300
0000
0000
0000
3001
0000
0010
0000
1000
0001
0100
0000
0001
1000
0100
0010
,  // measure 42
0001
0000
0010
0001
0000
0101
0000
1000
0100
0000
0010
1000
0000
1100
0000
0010
,  // measure 43
0001
0010
0001
0000
0010
0100
0010
0000
1000
0100
0010
0001
0010
0100
1000
0000
,  // measure 44
0010
0100
0001
0100
0010
1000
0100
0010
0001
0010
0100
1000
0001
0100
0010
0100
,  // measure 45
1000
0000
0100
0000
0010
0000
0001
0000
1000
0000
0010
0001
0000
0001
0010
0001
,  // measure 46
1000
0001
0100
0001
1000
0000
1001
0000
0001
1000
0100
1000
0001
0000
1001
0000
,  // measure 47
1000
0001
0010
0001
1000
0010
0001
0010
1000
0000
0100
1000
0000
1001
0000
0001
,  // measure 48
0010
1000
0100
1000
0010
0001
0100
0001
0010
0100
1000
0100
0010
0001
0100
0010
,  // measure 49
1000
0000
0010
0000
0001
0000
0010
0000
1000
0000
0100
0010
0000
0010
0001
0010
,  // measure 50
0100
0010
1000
0010
0100
0000
0110
0000
0010
0001
0100
0001
0010
0000
0110
0000
,  // measure 51
0100
0001
1000
0100
0010
0000
0001
0010
0100
1000
0010
0000
0000
0101
0000
0000
,  // measure 52
1001
0000
0000
0000
0000
0000
0001
0000
0000
0100
0000
0000
0000
0000
0000
1000
0000
0000
0100
0000
0000
0000
0000
0000
0100
0000
0000
0000
0100
0000
0000
0000
0100
0000
0000
0000
0110
0000
0000
0000
0000
0000
0000
0000
0000
0000
0000
0000
;
