#TITLE:B4U glorious style;
#SUBTITLE:;
#ARTIST:NAOKI;
#TITLETRANSLIT:;
#SUBTITLETRANSLIT:;
#ARTISTTRANSLIT:;
#GENRE:;
#CREDIT:;
#BANNER:B4U glorious style.png;
#BACKGROUND:B4U glorious style-bg.png;
#LYRICSPATH:;
#CDTITLE:;
#MUSIC:B4U glorious style.ogg;
#OFFSET:0.000000;
#SAMPLESTART:13.951000;
#SAMPLELENGTH:15.000000;
#SELECTABLE:YES;
#DISPLAYBPM:155.000000;
#BPMS:0.000000=152.664001
,4.000000=155.091995
;
#STOPS:
;
#BGCHANGES:;
#KEYSOUNDS:;
#ATTACKS:;

//---------------dance-single - ----------------
#NOTES:
     dance-single:
     :
     Easy:
     7:
     0.348026,0.443553,0.244682,0.010638,0.000000,458.000000,412.000000,46.000000,2.000000,0.000000,0.000000,0.348026,0.443553,0.244682,0.010638,0.000000,458.000000,412.000000,46.000000,2.000000,0.000000,0.000000:
0000
0000
0000
0000
,
0000
0000
0000
0000
,
0000
0000
0000
0000
,
0001
0000
0001
0000
,
0010
0001
1000
0000
,
1000
0000
1000
0000
,
0010
1000
0001
0000
,
0001
0100
0001
0010
,
0100
1000
0010
1000
,
0001
0000
1000
0000
,
0010
0000
0100
0100
,
0001
0000
1000
0000
,
0100
0000
0010
0010
,
0001
0100
1000
0100
,
0001
0010
1000
0010
,
0100
0100
0001
0001
,
0010
0010
1000
1000
,
1001
0010
0100
0001
,
0010
0010
0100
1000
,
1001
0100
0010
0001
,
1000
1000
0010
0100
,
0001
0010
1000
0100
,
1000
0010
0100
0001
,
0010
0100
1000
0010
,
0001
0100
1000
0010
,
1001
0100
0100
0100
,
0001
0000
0010
0000
,
1000
0000
0100
0000
,
0001
0000
1000
0000
,
0100
0000
0010
0001
,
0100
0000
0010
0000
,
1000
0000
0100
0000
,
0010
0000
0001
0000
,
0100
0100
0100
0001
,
0110
1000
0010
0100
,
0001
0010
1000
0100
,
1001
0010
0100
0001
,
1000
1000
0100
0010
,
1001
0100
0010
0001
,
0100
0100
0010
1000
,
0100
0010
0001
0100
,
0010
0010
1000
0100
,
0001
0110
1000
0110
,
0001
0010
1000
0010
,
0001
1000
1000
1000
,
0100
0010
0001
0100
,
0010
0000
1000
0000
,
0100
0001
0010
1000
,
0010
0001
0001
0001
,
0010
0100
1000
1000
,
0010
1001
0100
0100
,
1001
0000
0110
0000
1001
0000
0100
0100
,
0100
0010
0001
0100
,
0010
1000
0100
0100
,
0010
1001
0100
0100
,
1001
0000
0110
0000
1001
0000
0010
0010
,
0010
0100
0010
1000
,
0100
0010
0001
0110
,
1000
0000
0000
0000
,
1000
0000
0000
0000
,
0100
0000
0100
0000
,
0010
0010
0010
0001
,
0100
0100
0010
1000
,
0001
0010
0010
0100
,
1000
0010
0100
0001
,
1000
0100
0010
0010
,
0001
0110
1000
0100
,
0010
1001
0100
0100
,
0010
0110
0001
0010
,
0100
1000
0010
1000
,
0100
0010
0001
0100
,
0010
1001
0100
0100
,
0010
0110
0001
0100
,
0010
1000
0100
0010
,
1001
0100
0100
0100
,
0001
0110
1000
0110
,
0001
1000
0100
0001
,
0010
1000
1000
1000
,
0001
1000
0010
0100
,
1000
0000
0100
0000
,
0010
0001
0100
1000
,
0010
0001
0001
0001
,
0010
0100
1000
1000
,
0010
1001
0100
0100
,
1001
0000
0110
0000
1001
0000
0100
0100
,
0100
0010
0001
0100
,
0010
1000
0100
0100
,
0010
1001
0100
0100
,
1001
0000
0110
0000
1001
0000
0010
0010
,
0010
1000
0010
0100
,
0001
0010
0100
0110
,
1000
0000
0000
0000
,
0001
0000
0000
0000
,
0100
0000
0000
0000
,
0010
0000
0000
0000
,
1001
0010
0100
0001
,
0010
0010
0100
1000
,
0110
0001
0010
0100
,
1000
0010
0001
0100
,
0010
0010
0010
0010
,
1000
1000
0001
0001
,
1000
0000
0000
0000
,
0010
1000
0100
0100
,
0010
0000
0001
0000
,
0100
0000
0010
0000
,
1000
1000
0001
0001
,
0100
0100
0010
0010
,
1000
1000
0001
0001
,
1001
1001
0100
0100
,
0001
0110
1000
1000
,
1001
0000
0110
0000
1001
0000
0010
0010
,
0010
1000
0100
0100
,
0010
0001
0100
0010
,
1000
0110
0001
0001
,
1001
0000
0110
0000
1001
0000
0100
0100
,
0100
0010
0001
0001
,
0100
0010
1000
1000
,
0100
0000
0100
0010
,
0001
0000
2000
0000
0000
0020
0000
0000
,
0000
3030
0000
0000
0000
0000
0000
0000
;

//---------------dance-single - ----------------
#NOTES:
     dance-single:
     :
     Medium:
     11:
     0.445291,0.570282,0.308512,0.005319,0.000000,586.000000,528.000000,58.000000,1.000000,0.000000,0.000000,0.445291,0.570282,0.308512,0.005319,0.000000,586.000000,528.000000,58.000000,1.000000,0.000000,0.000000:
0000
0000
0000
0000
,
0000
0000
0000
0000
,
0000
0000
0000
0000
,
0010
0010
0100
0100
,
0010
1000
0100
0000
,
0010
0010
0100
0100
,
0001
0010
0100
0000
1000
0001
0100
0000
,
0001
0010
0100
1000
,
0010
0100
0001
0000
0010
0100
1000
0000
,
0001
0100
1000
0010
,
1000
0010
0100
0000
1000
0001
0100
0000
,
0001
0010
1000
0100
,
0001
0010
0100
0000
0001
1000
0100
0000
,
0001
0001
1000
1000
,
0010
0000
0100
0000
0001
0010
0001
0000
,
0010
0000
0100
0000
1000
0100
1000
0000
,
1000
0010
0100
0000
0001
0010
0100
0000
,
1001
0010
1000
0100
,
1000
0100
0010
0001
1000
0100
0010
0000
,
0001
0100
0010
1000
,
0010
0000
0001
0000
1000
0100
0010
0001
,
1000
0010
0100
0001
,
1000
0010
0100
0001
1000
0010
0100
0000
,
0001
0010
0100
1000
,
0010
0000
1000
0000
0001
0010
0100
1000
,
0001
0000
1001
0000
0010
0100
0001
0001
,
0010
0010
0001
0010
,
1000
1000
0100
0010
,
0001
0001
0001
0001
,
1000
0000
1000
0000
0100
0010
0001
0100
,
0001
0001
1000
1000
,
0001
0001
0010
0100
,
1000
0010
1000
0100
,
0010
0001
0100
0010
,
1001
0010
1000
0100
,
0001
0100
0010
1000
0001
0100
0010
0000
,
1000
0100
0010
0001
,
0010
0000
1000
0000
0001
0100
0010
1000
,
0001
0010
0100
1000
,
0001
0010
0100
1000
0001
0010
0100
0000
,
1000
0010
0100
0001
,
0010
0000
0001
0000
1000
0010
0100
0001
,
1000
0101
0001
1100
,
0010
0000
0010
0000
0001
0100
0010
0000
,
1000
0010
0001
0100
,
1010
0000
0101
0000
0010
1000
0001
0100
,
0010
1100
0010
0101
,
0010
0000
0001
0000
0100
0010
1000
0000
,
0001
0001
0010
0010
,
0100
1000
0100
0000
1001
0000
0100
0000
,
0011
1001
0011
1100
,
0010
0000
0100
0000
0001
0000
0100
0100
,
0010
0100
1000
0101
,
1000
0010
1000
0000
0010
1000
0100
0100
,
1100
1001
1010
0101
,
0010
0000
0100
0000
1000
0000
0010
0010
,
0010
0100
0001
1100
,
0001
0010
0001
0000
0010
0100
1001
0000
,
0010
0000
0000
0000
,
0010
0000
0000
0000
,
0001
0001
0001
0001
,
1000
1000
1000
1000
,
0010
0010
1000
0100
,
0010
0010
0001
0100
,
0010
1000
0100
0010
,
0001
0100
0010
1000
,
0001
1001
0001
0100
,
0010
0110
0010
1000
,
0100
0110
0010
0001
,
0001
0101
0010
1000
,
0100
1100
0010
0001
,
0100
1010
0100
0010
,
0001
0011
0100
0010
,
1000
0001
0100
0100
,
1010
0000
1001
0000
0010
0100
0001
1000
,
0010
0100
0001
1100
,
0010
0000
0010
0000
0001
0100
0010
0000
,
1001
0010
0100
0001
,
0010
0100
1000
0001
,
0010
1100
0010
0101
,
0010
0000
1000
0000
0100
0010
0001
0000
,
1000
1000
0010
0010
,
0100
0001
0100
0000
1001
0000
0100
0000
,
0011
1001
0011
1100
,
0010
0000
0100
0000
0001
0000
0100
0100
,
0010
0100
1000
0101
,
1000
0010
1000
0000
0010
1000
0100
0100
,
1100
1001
1010
0101
,
0010
0000
0100
0000
1000
0000
0010
0010
,
0010
0100
0001
1100
,
0001
0010
0001
0000
0100
0010
1001
0000
,
0010
0000
0000
0000
,
0010
0000
0000
0000
,
0001
0000
0001
0000
,
1000
0000
1000
0000
,
0110
0001
1000
0100
,
0010
0001
1000
0100
0010
0001
1000
0000
,
0010
1000
0100
0010
,
0001
1000
0100
0100
,
0100
0010
0000
0010
0000
0010
0000
0010
,
0000
0010
0000
0010
0000
0010
0001
0100
,
1001
0000
0000
0000
,
0100
0010
0100
0000
0001
1000
0010
0010
,
0100
0000
0100
0000
,
0010
0000
0010
0000
,
0100
0100
0001
0001
,
0010
0010
0100
0100
,
0100
1000
0100
0010
0001
0100
0001
0010
,
0010
0001
0100
0010
1000
0100
0010
0000
,
1100
0110
0101
0110
,
1000
0000
0100
0000
0001
0000
0100
0100
,
0010
0100
1000
0110
,
0001
0010
0001
0010
0010
0100
1000
1000
,
0011
0110
1010
0110
,
0001
0000
0100
0000
1000
0000
0010
0010
,
0010
0100
0001
1100
,
1000
0100
1000
0100
1000
0010
0100
0010
,
0010
1000
0000
0010
1000
0010
0100
0000
,
0010
0001
0100
1000
0000
0020
0000
0000
,
0000
0030
0000
0000
0000
0000
0000
0000
;

//---------------dance-single - ----------------
#NOTES:
     dance-single:
     :
     Hard:
     13:
     0.582070,0.570282,0.117022,0.005319,0.313831,766.000000,744.000000,22.000000,1.000000,0.000000,0.000000,0.582070,0.570282,0.117022,0.005319,0.313831,766.000000,744.000000,22.000000,1.000000,0.000000,0.000000:
0000
0000
0000
0000
,
0000
0000
0000
0000
,
0000
0000
0000
0000
,
0000
0001
0010
0100
1000
0010
0000
0001
,
0000
0100
0010
1000
0001
0100
0000
0000
,
0000
1000
0010
0100
0001
0010
0000
0001
,
0000
0100
0010
1000
0001
0100
0000
1000
,
0000
0100
0010
0001
1000
0100
0000
0001
,
0000
0100
0010
1000
0001
0100
0000
0000
,
0000
0000
0010
0000
0000
1100
0000
0000
0010
0000
0000
0001
0000
0000
0100
0000
,
0010
1000
0100
0001
0010
1000
0100
0000
,
0000
0000
0010
0000
0000
0101
0000
0000
0010
0000
0000
1000
0000
0000
0100
0000
,
0010
0001
0100
0010
1000
0001
0100
0000
,
0000
0000
0010
0000
0000
0101
0000
0000
0010
0000
0000
1000
0000
0000
0001
0000
,
0000
0000
0010
0000
0000
1100
0000
0000
0010
0000
0000
1000
0000
0000
0001
0000
,
0000
0000
0010
0000
0000
0101
0000
0000
0010
0000
0000
1000
0000
0000
0001
0000
,
0000
0000
0010
0000
0000
1100
0000
0000
0010
0000
0000
1000
0000
0000
0001
0000
,
0100
0000
0010
1000
0000
0000
0100
0000
0010
0001
0000
0000
1000
0000
0100
0010
,
0000
0001
0100
0010
1000
0001
0010
0100
,
1000
0000
0010
0100
0000
0000
0001
0000
0010
0100
0000
0000
1000
0000
0010
0100
,
0000
0000
0001
0000
0010
0100
0000
0000
1000
0000
0010
0000
0100
0000
0001
0000
,
0100
0000
0010
1000
0000
0000
0100
0000
0010
0001
0000
0000
1000
0000
0100
0010
,
0000
0001
0100
0010
1000
0001
0010
0100
,
1000
0000
0010
0100
0000
0000
0001
0000
0010
0100
0000
0000
1000
0000
0010
0100
,
0000
0001
0010
0100
1000
0000
1000
0000
,
1000
0100
0000
1000
0000
0100
1000
0000
0001
0000
0001
0000
0010
0000
0001
0000
,
0000
0001
0000
0001
0000
0001
0100
1000
,
0100
0001
0010
0100
1000
0100
0010
0001
,
1000
0010
0100
0001
0100
1000
0100
0001
,
0010
0100
1000
0010
0100
0001
1000
0001
,
0010
0100
1000
0100
0010
0001
0100
1000
,
0100
0001
0010
0100
1000
0100
0010
0001
,
1000
0010
0100
0001
0010
0100
1000
0010
,
1001
0000
0110
0000
1000
0010
0100
0001
,
0100
0000
0010
1000
0000
0000
0100
0000
0010
0001
0000
0000
1000
0000
0100
0010
,
0000
0001
0100
0010
1000
0001
0010
0100
,
1000
0000
0010
0100
0000
0000
0001
0000
0010
0100
0000
0000
1000
0000
0010
0100
,
0000
0000
0001
0000
0010
0100
0000
0000
1000
0000
0010
0000
0100
0000
0001
0000
,
0100
0000
0001
1000
0000
0000
0010
0000
1000
0001
0000
0000
0010
0000
0100
1000
,
0000
0010
0100
0001
1000
0100
0010
0001
,
1000
0000
0001
0100
0000
0000
0001
0000
1000
0100
0000
0000
1000
0000
0001
0100
,
0000
0001
0010
0100
1000
0000
1000
0000
,
0001
0100
1000
0100
,
0010
1000
0000
0000
0001
0010
0000
0000
0100
0000
1000
0000
0001
0000
0000
0000
,
0001
0001
0001
0001
,
1000
0100
0010
0100
1000
0010
0100
0001
,
1000
0101
0001
1100
,
1000
0100
0010
0001
0100
0010
1000
0000
,
0101
1010
0011
1100
,
0010
1000
0100
0010
0001
0100
1001
0000
,
0010
0100
0000
1000
0000
0001
0000
0100
0000
0010
0000
0000
1000
0000
0100
0000
,
0001
0000
0001
0000
0001
0000
0001
0100
,
1000
0100
0000
0010
0000
0001
0000
0100
0000
0010
0000
0000
1000
0000
0100
0000
,
0001
0010
0100
0010
0001
1000
1000
0001
,
0010
0100
0000
0001
0000
1000
0000
0100
0000
0010
0000
0000
0001
0000
0100
0000
,
0010
0000
0010
0000
0010
0000
0010
0100
,
0001
0100
0000
0010
0000
1000
0000
0100
0000
0010
0000
0000
0001
0000
0100
0000
,
0001
0010
0100
1000
0010
0100
0100
0001
,
0010
0000
0000
0000
,
0010
0000
0000
0000
,
0001
0001
0001
0001
,
1000
0000
0100
0000
1000
0000
0010
0000
1000
0000
0001
0000
0100
0010
0000
0000
,
0001
0000
0010
0000
0001
0000
0100
0000
0001
0000
1000
0000
0010
0100
0000
0000
,
1000
0000
0100
0000
0010
0000
0001
0000
0100
0000
0010
0000
1000
0001
0000
0000
,
0001
0000
0100
0000
0010
0000
1000
0000
0100
0000
0010
0000
0001
1000
0000
0000
,
0010
0000
0100
0000
0001
0000
1000
0000
0100
0000
0010
0000
1000
0001
0000
0000
,
0100
0010
0001
0010
1000
0010
0001
0010
,
1000
0100
0001
0100
1000
0100
0001
0100
,
1000
0010
0100
0001
0010
0001
1000
0001
,
0100
1000
0100
0001
0010
0100
1000
0001
,
0000
0100
0000
0010
0000
1000
0000
0100
,
0010
0001
1000
0001
0100
0001
0010
0001
,
0100
0010
1000
0001
1000
0010
1000
0100
,
0000
0010
0000
0001
0000
0100
0000
0100
,
0010
1000
0000
0010
0000
0100
0010
0000
0100
0010
0000
0000
1000
0000
1000
0000
,
0100
0100
1000
0100
,
0010
1000
0100
0010
0001
0100
0010
1000
,
0101
0000
1100
0000
0010
0001
0001
0000
,
0010
0001
0100
0010
1000
0001
0100
0000
,
0010
1000
0100
0000
0010
0001
0100
0000
,
0010
0100
1000
0001
0010
0100
1000
0000
,
1100
0101
1010
0101
,
1000
0100
0010
0001
1000
0010
0100
0000
,
0010
1000
0000
0001
0000
0010
0000
0100
0000
1000
0000
0000
0001
0000
1000
0000
,
0001
0000
0001
0000
0001
0000
0001
0100
,
0010
1000
0000
0001
0000
0010
0000
0100
0000
1000
0000
0000
0001
0000
0010
0000
,
1000
0010
0100
0010
1000
0001
0001
1000
,
0010
0100
0000
0001
0000
1000
0000
0100
0000
0010
0000
0000
0001
0000
0100
0000
,
0010
0000
0010
0000
0010
0000
0010
0100
,
1000
0100
0000
0001
0000
0010
0000
0100
0000
1000
0000
0000
0001
0000
0010
0000
,
1000
0010
0100
0001
0100
0010
1000
0100
,
0100
0000
0000
0000
,
0010
0000
0000
0000
,
1000
1000
0001
1000
,
0001
0001
1000
0001
,
0100
0000
0010
1000
0000
0000
0100
0000
0010
0001
0000
0000
1000
0000
0100
0010
,
0000
0001
0100
0010
1000
0001
0010
0100
,
1000
0000
0010
0100
0000
0000
0001
0000
0010
0100
0000
0000
1000
0000
0010
0100
,
0000
0001
0010
0100
1000
0000
1000
0000
,
1000
0010
0000
0010
0000
0010
0000
0010
,
0000
0010
0000
0010
0000
0010
0100
1000
,
0101
0000
0000
0000
,
0010
1000
0100
0010
0001
1000
0010
0010
,
0100
0000
1000
0000
,
0001
0000
0100
0000
,
0010
0010
0100
0100
,
0001
0001
1000
1000
,
0010
0001
0100
0010
1000
0100
0010
0001
,
0100
0010
1000
0100
0010
0001
1000
0000
,
0001
0100
0000
0010
0000
1000
0000
0100
0000
0010
0000
0000
0001
0000
0100
0000
,
1000
0000
1000
0000
1000
0000
1000
0100
,
0001
0100
0000
0010
0000
1000
0000
0100
0000
0010
0000
0000
0001
0000
0100
0000
,
1000
0001
0100
0010
1000
0100
0100
0010
,
0001
1000
0000
0010
0000
0100
0000
0001
0000
1000
0000
0000
0100
0000
0010
0000
,
0001
0000
0001
0000
0001
0000
0001
0100
,
1000
0100
0000
0010
0000
0001
0000
0100
0000
0010
0000
0000
1000
0000
0100
0000
,
0010
0001
0100
0010
1000
1000
0100
0000
,
1000
0010
0000
0001
0010
1000
0100
0000
,
1000
0010
0100
0001
0000
2000
0000
0000
,
0000
3000
0000
0000
0000
0000
0000
0000
;

//---------------dance-double - ----------------
#NOTES:
     dance-double:
     :
     Easy:
     5:
     0.342707,0.409277,0.180852,0.000000,0.000000,451.000000,417.000000,34.000000,0.000000,0.000000,0.000000,0.342707,0.409277,0.180852,0.000000,0.000000,451.000000,417.000000,34.000000,0.000000,0.000000,0.000000:
00000000
00000000
00000000
00000000
,
00000000
00000000
00000000
00000000
,
00000000
00000000
00000000
00000000
,
00000000
00000000
00000000
00000000
,
00000000
00000000
00000000
00000000
,
00001000
00001000
00001000
00001000
,
00000100
00000010
00000001
00000001
,
00000010
00000010
00000010
00000010
,
00001000
00010000
00100000
00100000
,
10000000
00000000
00000000
00000000
,
10000000
01000000
00010000
01000000
,
10000000
00000000
00010000
00000000
,
00100000
00010000
00000100
00000000
,
00001000
00000010
00000001
00000100
,
00001000
00000100
00000001
00000100
,
00000001
00000010
00001000
00000100
,
00000001
00000100
00001000
00000100
,
00000001
00000001
00001000
00001000
,
00010000
00100000
01000000
00010000
,
10000000
10000000
00010000
00010000
,
00001000
00000010
00000001
00000000
,
00000100
00000100
00000010
00000010
,
00001000
00010000
00100000
10000000
,
01000000
01000000
00100000
00100000
,
00010000
00001000
00000010
00000000
,
00001001
00000110
00000110
00001001
,
00000010
00000010
00000010
00000010
,
00000100
00000100
00000100
00000100
,
00000001
00001000
00000001
00001000
,
00010000
10000000
00010000
10000000
,
00100000
00100000
00100000
00100000
,
01000000
01000000
01000000
01000000
,
00010000
10000000
00010000
00001000
,
00000110
00000000
00000000
00000000
,
00000001
00000100
00001000
00000010
,
00000001
00000100
00001000
00000100
,
00000001
00000010
00001000
00000100
,
00001000
00010000
10000000
00000000
,
00010000
01000000
10000000
00100000
,
00010000
01000000
10000000
01000000
,
00010000
00100000
10000000
01000000
,
00010000
00001000
00000010
00000000
,
00001001
00000000
00000110
00000000
,
00000010
00001000
00010000
00100000
,
10010000
00000000
01100000
00000000
,
00010000
00100000
10000000
01100000
,
00010000
00001000
00000100
00000010
,
00001000
00010000
01000000
00100000
,
00010000
00000000
00001000
00000000
,
00010000
00001000
00000100
00001001
,
00000110
00000000
00000000
00000000
,
00000001
00001000
00010000
10000000
,
00100000
00000000
00000000
01100000
,
10000000
00010000
00001000
00000001
,
00000110
00001000
00000010
00000001
,
00000110
00000001
00000100
00001000
,
00010000
00100000
10000000
00100000
,
10010000
01000000
10010000
00100000
,
01100000
01000000
01000000
01000000
,
01000000
01000000
01000000
01000000
,
01000000
01000000
01000000
01000000
,
00100000
10000000
01000000
10010000
,
00100000
00010000
01000000
00001000
,
00000010
00000001
00001000
00000100
,
00000001
00000100
00001000
00000010
,
00000001
00000100
00000010
00001001
,
00000010
00000010
00000010
00000010
,
00000010
00000001
00001000
00010000
,
01000000
01000000
01000000
01000000
,
01000000
10000000
00010000
00001000
,
00000100
00000100
00000100
00000100
,
00000100
00000001
00001000
00010000
,
00100000
00100000
00100000
00100000
,
00100000
00010000
00001000
00000001
,
00000110
00001001
00001001
00000110
,
00001000
00000000
00010000
00000000
,
00000010
00000100
00010000
00001000
,
00100000
00000000
01000000
00000000
,
10000000
00010000
00100000
00001000
,
00000010
00000010
00000010
00000010
,
00000100
00000100
00000010
00000001
,
00001000
00000010
00000100
00001000
,
00010000
01000000
00100000
00010000
,
00011000
00000000
00000000
00000000
,
00000010
00001001
00000001
00000110
,
00001000
00000000
00000000
00000000
,
00100000
10010000
10000000
01100000
,
00010000
00001000
00000001
00000001
,
00001000
00010000
10000000
10000000
,
00100000
00010000
10000000
01000000
,
00010000
00001000
01000000
00100000
,
00001000
00001000
00001000
00001000
,
00001000
00001000
00001000
00001000
,
00000100
00000100
00000100
00000100
,
00000100
00000100
00000010
00001001
,
00000001
00000100
00001000
00000010
,
00000001
00000100
00001000
00000100
,
00000001
00000100
00001000
00010000
,
00100000
10000000
01000000
00010000
,
10000000
10000000
10000000
10000000
,
10000000
10000000
10000000
10000000
,
01100000
00000000
00011000
00000000
,
00000110
00000000
00000001
00000000
,
00000010
00001000
00010000
00100000
,
01000000
00010000
00001000
00000100
,
00000010
00001000
01000000
00010000
,
00000010
00001000
01000000
00010000
,
00100000
00001000
00000100
00010000
,
00100000
00001000
00011000
00000000
,
01000000
00010000
00000100
00001000
,
01000000
01000000
01000000
01000000
,
01000000
00010000
00000100
00001000
,
00000010
00000100
00001000
00010000
,
00000100
00001000
01000000
00010000
,
00000100
00000100
00000100
00000100
,
00000100
00001000
01000000
00010000
,
00000100
00000001
00000010
00001000
,
00010000
01000000
10000000
00100000
,
00010000
00001000
00010000
00001000
00000000
00000000
00000000
00000000
,
00000000
00000000
00000000
00000000
;

//---------------dance-double - ----------------
#NOTES:
     dance-double:
     :
     Medium:
     6:
     0.393619,0.473241,0.212767,0.000000,0.000000,518.000000,478.000000,40.000000,0.000000,0.000000,0.000000,0.393619,0.473241,0.212767,0.000000,0.000000,518.000000,478.000000,40.000000,0.000000,0.000000,0.000000:
00000000
00000000
00000000
00000000
,
00000000
00000000
00000000
00000000
,
00000000
00000000
00000000
00000000
,
00000000
00000000
00000000
00000000
,
00000000
00000000
00000000
00000000
,
00010000
01000000
10000000
01000000
,
00010000
00000000
01000000
00000000
00100000
00010000
00001000
00000000
,
00001000
00000100
00000001
00000100
,
00001000
00000100
00000010
00001000
,
01000000
00000000
00000000
00000000
,
00100000
00000000
00010000
00000000
00001000
00000100
00000100
00000000
,
00000010
00000000
00000010
00000000
,
00000100
00000000
00001000
00000000
00010000
01000000
01000000
00000000
,
10000000
00010000
00001000
00010000
,
10000000
00010000
00001000
00010000
,
10000000
01000000
00010000
01000000
,
00100000
00010000
00001000
00000010
,
00000001
00000100
00001000
00000000
00000001
00000100
00001000
00000000
,
00010000
00010000
00001000
01000000
,
00100000
10000000
01000000
00000000
00100000
10000000
01000000
00000000
,
00010000
01000000
10000000
01100000
,
10000000
00100000
00010000
00000000
10000000
00100000
00010000
00000000
,
00001000
00001000
00010000
00000100
,
00000010
00000001
00000100
00000000
00000010
00000001
00000100
00000000
,
00000010
00001000
01000000
00011000
,
00100000
00010000
00000010
00001000
,
00010000
00010000
01000000
01000000
,
10000000
10000000
00010000
00001000
,
00010000
00010000
01000000
01000000
,
10000000
00000000
00100000
00000000
00010000
00001000
00000100
00000000
,
00000010
00011000
01000000
00011000
,
00000010
00011000
00000100
00000001
,
00000010
00001000
00000100
00000001
,
00001000
00000000
01000000
00000000
10000000
10000000
10000000
10000000
,
10000000
01000000
00100000
00010000
,
00001000
00001000
00000001
00000110
,
00000001
00000100
00010000
00100000
,
00010000
00010000
10000000
01000000
,
00010000
01000000
10000000
01000000
,
00010000
00010000
00000100
00001001
,
00000010
00001000
00010000
00100000
,
01000000
00010000
00001000
00000100
,
00000001
00000010
00000001
00000000
00001000
00000010
00000001
00000000
,
00001000
00000001
00001000
00100000
,
10000000
01000000
10000000
00000000
00010000
01000000
10000000
00000000
,
00010000
10000000
00010000
00000100
,
00000010
00000001
00001000
00010000
,
10000000
00000000
01000000
00000000
00010000
00000000
00001000
00000100
,
00000001
00000010
00001000
00000100
,
00000010
00010000
00001000
00000001
,
00000010
00001001
00000100
00001001
,
00000010
00001000
00010000
01000000
,
00100000
10010000
01000000
10010000
,
00100000
00010000
00001000
00000100
00000010
00010000
00001000
00000000
,
00000001
00000110
00001000
00000110
,
00000001
00001000
00010000
01000000
,
10000000
01100000
00010000
01100000
,
10000000
00100000
00010000
01000000
10000000
00010000
01000000
00000000
,
00100000
00000000
00000000
00000000
00000000
00000000
00000000
00100000
,
00100000
00000000
00000000
00000000
00000000
00000000
00000000
00010000
,
00001000
00000000
00000000
00000000
,
00000010
00000010
00001100
00000101
,
00000010
00010000
00000100
00001000
,
00010000
00100000
00001000
00000100
,
00010000
01000000
00001000
00000010
,
00010000
00000000
00010000
00000000
00001000
00001000
00001000
00000000
,
00000001
00001000
00010000
01100000
,
10000000
00010000
00001000
00000110
,
00000001
00001000
00010000
00100000
,
10000000
00010000
00001000
00000010
,
00000001
00001100
00000010
00010000
,
10000000
01010000
00100000
00001000
,
00000010
00000100
00001000
00010000
,
10000000
00000000
01000000
00000000
00100000
00010000
00001000
00000000
,
00000010
00001000
00100000
00010000
,
01000000
00100000
00000000
00000000
00001000
00010000
00000000
00000000
,
00000010
00001000
00100000
00011000
,
00000010
00000100
00000000
00000000
00010000
00001000
00000000
00000000
,
00100000
00000000
00010000
00000000
00001000
00001000
00001000
00000000
,
00000001
00000100
00010000
01000000
,
10000000
01000000
00010000
00000100
,
00000010
00000100
00000010
00000100
,
00000001
00000000
00001000
00000000
00000001
00000010
00001000
00000000
,
00010000
01000000
00001000
00000100
,
00010000
01100000
10000000
01100000
,
00001000
00000100
00010000
01000000
,
00001000
00000110
00000001
00000110
,
00001000
00010000
00100000
01000000
,
11000000
01100000
01010000
00011000
,
00000010
00001000
00010000
00000100
,
00000001
00000010
00000100
00001000
00000001
00000010
00000100
00000000
,
00001000
00000000
00000000
00000000
,
00100000
00000000
00000000
00000000
,
10000000
00010000
00001000
00010000
,
10000000
00010000
00001000
01000000
,
10000000
00100000
00010000
00000000
10000000
00100000
00010000
00000000
,
00001000
00001000
00010000
00000100
,
00000010
00000001
00000100
00000000
00000010
00000001
00000100
00000000
,
00000010
00000001
00000100
00001000
00010000
00100000
00001000
00000000
,
00000010
00001000
01000000
00010000
,
00000010
00000000
00001000
00000000
01000000
00000000
00010000
00001000
,
00000010
00000010
00000100
00000100
,
00000001
00001000
00010000
10000000
,
00100000
00010000
00001000
00000010
,
00000100
00001000
00010000
01000000
,
00010000
10000000
00100000
01000000
,
00010000
00010000
00001000
00001000
,
00000010
00000001
00001000
00010000
,
01000000
10100000
01010000
00000000
,
00001000
00000010
00010000
00100000
,
00001000
00001010
00000001
00001100
,
00010000
00100000
00001000
00000010
,
00010000
10100000
01000000
00110000
,
00001000
00000100
00010000
01000000
,
10010000
01100000
00011000
00000110
,
00000001
00000100
00001000
00000100
,
00000001
00001000
00010000
10000000
,
00010000
01000000
10000000
00100000
,
00010000
01000000
10000000
00100000
00000000
00001000
00000000
00000000
,
00000000
00000000
00000000
00000000
;

//---------------dance-double - ----------------
#NOTES:
     dance-double:
     :
     Hard:
     9:
     0.553194,0.567889,0.329789,0.000000,0.101064,728.000000,666.000000,62.000000,0.000000,0.000000,0.000000,0.553194,0.567889,0.329789,0.000000,0.101064,728.000000,666.000000,62.000000,0.000000,0.000000,0.000000:
00000000
00000000
00000000
00000000
,
00000000
00000000
00000000
00000000
,
00000000
00000000
00000000
00000000
,
00000000
00000000
00000000
00000000
,
00000000
00000000
00000000
00000000
,
00000100
00001000
00010000
00001000
00000100
00001000
00010000
00001000
,
00000100
00000000
00000001
00000000
00000010
00000000
00001000
00010000
,
01000000
00010000
00001000
00010000
01000000
00010000
00001000
00010000
,
00100000
00000000
10000000
00010000
00100000
01000000
10000000
00010000
,
01000000
00000000
00000000
00000000
,
00100000
00000000
00000000
00010000
00000000
00000000
00000010
00000000
00000000
00001000
00000000
00000000
00000001
00000000
00001000
00000000
,
00000100
00000100
00000100
00001000
,
01000000
00000000
00000000
00010000
00000000
00000000
00000100
00000000
00000000
00001000
00000000
00000000
00010000
00000000
00001000
00000000
,
00000010
00000001
00000100
00000000
00000010
00010000
00001000
00000000
,
00000100
00001000
00010000
00000000
00100000
10000000
01000000
00000000
,
00100000
00010000
01000000
00000000
00100000
00010000
00001000
00000000
,
01000000
00001000
00010000
00100000
00010000
00001000
00000100
00000000
,
00000001
00000010
00000000
00000000
00001100
00000000
00000000
00000000
00000001
00000010
00000000
00000000
00001100
00000000
00000000
00000000
,
00000001
00000010
00000100
00001000
00000010
00000100
00001000
00000000
,
00010000
00100000
00000000
00000000
11000000
00000000
00000000
00000000
00100000
10000000
00000000
00000000
01010000
00000000
00000000
00000000
,
10000000
00100000
01000000
00010000
00100000
01000000
00010000
00000000
,
10000000
00100000
00010000
00100000
10000000
01000000
00010000
00100000
,
01000000
00100000
00010000
00001000
00000010
00001000
00000100
00000000
,
00000001
00000010
00001000
00000010
00000001
00000100
00001000
00000010
,
00000100
00000010
00001000
00010000
00100000
00010000
00001000
00000000
,
00000100
00000010
00000000
00001000
00000000
00000001
00000010
00000000
00001000
00000000
00000010
00000000
00000100
00000000
00000000
00000000
,
00000000
00000010
00000000
00000100
00000000
00000010
00000000
00001100
,
00000000
00000001
00000000
00000010
00000000
00001100
00000000
00010100
,
00000000
00001000
00000000
01000000
00000000
00100000
00000000
10100000
,
00000000
00010000
00000000
01000000
10000000
00100000
00010000
00001000
,
00000000
00000010
00000000
00000001
00000000
00000110
00000000
00011000
,
00000000
00100000
00000000
10000000
00000000
01100000
00000000
00011000
,
00000000
00000010
00010000
00001000
00000000
00100000
00001000
00010000
,
00000010
00000100
00000001
00000100
00000010
00000010
00000010
00000000
,
00000011
00000000
00000000
00001000
00000100
00000000
00000000
00000000
00000011
00000000
00000000
00001000
00000100
00000000
00000000
00000000
,
00000010
00000100
00000001
00001000
00000100
00000010
00001000
00000000
,
00011000
00000000
00000000
00100000
00010000
00000000
00000000
00000000
00110000
00000000
00000000
10000000
01000000
00000000
00000000
00000000
,
00100000
00010000
01000000
00001000
00010000
00000010
00000100
00000000
,
00000010
00010000
00001000
00000000
00000100
00010000
00100000
00000000
,
00001000
00010000
00000100
00000010
00000001
00000100
00001000
00000000
,
00000010
00010000
00001000
00000000
00001000
00100000
01000000
00000000
,
00001000
00010000
00000100
00010000
00001000
01000000
10000000
00000000
,
10010000
00000000
00000000
00000000
10010000
00000000
00000000
00000000
00100000
10000000
00000000
00000000
01010000
00000000
00000000
00000000
,
00100000
00010000
00000000
00000000
00011000
00000000
00000000
00000000
00000010
00000000
00000010
00000000
00000010
00000000
00000000
00000000
,
00001001
00000000
00000000
00000000
00001001
00000000
00000000
00000000
00000100
00000001
00000000
00000000
00001010
00000000
00000000
00000000
,
00000100
00010000
00001000
00010000
00000100
00000010
00001000
00000000
,
00000001
00000010
00001000
00000010
00000001
00000100
00000100
00000000
,
00001000
00000100
00000001
00000010
00001000
00000100
00000100
00000000
,
00000001
00000010
00001000
00000000
00010000
01000000
10000000
00000000
,
00100000
00010000
00100000
10000000
00010000
01000000
10000000
00000000
,
00010000
00010100
00010000
00101000
,
00100000
00010000
00001000
00000010
00000100
00001000
00000001
00000000
,
00001000
00001010
00010000
00110000
,
01000000
00001000
00010000
00100000
00010000
00001000
00000100
00000000
,
00000001
00001010
00010000
01010000
,
00011000
00000000
00011000
00000000
00000010
00000100
00001000
00010000
,
00100000
00010000
00000010
00001000
,
00010000
00100000
10000000
00100000
00010000
00001000
00000100
00000000
,
00000010
00000000
00000000
00000000
00000001
00000000
00000100
00010000
,
00001000
00000000
00000000
00000000
10000000
00000000
01000000
00001000
,
00010000
00000000
00011000
00000000
,
00000010
00010000
00001000
01000000
,
00100000
00000000
10010000
00000000
00100000
00001000
00010000
00000000
,
00100000
00001000
00010000
00000100
00001000
00000001
00000100
00000000
,
00000010
00000000
00001001
00000000
00000100
00010000
00001000
00000000
,
00000100
00001000
00010000
00100000
10000000
01000000
00100000
00010000
,
01000000
00010000
00000000
00001000
00000000
00000010
00000000
00000010
,
00000000
00001000
00000000
00001000
00000000
01000000
00000000
01000000
,
00000000
00010000
00100000
10000000
00000000
00010000
00100000
10000000
,
00100000
00010000
01000000
00001000
00010000
00000100
00000010
00001000
,
00010000
00001000
00000000
00001000
00000000
00100000
00000000
00100000
,
00000000
00001000
00000000
00001000
00000000
01000000
00000000
01000000
,
00010000
00100000
00000000
00000000
00001000
00010000
00000000
00000000
,
00000100
00001000
00010000
00100000
,
10000000
01000000
00000000
00100000
00000000
00010000
01000000
00000000
00010000
10000000
00000000
00000000
01000000
00000000
00100000
00000000
,
00010000
00000000
00000000
01000000
00000000
00000000
00010000
00000000
00100000
00000000
00000000
00001000
00000000
00000000
00000100
00000000
,
00000010
00010000
00001000
01000000
00100000
10000000
00010000
00000000
,
10000000
00000000
00000000
00100000
00000000
00000000
01000000
00000000
00001000
00000000
00000000
00010000
00000000
00000000
00000010
00000000
,
00000100
00000001
00001000
00000100
00000010
00000001
00000100
00000000
,
00000010
00001000
00000100
00000000
00001000
00010000
01000000
00000000
,
01000000
00100000
00010000
00000000
00100000
00001000
00000100
00000000
,
00000011
00001001
00001100
00011000
,
00100000
00001000
00010000
00000010
00010000
00001000
00100000
00000000
,
00010000
11000000
00010000
01001000
,
00100000
00010000
00100000
00001000
00010000
00000010
00000100
00000000
,
00000010
00001100
00000010
00010100
,
00001000
00000010
00010000
00001000
01000000
00100000
00010000
00000000
,
00000010
00001001
00000010
00001100
,
00010000
00001000
01000000
10000000
01000000
00010000
00100000
00000000
,
00100000
01010000
00100000
01001000
,
00010000
01000000
10000000
00010000
01000000
10000000
01000000
00000000
,
00010000
10000000
00010000
01000000
,
10000000
01000000
00010000
01000000
,
10010000
00000000
00001000
00000000
,
00010010
00001000
00010100
00001000
,
00000010
00000100
00000000
00000000
00001001
00000000
00000000
00000000
00000010
00001000
00000000
00000000
00001100
00000000
00000000
00000000
,
00000010
00000100
00001000
00000100
00010000
00001000
00010000
00000000
,
00100000
01000000
00000000
00000000
10010000
00000000
00000000
00000000
00100000
00001000
00000000
00000000
00011000
00000000
00000000
00000000
,
00100000
01000000
00010000
01000000
00001000
00000100
00001000
00000000
,
00000000
00011000
00000000
00010010
00000000
00011000
00000000
00101000
,
00000000
00011000
00000000
00000110
00000000
00000001
00000010
00000100
,
00001000
00000010
00000100
00000000
00000001
00000010
00000100
00000000
,
00001000
00000010
00000100
00000001
00000010
00000100
00001000
00000000
,
00010000
00001000
00000010
00000000
00000100
00010000
00001000
00000000
,
00100000
00001000
00010000
00000000
00010000
01000000
00100000
00000000
,
10000000
01000000
00010000
00100000
10000000
01000000
00010000
00100000
,
10000000
01000000
00010000
00100000
10000000
01000000
00010000
00001000
,
00000010
00000001
00000100
00001000
00000010
00000001
00000100
00001000
,
00000010
00000000
00000001
00000000
00000100
00000000
00001000
00000000
00010000
00001000
00010000
00001000
00000000
00000000
00000000
00000000
,
00010000
00000000
00000000
00001000
00000010
00000000
00000000
00000000
00010000
00000000
00000000
00001000
00000100
00000000
00000000
00000000
,
00000010
00010000
00001000
00010000
00000100
00010000
00010000
00000000
,
00010000
00000000
00000000
00001000
00000010
00000000
00000000
00000000
00010000
00000000
00000000
00001000
00000100
00000000
00000000
00000000
,
00000010
00010000
00001000
00100000
01000000
10000000
00010000
00000000
,
00001000
00000000
00000000
00010000
00100000
00000000
00000000
00000000
00001000
00000000
00000000
00010000
01000000
00000000
00000000
00000000
,
00011000
00000000
00010010
00000000
00011000
00000000
01000000
00001000
,
00010000
00000000
00000010
00000000
00001000
00000000
00000001
00000100
,
00001000
00000100
00001000
00010000
01000000
00010000
00001000
00000100
,
00001000
00000100
00000000
00000001
00000010
00000100
00010000
00000000
,
00001000
00100000
01000000
10000000
00000000
00010000
00000000
00000000
,
00000000
00000000
00000000
00000000
;

//---------------dance-single - ----------------
#NOTES:
     dance-single:
     :
     Challenge:
     18:
     0.814594,0.980092,1.069155,0.335108,0.630323,1072.000000,871.000000,201.000000,63.000000,0.000000,0.000000,0.814594,0.980092,1.069155,0.335108,0.630323,1072.000000,871.000000,201.000000,63.000000,0.000000,0.000000:
// measure 0
0000
0000
0000
0000
,  // measure 1
0000
0000
0000
0000
,  // measure 2
0000
0000
0000
0000
0000
0000
0000
1001
,  // measure 3
0000
0001
1000
0100
0010
0001
1000
1001
,  // measure 4
0000
0000
0001
0000
0010
0000
0100
0000
1000
0000
0001
0000
1000
0001
1000
0001
,  // measure 5
1000
0000
0001
0000
0010
0000
0001
0000
0100
0000
0010
0000
1000
0000
0100
1000
,  // measure 6
0000
0000
0100
0000
1000
0000
0010
0000
0100
0000
0001
0000
0010
0000
0001
0010
,  // measure 7
0000
0000
0010
0000
0001
0000
1000
0000
0010
0000
0100
0000
0001
0000
1000
0001
,  // measure 8
0000
0000
0001
0000
0010
0000
0100
0000
1000
0000
0001
0100
0010
1000
0001
1000
,  // measure 9
0002
0000
1003
0100
0000
0010
0001
0000
1001
0000
0000
0011
0000
0000
0101
0000
,  // measure 10
0002
0000
0000
0023
0000
0000
0230
0000
0000
1300
0000
0000
1001
0000
1001
0000
,  // measure 11
2000
3001
0020
0031
,  // measure 12
1100
0000
0000
1000
0100
0000
0000
1000
0010
0000
1000
0000
0001
0100
0010
0100
,  // measure 13
0001
0000
0010
0001
0000
0100
0010
0000
1000
0100
0000
1000
0100
0000
0010
0000
,  // measure 14
0011
0000
0000
1001
0000
0000
0101
0000
0000
0100
0010
0000
1000
0000
0001
0000
,  // measure 15
1000
1100
0010
1100
,  // measure 16
0101
1100
0101
1100
,  // measure 17
1000
0100
0010
0001
0000
0000
0001
0010
0100
1000
0000
0000
0001
0010
0100
1000
,  // measure 18
0000
0000
0100
1000
0100
1000
0100
1000
0100
1000
0100
1000
0100
0000
1000
0000
,  // measure 19
0010
0100
0001
1000
0000
0000
0100
0010
1000
0001
0000
0000
0001
0010
0100
1000
,  // measure 20
0000
0000
1000
0001
1000
0001
1000
0001
1000
0001
1000
0001
1000
0000
0001
0000
,  // measure 21
0100
0010
1000
0010
0000
0000
0100
0001
0010
0001
0000
0000
1000
0100
0010
0100
,  // measure 22
0000
0200
1000
0310
0001
0100
1000
0001
,  // measure 23
0010
0001
1000
0100
0000
0000
0001
0100
0010
1000
0000
0000
1000
0100
0010
0001
,  // measure 24
0000
0000
1000
0100
0010
0001
1000
0100
0010
0001
1000
0001
0100
0000
0001
0000
,  // measure 25
0010
0001
0000
0011
0000
0011
0000
0010
0001
0010
0001
0010
0100
1000
0100
1000
,  // measure 26
0000
1200
0300
1200
0300
1200
0300
1200
,  // measure 27
0300
1200
0300
1200
0300
1200
1300
0001
,  // measure 28
0100
0120
0030
0120
0030
0021
0030
0021
,  // measure 29
0030
1020
0030
1020
0030
1020
1030
0001
,  // measure 30
0010
2010
3000
2010
3000
2100
3000
2100
,  // measure 31
3000
2001
3000
2001
3000
2100
3100
0010
,  // measure 32
0001
1002
0003
1002
0003
1002
0003
0012
,  // measure 33
0103
0000
0000
0000
0101
0000
0000
0000
1010
0000
1010
0000
0100
0001
0010
0100
,  // measure 34
1000
0100
0010
0001
0000
0000
0001
0010
0100
1000
0000
0000
1000
0100
0010
0001
,  // measure 35
0000
1000
0001
0100
1100
0101
1100
0100
,  // measure 36
0010
0100
0010
0100
0000
0000
0001
0010
0001
0010
0000
0000
0100
1000
0100
1000
,  // measure 37
0000
0000
1000
0100
1000
0100
1000
0010
1000
0100
1000
0100
1000
0000
1001
0000
,  // measure 38
0001
0010
0100
1000
0000
0000
0010
0100
0001
1000
0000
0000
0100
0010
1000
0001
,  // measure 39
0000
0010
0001
0100
0110
1010
0101
0001
,  // measure 40
1000
0001
0010
0100
0000
0000
0010
0100
1000
0001
0000
0000
0001
0010
0100
1000
,  // measure 41
0100
0010
0100
1000
0001
0010
0100
1000
,  // measure 42
1001
0000
0001
0010
0100
0000
1000
0000
0010
0100
0001
0000
0011
0000
0000
0000
,  // measure 43
0001
0100
0010
0000
1000
0000
0100
1000
0000
0100
1000
0000
1010
0000
0000
0000
,  // measure 44
1000
0000
0010
1000
0000
1000
0001
1000
0001
0000
1001
0000
1100
0000
1001
0000
,  // measure 45
0002
0203
0320
2030
3002
0023
0230
2300
,  // measure 46
3001
0000
1000
0001
0000
0000
0010
0000
0110
0000
0000
0101
0000
0000
1000
1000
,  // measure 47
0001
0001
1000
0001
1000
0001
0100
0010
1000
0000
0001
0100
0000
0000
0010
0000
,  // measure 48
0110
0000
1000
0100
0110
0000
0010
0001
,  // measure 49
1001
0000
0000
0000
1001
0000
0000
0000
1001
0000
1001
0000
0001
0010
0100
1000
,  // measure 50
0001
1000
0000
1001
0000
0101
0000
1100
0000
0110
0000
0010
0001
0000
0011
0000
,  // measure 51
0002
0013
0002
0103
1001
1001
0100
0100
,  // measure 52
0001
0010
0000
0011
0000
0101
0000
0110
0000
1010
0000
1000
0100
0000
1100
0000
,  // measure 53
1000
0100
0100
0010
0100
0100
1000
0100
0100
0010
0100
0100
1000
0100
0100
0010
,  // measure 54
0001
0000
0000
0000
0010
0000
0000
0000
0100
0000
0000
0001
1000
0000
0010
0000
,  // measure 55
2000
3100
2000
3010
1010
1000
0100
0100
,  // measure 56
0001
1000
0000
1001
0000
0101
0000
0110
0000
1010
0000
1000
0001
0000
0000
0000
,  // measure 57
0001
0010
0100
1000
0001
0000
1000
0100
0010
0000
0001
0000
0100
0000
1000
0000
,  // measure 58
0000
0000
0000
0000
0000
0000
0000
0110
,  // measure 59
0110
0000
0000
0000
0000
0000
0000
1010
,  // measure 60
1010
0000
0101
0000
,  // measure 61
1100
0000
0000
0000
0011
0000
0000
0000
1100
0000
0000
0010
0001
0000
0011
0000
,  // measure 62
0001
0000
0010
0000
0000
0100
0000
0000
1000
0000
0000
0100
0000
0000
0010
0000
,  // measure 63
0001
0000
0100
0000
0000
1000
0000
0000
0010
0000
0000
0001
0000
0000
0100
0000
,  // measure 64
1000
0000
0100
0000
0000
0001
0000
0000
0010
0000
0000
1000
0000
0000
0010
0000
,  // measure 65
0001
0000
1001
0000
0000
0101
0000
0000
1010
0000
0000
1100
0000
0000
0011
0000
,  // measure 66
0001
0110
1000
0110
1000
0110
1000
0110
,  // measure 67
1000
0110
1000
0110
1000
0110
1000
0220
,  // measure 68
0330
0101
0010
0101
0010
0101
0010
0101
,  // measure 69
0010
0101
0010
0101
0010
0101
0010
0022
,  // measure 70
0033
0110
0001
0110
0001
0110
0001
0110
,  // measure 71
0001
0110
0001
0110
0001
0110
0001
0220
,  // measure 72
0330
1100
0010
1100
0010
1100
0010
1100
,  // measure 73
0010
1100
0010
1100
0010
1100
0010
2200
,  // measure 74
3300
0000
0000
0000
0000
0000
0000
0000
0000
0000
0000
0000
0000
0000
0001
1000
,  // measure 75
0100
0000
0001
0000
1000
0000
0010
0000
0100
0000
0001
0010
1000
0000
0100
0000
,  // measure 76
1000
0100
0010
0000
0100
0000
1000
0001
0100
0000
0010
0000
0100
0001
0010
0000
,  // measure 77
0001
0000
0001
0000
0001
0000
0001
0100
,  // measure 78
1100
0000
1100
0000
1100
1000
1100
0100
,  // measure 79
2200
0000
0000
0000
3000
0000
1300
0001
0100
0000
0000
0010
0000
0000
0100
0000
,  // measure 80
0001
0000
0000
0000
0000
0000
0000
0001
,  // measure 81
0010
0100
1000
0001
1001
0000
0000
1001
,  // measure 82
1001
0000
0000
0000
1001
0000
0000
0000
1001
0000
1001
0000
1000
0100
0010
0001
,  // measure 83
1000
0001
0000
1001
0000
1001
0000
0101
0000
0101
0000
0001
0010
0000
0011
0000
,  // measure 84
0011
0001
0101
0001
1002
1003
0100
0100
,  // measure 85
0001
0010
0000
0011
0000
0110
0000
1100
0000
1001
0000
0100
0001
0000
1001
0000
,  // measure 86
0001
0100
0100
0010
0100
0100
0001
0100
0100
0010
0100
0010
0100
0000
0100
0000
,  // measure 87
0001
1000
0000
1001
0000
1001
0000
1010
0000
0101
0000
0001
0010
0000
0110
0000
,  // measure 88
1100
0010
1100
0010
2100
3100
0100
0100
,  // measure 89
0001
0100
0000
0110
0000
1010
0000
1001
0000
1001
0000
0001
0100
0000
0000
0000
,  // measure 90
0010
1000
0001
1000
0100
0000
0010
0001
0010
0000
0001
0000
0100
0000
0001
0000
,  // measure 91
1000
0000
0000
0000
,  // measure 92
1000
0000
0000
0000
,  // measure 93
1000
0000
0000
0000
,  // measure 94
1000
0000
1000
0000
1000
0000
1000
0100
,  // measure 95
0010
0010
0001
0001
,  // measure 96
0010
0001
1000
0100
,  // measure 97
1000
1000
0010
0010
,  // measure 98
1000
0000
0010
0000
0100
0000
0001
0010
,  // measure 99
0100
0110
0000
0110
0000
0110
0000
0110
,  // measure 100
0000
0110
0000
0110
0000
0110
0110
1001
,  // measure 101
2002
0000
3003
0000
0000
0000
0000
0000
0000
0000
0000
0000
0000
0000
1000
0001
,  // measure 102
0100
0000
0010
0000
1000
0000
0001
0000
0100
0000
0010
0000
0100
0010
0100
0010
,  // measure 103
0001
0000
0011
0000
,  // measure 104
1100
0000
1010
0000
,  // measure 105
0101
0000
0000
1000
0010
0000
0000
1000
0100
0000
0000
0010
0001
0000
0000
0100
,  // measure 106
0001
0000
0000
0010
0001
0000
0000
1000
0100
0000
0000
1000
0010
0000
0000
0100
,  // measure 107
0001
0100
0100
1000
1000
0010
0010
0001
,  // measure 108
0001
0000
0010
0000
0010
0000
0100
0000
0100
1000
0100
1000
0000
0000
0000
0000
,  // measure 109
1000
0001
0000
1001
0000
1010
0000
1001
0000
0011
0000
0100
0010
0000
0011
0000
,  // measure 110
0110
0000
0100
0000
0110
0000
0010
0000
0110
0000
0110
0000
0100
0010
0100
0010
,  // measure 111
0100
0010
0000
0110
0000
1001
0000
0011
0000
1010
0000
1000
0100
0000
1100
0000
,  // measure 112
0100
1000
1000
0010
1000
1000
0100
1000
1000
0010
1000
1000
0100
0000
0100
0000
,  // measure 113
0001
0000
0000
0000
0010
0000
0000
0000
0001
0000
0000
0001
1000
0000
0001
0000
,  // measure 114
0021
0031
1020
1030
0120
0130
0100
0100
,  // measure 115
0001
0011
1000
1010
,  // measure 116
1000
0100
0010
0001
0010
0000
0001
0010
0001
0000
0010
0000
0100
0000
1000
0000
,  // measure 117
0010
0010
0000
0100
0100
0100
0100
0000
,  // measure 118
1000
1000
0001
0001
0000
2002
0000
3003
;
