#TITLE:And Then We Kiss (Junkie XL Mix);
#SUBTITLE:;
#ARTIST:Britney Spears;
#TITLETRANSLIT:;
#SUBTITLETRANSLIT:;
#ARTISTTRANSLIT:;
#GENRE:;
#CREDIT:;
#BANNER:And Then We Kiss (Junkie XL Mix).png;
#BACKGROUND:And Then We Kiss (Junkie XL Mix)-bg.png;
#LYRICSPATH:;
#CDTITLE:;
#MUSIC:And Then We Kiss (Junkie XL Mix).ogg;
#OFFSET:0.000000;
#SAMPLESTART:37.384998;
#SAMPLELENGTH:15.000000;
#SELECTABLE:YES;
#BPMS:0.000000=130.000000
;
#STOPS:
;
#BGCHANGES:;
#KEYSOUNDS:;
#ATTACKS:;

//---------------dance-single - ----------------
#NOTES:
     dance-single:
     :
     Beginner:
     1:
     0.113960,0.179241,0.009848,0.019697,0.000000,81.000000,80.000000,1.000000,2.000000,0.000000,0.000000,0.113960,0.179241,0.009848,0.019697,0.000000,81.000000,80.000000,1.000000,2.000000,0.000000,0.000000:
0000
0000
0000
0000
,
0000
0000
0000
0000
,
0000
0000
0000
0000
,
1000
0000
0001
0000
,
0100
0000
0000
0000
,
0010
0000
0100
0000
,
0001
0000
0100
0000
,
1000
0000
0000
0000
,
0010
0000
0000
0010
,
0010
0000
0100
0000
,
1000
0000
0001
0000
,
0100
0000
0000
0000
,
0010
0000
0000
1000
,
1000
0000
0100
0000
,
0001
0000
0010
0000
,
0001
0000
0000
0000
,
1000
0000
0000
0001
,
0001
0000
0000
0000
,
1000
1000
0000
0000
,
0010
0000
0000
0000
,
0100
0000
0000
0000
,
0001
0001
0000
0000
,
0100
0000
0000
0000
,
1000
1000
0000
0000
,
0010
0010
0000
0000
,
0001
0000
0000
0000
,
1000
1000
0000
0000
,
0100
0100
0000
0000
,
0010
0010
0000
0000
,
0100
0000
0000
0000
,
0001
0001
0000
0000
,
1000
1000
0000
0000
,
0010
0010
0000
0000
,
1000
0000
0000
0000
,
0100
0100
0000
0000
,
0002
0000
0000
0003
,
0001
0000
0000
0000
,
2000
0000
0000
3000
,
1000
0000
0100
0000
,
0010
0000
0001
0000
,
1000
1000
1000
0000
,
0010
0000
0000
0000
,
0100
0000
0000
0000
,
0001
0001
0001
0000
,
1000
0000
0100
0000
,
0110
0000
0000
0000
,
0000
0000
0000
0000
,
1000
0000
0001
0000
,
1000
0000
0001
0001
,
0001
0000
0000
0000
,
0100
0000
0000
0000
,
0010
0000
0000
0000
,
1000
0000
0000
0000
;

//---------------dance-single - ----------------
#NOTES:
     dance-single:
     :
     Easy:
     5:
     0.201189,0.285728,0.078787,0.108333,0.000000,143.000000,135.000000,8.000000,11.000000,0.000000,0.000000,0.201189,0.285728,0.078787,0.108333,0.000000,143.000000,135.000000,8.000000,11.000000,0.000000,0.000000:
0000
0000
0000
0000
,
0000
0000
0000
0000
,
0000
0000
0000
0000
,
1000
1000
0010
0100
,
0001
0001
1000
0000
,
0020
0000
0030
0000
,
0200
0000
0300
0000
,
0001
0001
1000
0010
,
0100
0100
0001
0000
,
2000
0000
3000
0000
,
0002
0000
0003
0000
,
0010
0001
0010
0100
,
1000
1000
0001
0000
,
2000
0000
3000
0000
,
0020
0000
0030
0000
,
0100
0100
0010
1000
,
0001
0000
0000
0000
,
2000
3000
0010
0010
,
0200
0300
0010
0010
,
0002
0000
0000
0003
,
1000
0000
0001
1000
,
1001
0100
0100
0100
,
0010
0000
0000
0000
,
1000
0010
0001
0100
,
1000
0010
0001
0100
,
1001
0010
0010
0010
,
0100
0000
0000
0000
,
0010
0001
0100
1000
,
0010
0001
0100
1000
,
0001
0010
0001
0000
,
0100
1000
0100
0010
,
0001
0000
1000
0010
,
0100
0000
1001
0110
,
1001
0100
0100
0100
,
0010
0000
0000
0000
,
1000
0000
0001
0000
,
0100
0010
0100
0010
,
1000
0100
1000
0000
,
0100
0001
0100
0010
,
1000
0000
0001
0000
,
0100
0000
0000
0000
,
0010
1000
0001
0100
,
0001
0010
1000
0100
,
1000
0000
0001
0000
,
0100
0010
0100
0010
,
1000
0100
0010
0000
,
0001
0100
0010
0000
,
0100
0000
0010
1000
,
0100
0010
0110
1001
,
0110
0000
0000
0000
,
0010
0000
1000
0000
,
0200
0000
0300
0100
,
0020
0000
0000
0030
;

//---------------dance-single - ----------------
#NOTES:
     dance-single:
     :
     Medium:
     9:
     0.326405,0.363653,0.167423,0.098484,0.000000,232.000000,215.000000,17.000000,10.000000,0.000000,0.000000,0.326405,0.363653,0.167423,0.098484,0.000000,232.000000,215.000000,17.000000,10.000000,0.000000,0.000000:
0000
0000
0000
0000
,
0000
0000
0000
0000
,
0000
0000
0000
0000
,
0010
2000
3001
0010
,
0100
0000
0100
1000
0001
0000
0100
0000
,
0010
0200
0301
0010
,
0200
0310
1000
0001
,
0010
1000
0100
0001
,
1000
0010
0100
0000
1000
0000
1001
0000
,
0010
0000
0100
0000
0100
0001
0010
0000
,
1000
0000
0001
0000
0100
0010
1000
0000
,
1000
0000
0100
0000
0001
1000
0100
0000
,
0010
0000
0001
0100
0010
0000
0001
0000
,
0100
0000
1000
0000
0001
0010
1000
0000
,
0001
0000
0100
0000
0100
0010
1000
0000
,
0001
0000
1000
0000
1000
0001
0010
0000
,
0100
1000
0001
0100
,
0010
0000
1000
0010
,
0001
0000
1000
0001
,
1001
0000
0000
0010
,
0100
0000
0100
0000
0010
0001
0100
0000
,
1000
0100
0001
0000
1000
0000
0001
0000
,
0010
0000
0100
0000
0100
1000
0010
0000
,
1000
0010
0001
0000
1000
0000
0001
0000
,
1100
0000
0101
0000
0001
1000
0100
0000
,
0001
0100
1000
0000
0001
0000
1000
0000
,
0100
0000
0010
0000
0010
0001
0100
0000
,
0001
0010
1000
0000
0001
0000
1000
0000
,
1010
0000
0011
0000
0100
0100
0100
0000
,
1000
0001
1001
0000
0200
0000
0310
0000
,
2000
0000
3001
0000
0010
0001
0100
0000
,
0010
1000
0100
0000
0010
0000
0100
1000
,
1100
0000
0011
0000
0100
0100
0010
0000
,
0001
0100
1000
0001
,
0010
0000
1000
0000
0001
0100
0010
0000
,
2000
0000
0001
0100
,
3020
0000
1000
0130
,
0001
1000
0010
0001
,
0010
1000
0100
0001
,
0010
0100
0001
0100
,
1000
0000
0100
0010
0001
0010
0001
0000
,
0100
0110
1000
0110
,
0001
0011
1000
1001
,
0010
1000
0001
0010
,
1000
0000
0100
0000
0010
0100
0001
0000
,
1000
0100
0010
0001
,
1000
0010
0100
1000
,
0001
1000
0100
0010
,
1000
1010
1100
0101
,
0011
0000
0100
0010
,
0002
0000
1003
0010
,
2000
0000
0000
0000
3001
0000
0000
0010
,
0200
0000
0000
0300
;

//---------------dance-single - ----------------
#NOTES:
     dance-single:
     :
     Hard:
     11:
     0.395344,0.435301,0.246211,0.078787,0.000000,281.000000,256.000000,25.000000,8.000000,0.000000,0.000000,0.395344,0.435301,0.246211,0.078787,0.000000,281.000000,256.000000,25.000000,8.000000,0.000000,0.000000:
// measure 0
0000
0000
0000
0000
,  // measure 1
0000
0000
0000
0000
,  // measure 2
0000
0000
0000
0000
,  // measure 3
0010
0000
1000
0000
0010
1000
0100
0000
,  // measure 4
0001
0000
1000
0000
0100
0010
1000
0000
,  // measure 5
0001
0000
1000
0000
0100
0010
0001
0000
,  // measure 6
0100
0000
1000
0000
0001
1000
0010
0000
,  // measure 7
0100
0000
1001
0000
0010
0001
0010
0001
,  // measure 8
1000
0000
0001
0000
0100
0000
0001
0010
,  // measure 9
0100
0000
1000
0000
0010
1000
0010
1000
,  // measure 10
0001
0000
0100
0000
0010
0010
0100
0001
,  // measure 11
0010
0000
0100
0000
1000
0010
1000
0000
,  // measure 12
0001
0000
0100
0000
0010
0010
1000
0000
,  // measure 13
0001
0000
1000
0000
0100
0001
0010
0000
,  // measure 14
0001
0000
1000
0000
0100
1000
0010
0010
,  // measure 15
1000
0000
0100
0000
0001
0010
0001
0000
,  // measure 16
0100
0000
1000
0000
0010
1000
0010
0000
,  // measure 17
0100
0000
0001
0000
1000
0100
1000
0000
,  // measure 18
0010
0000
0100
0000
0001
0100
0001
0000
,  // measure 19
0210
0000
0000
0001
0000
0000
0320
0000
,  // measure 20
0000
1000
1000
1030
,  // measure 21
0010
1000
0100
1000
0001
0000
0010
0000
,  // measure 22
0011
0000
1100
0000
0010
0100
0001
0000
,  // measure 23
0010
1000
0001
0100
0010
1000
0001
0100
,  // measure 24
0010
1100
0101
1100
,  // measure 25
0110
0000
0001
0100
0001
0010
0001
1000
,  // measure 26
0100
0010
0001
1000
,  // measure 27
0001
0100
0001
1000
0001
0010
0100
0010
,  // measure 28
0001
0100
1000
0010
,  // measure 29
0100
1000
0100
0001
0100
0010
1000
0100
,  // measure 30
0010
0001
1000
0010
,  // measure 31
1020
0130
0201
0310
,  // measure 32
1010
1100
0101
0011
,  // measure 33
1001
0000
1000
0100
1000
0001
0010
0000
,  // measure 34
0011
0000
0010
0001
1000
0001
0100
0000
,  // measure 35
0002
0010
1000
0103
,  // measure 36
2000
0010
0001
3100
,  // measure 37
0010
0001
0100
0010
0001
0010
0100
0000
,  // measure 38
0001
0000
1000
0100
0000
0100
1000
0000
,  // measure 39
1001
0000
1000
0010
0000
0010
1000
0000
,  // measure 40
1001
0000
0001
0100
0000
0100
0001
0000
,  // measure 41
0010
0100
1000
0010
0001
0010
1000
0000
,  // measure 42
0100
0000
0010
0001
0000
0001
0010
0000
,  // measure 43
0110
0000
0100
1000
0000
1000
0100
0000
,  // measure 44
1100
0000
1000
0010
0000
0010
1000
0000
,  // measure 45
0010
1000
0100
0010
0001
0001
0010
0100
,  // measure 46
1000
0010
0100
0100
0010
1000
0001
0000
,  // measure 47
0100
0000
0010
0100
0010
0000
1000
0001
,  // measure 48
1000
0011
1010
1100
,  // measure 49
1001
0000
0010
0001
0100
0000
0010
0000
,  // measure 50
0100
0000
0010
1000
0100
0000
0010
0000
,  // measure 51
2002
0000
0000
0000
,  // measure 52
3003
0000
0000
0000
;

//---------------dance-double - ----------------
#NOTES:
     dance-double:
     :
     Easy:
     3:
     0.201189,0.285728,0.078787,0.108333,0.000000,143.000000,135.000000,8.000000,11.000000,0.000000,0.000000,0.201189,0.285728,0.078787,0.108333,0.000000,143.000000,135.000000,8.000000,11.000000,0.000000,0.000000:
00000000
00000000
00000000
00000000
,
00000000
00000000
00000000
00000000
,
00000000
00000000
00000000
00000000
,
00000010
00000010
00000100
00000001
,
00001000
00001000
00000100
00000000
,
00020000
00000000
00030000
00000000
,
00002000
00000000
00003000
00000000
,
00100000
00100000
00010000
01000000
,
10000000
10000000
00100000
00000000
,
02000000
00000000
03000000
00000000
,
00020000
00000000
00030000
00000000
,
00100000
00001000
00100000
00001000
,
00000100
00000100
00000010
00000000
,
00002000
00000000
00003000
00000000
,
00000002
00000000
00000003
00000000
,
00001000
00001000
00000010
00010000
,
00001000
00000000
00000000
00000000
,
00200000
00300000
00010000
00010000
,
20000000
30000000
00100000
00100000
,
02000000
00000000
00000000
03000000
,
00010000
00000000
00100000
00001000
,
00011000
00001000
00001000
00001000
,
00000100
00000000
00000000
00000000
,
00000001
00000010
00001000
00000100
,
00010000
00001000
00100000
01000000
,
01100000
00010000
00010000
00010000
,
10000000
00000000
00000000
00000000
,
10000000
01000000
00010000
00001000
,
00000100
00000001
00000010
00000001
,
00001000
00000100
00001000
00000000
,
00000100
00010000
00001000
01000000
,
00010000
00000000
00100000
00010000
,
10000000
00000000
01100000
10010000
,
01100000
00010000
00010000
00010000
,
00100000
00000000
00000000
00000000
,
00001000
00000000
00010000
00000000
,
00000100
00000010
00000100
00000010
,
00000001
00001000
00000001
00000000
,
00001000
00000010
00001000
00000100
,
00010000
00000000
00001000
00000000
,
00100000
00000000
00000000
00000000
,
00010000
10000000
01000000
00100000
,
10000000
00100000
00010000
00100000
,
00001000
00000000
00010000
00000000
,
00000100
00001000
00000100
00001000
,
00000001
00000100
00000010
00000000
,
00000100
00000010
00010000
00000000
,
00001000
00000000
01000000
00100000
,
10000000
00010000
10010000
01100000
,
10010000
00000000
00000000
00000000
,
00100000
00000000
00001000
00000000
,
00020000
00000000
00030000
00010000
,
00002000
00000000
00000000
00003000
;

//---------------dance-double - ----------------
#NOTES:
     dance-double:
     :
     Medium:
     5:
     0.326405,0.363653,0.167423,0.098484,0.000000,232.000000,215.000000,17.000000,10.000000,0.000000,0.000000,0.326405,0.363653,0.167423,0.098484,0.000000,232.000000,215.000000,17.000000,10.000000,0.000000,0.000000:
00000000
00000000
00000000
00000000
,
00000000
00000000
00000000
00000000
,
00000000
00000000
00000000
00000000
,
00000100
00000020
00000031
00000100
,
00001000
00000000
00001000
00010000
01000000
00000000
00100000
00000000
,
00010000
20000000
30100000
01000000
,
00020000
00130000
00001000
00010000
,
00000100
00001000
00000100
00000010
,
00000001
00001000
00000001
00000000
00000010
00000000
00001001
00000000
,
00000100
00000000
00010000
00000000
00010000
00001000
00100000
00000000
,
00010000
00000000
01000000
00000000
00100000
10000000
01000000
00000000
,
10000000
00000000
00010000
00000000
00100000
00001000
00010000
00000000
,
00001000
00000000
00000100
00000010
00001000
00000000
00000001
00000000
,
00000010
00000000
00000001
00000000
00000100
00000010
00001000
00000000
,
00000100
00000000
00010000
00000000
00010000
00001000
00000100
00000000
,
00010000
00000000
01000000
00000000
01000000
00100000
00010000
00000000
,
10000000
00010000
10000000
00100000
,
01000000
00000000
00010000
00100000
,
00001000
00000000
00010000
00001000
,
00011000
00000000
00000000
00000100
,
00000010
00000000
00000010
00000000
00000100
00001000
00000001
00000000
,
00000010
00000100
00001000
00000000
00000100
00000000
00010000
00000000
,
00001000
00000000
00010000
00000000
00010000
01000000
00100000
00000000
,
00010000
01000000
10000000
00000000
00010000
00000000
10000000
00000000
,
00110000
00000000
00011000
00000000
00010000
00001000
00000100
00000000
,
00000010
00000100
00000001
00000000
00001000
00000000
00000001
00000000
,
00000100
00000000
00000010
00000000
00000010
00010000
00001000
00000000
,
01000000
00100000
00010000
00000000
10000000
00000000
01000000
00000000
,
11000000
00000000
01010000
00000000
00100000
00100000
00100000
00000000
,
00001000
00010000
00011000
00000000
00000200
00000000
00001300
00000000
,
00000200
00000000
00000310
00000000
00000001
00000100
00001000
00000000
,
00010000
00100000
10000000
00000000
01000000
00000000
00100000
10000000
,
11000000
00000000
01010000
00000000
00010000
00010000
00100000
00000000
,
00001000
00000100
00001000
00000001
,
00000010
00000000
00000100
00000000
00001000
00000010
00000001
00000000
,
00002000
00000000
00000010
00000100
,
00023000
00000000
00000100
00031000
,
01000000
00100000
01000000
10000000
,
01000000
00100000
01000000
00010000
,
00100000
00001000
00010000
00000100
,
00000010
00000000
00001000
00000001
00001000
00000001
00000100
00000000
,
00000010
00001010
00001000
00011000
,
00010000
01010000
01000000
01100000
,
01000000
10000000
01000000
00010000
,
00100000
00000000
00001000
00000000
00010000
00001000
00010000
00000000
,
00000100
00001000
00000001
00000010
,
00001000
00000010
00000100
00010000
,
01000000
00100000
10000000
00010000
,
10000000
10010000
00110000
00011000
,
00001100
00000000
00000100
00001000
,
00000002
00000000
00001003
00000100
,
00020000
00000000
00000000
00000000
00031000
00000000
00000000
00010000
,
00000200
00000000
00000000
00000300
;

//---------------dance-double - ----------------
#NOTES:
     dance-double:
     :
     Hard:
     7:
     0.393937,0.401816,0.265908,0.029545,0.000000,280.000000,253.000000,27.000000,3.000000,0.000000,0.000000,0.393937,0.401816,0.265908,0.029545,0.000000,280.000000,253.000000,27.000000,3.000000,0.000000,0.000000:
00000000
00000000
00000000
00000000
,
00000000
00000000
00000000
00000000
,
00000000
00000000
00000000
00000000
,
00001000
00000000
00010000
00000000
00000100
00001000
00000100
00000000
,
00000010
00000001
00000100
00001000
,
00010000
00000000
00001000
00000000
00100000
00010000
00100000
00000000
,
01000000
10000000
00100000
00010000
,
00001000
00000000
00010000
00000000
00001000
00010000
00000100
00001000
,
00000100
00000000
00000010
00000000
00000001
00000000
00000100
00001000
,
00010000
00000000
00001000
00000000
00010000
00001000
00100000
00010000
,
00100000
00000000
00010000
00000000
10000000
10000000
01000000
00100000
,
00010000
00000000
01000000
00000000
00100000
01000000
00100000
00000000
,
10000000
00000000
01000000
00000000
00010000
00010000
00001000
00000000
,
00010000
00000000
00000100
00000000
00001000
00000010
00000100
00000000
,
00000001
00000000
00001000
00000000
00000001
00000010
00000100
00000100
,
00001000
00000000
00000010
00000000
00000100
00000001
00000100
00000000
,
00001000
00000000
00010000
00000000
00100000
10000000
00100000
00000000
,
10000000
00000000
00010000
00000000
00100000
00010000
00100000
00000000
,
01000000
00000000
00010000
00000000
00001000
00010000
00001000
00000000
,
00020000
00000000
00000000
00030200
00000000
00000000
00002300
00000000
,
00000000
00003010
00000010
00000010
,
00000100
00000010
00001000
00000001
00000100
00000000
00001000
00000000
,
00010000
00000000
00011000
00000000
00100000
00010000
01000000
00000000
,
00100000
10000000
01000000
10000000
00100000
10000000
01000000
00010000
,
00001000
00010000
00011000
00010100
,
00001100
00000000
00001000
00000100
00000010
00000001
00000100
00000010
,
00001000
00000001
00000100
00001000
,
00010000
00000100
00010000
00001000
00100000
00010000
01000000
00100000
,
00100000
01000000
10010000
00100000
,
10000000
01000000
00010000
01000000
00010000
00001000
00010000
00001000
,
00000100
00000010
00001001
00000100
,
00000010
00001100
00000100
00010100
,
00001000
00011000
00101000
00110000
,
01100000
00000000
00100000
01000000
10000000
00010000
01000000
00000000
,
01100000
00000000
00100000
00010000
00001000
00010000
00001000
00000000
,
00010000
00000100
00001000
00000100
,
00000001
00001000
00000010
00000100
,
00000010
00000100
00001000
00000001
00000010
00000000
00001000
00000000
,
00010000
00000000
00011000
00000000
01000000
00010000
00100000
00000000
,
01000000
10000000
00100000
10000000
01000000
10000000
00100000
00010000
,
00001000
00010000
00011000
00010010
,
00001100
00000000
00001000
00000010
00000100
00000001
00000010
00000100
,
00001000
00000001
00000010
00001000
,
00010000
00000010
00010000
00001000
01000000
00010000
00100000
01000000
,
01000000
00100000
10010000
01000000
,
10000000
00100000
00010000
00100000
00010000
00001000
00010000
00001000
,
00000010
00000100
00001001
00000100
,
00000100
00001010
00000010
00010010
,
00001000
00011000
01001000
01010000
,
01100000
00000000
01000000
00100000
10000000
00010000
00100000
00000000
,
01100000
00000000
01000000
00010000
00001000
00010000
00001000
00000000
,
00011000
00000000
00000000
00000000
;

//---------------dance-single - ----------------
#NOTES:
     dance-single:
     :
     Challenge:
     14:
     0.585278,0.716966,0.187120,0.275756,0.457952,416.000000,397.000000,19.000000,28.000000,0.000000,0.000000,0.585278,0.716966,0.187120,0.275756,0.457952,416.000000,397.000000,19.000000,28.000000,0.000000,0.000000:
0000
0000
0000
0000
,
0000
0000
0000
0000
,
0000
0000
0000
0000
0010
0001
1000
0100
,
0020
0000
0000
0000
0001
0000
0000
0000
0100
0000
0000
0000
0031
0100
0010
1000
,
0200
0000
1300
0001
0100
0000
0101
0000
,
2000
0000
0100
0000
3010
1000
0001
0100
,
0020
0000
1030
0001
0100
0010
1000
1000
,
0200
0000
0000
0000
0001
0000
0000
0000
1000
0000
0000
0000
0301
0010
0100
1000
,
0020
0000
0130
0001
1000
0000
1100
0000
,
1000
0001
0101
0000
0100
0010
1000
0001
,
0010
0000
0000
0000
0110
0000
0100
0010
0100
0000
0010
0000
1000
0000
0001
0000
,
0020
0000
0000
0000
0100
0000
0000
0000
1000
0000
0000
0000
0130
0010
1000
0001
,
0200
0000
0310
0001
1000
0000
1010
0000
,
0020
1000
0130
0000
0010
0001
1000
0001
,
0200
0000
0010
0000
0310
0000
0100
0010
0100
0010
0100
0000
0010
0000
0010
0000
,
1000
0010
0001
0010
1000
0100
0010
0001
,
0010
1000
0010
0001
0100
0010
1000
0100
,
0020
0000
0001
0032
0000
0100
0203
0000
,
1000
2300
0000
0000
3100
0000
1100
0000
,
2000
0100
3200
0010
0320
0001
0032
1000
,
1003
0000
0000
0000
1001
0000
0000
0000
1001
0000
0000
0000
0001
0010
0100
1000
,
0010
0100
0010
0100
0010
0100
0010
0100
0010
0100
0010
0100
0010
0100
0010
0100
,
0010
0000
0000
0000
1010
0000
0000
0000
0100
0000
0001
0000
1000
0000
0100
1000
,
0001
0000
0100
0001
0000
0001
0010
0000
0010
1000
0000
1000
0100
0000
0010
0000
,
0002
0000
0000
0000
0100
0000
0000
0000
0100
0000
0000
0000
0103
0001
0010
0100
,
1000
0010
1000
0010
1000
0010
1000
0010
1000
0010
1000
0010
1000
0010
1000
0010
,
1000
0000
1100
0000
0100
0010
0001
1001
,
0000
0001
0010
0110
0000
0100
0001
1001
,
2000
0000
0000
0000
0100
0000
0000
0000
0100
0000
0000
0000
3100
1000
0001
0010
,
0100
1000
0100
1000
0100
1000
0100
1000
0100
1000
0100
1000
0100
1000
0100
1000
,
0100
0000
0000
0000
1100
0000
0000
0000
1000
0000
0010
0000
0001
0000
0010
0001
,
1000
0000
1000
0010
0000
0010
0001
0000
0001
0100
0000
0100
1000
0000
0100
0000
,
0120
1000
0100
0031
,
1000
0100
0001
0100
1000
0100
0001
1000
,
0100
0010
0001
0010
0100
1000
0010
0001
,
0020
0000
1000
0000
0001
0000
1030
0100
,
0020
0000
0000
0000
0001
0000
0000
0000
0100
0000
0000
0000
1030
0010
0100
0001
,
1000
0100
0010
0100
1000
0100
0010
0100
1000
0100
0010
0100
1000
0100
0010
0100
,
1000
0000
0000
0000
1100
0000
0000
0000
1000
0001
0100
0000
0101
0000
0000
0000
,
0001
0100
0010
0000
0100
0010
1000
0000
0010
1000
0100
0000
0010
0001
0100
0001
,
0020
0000
0000
0000
0100
0000
0000
0000
1000
0000
0000
0000
0130
0010
0001
1000
,
0010
0001
0100
0001
0010
0001
0100
0001
0010
0001
0100
0001
0010
0001
0100
0001
,
0010
0000
0000
0000
1010
0000
0000
0000
1000
0100
0010
0000
0011
0000
0000
0000
,
0001
0010
0100
0000
0010
0100
1000
0000
1000
0010
0100
0000
0010
0100
0001
0100
,
0020
0001
0100
0031
,
1000
0010
0001
0010
1000
0010
0001
0010
,
1000
0100
0001
0100
1000
0100
0001
0100
,
1000
0000
0100
1000
0000
1000
0010
0000
0010
0001
0000
0001
0100
0000
0010
0000
,
2000
0010
0001
3100
,
1000
0100
1000
0010
0100
0001
0100
0010
0001
0100
0001
0010
0100
1000
0100
0001
,
0020
0100
1000
0100
,
0200
0000
0000
0000
,
0330
0000
0000
0000
;
