#VERSION:0.83;
#TITLE:All Too Well;
#SUBTITLE:(10 Minute Version) (Taylor's Version) (From The Vault);
#ARTIST:Taylor Swift;
#TITLETRANSLIT:;
#SUBTITLETRANSLIT:;
#ARTISTTRANSLIT:;
#GENRE:;
#ORIGIN:;
#CREDIT:;
#BANNER:;
#BACKGROUND:All Too Well (10 Minute Version) (Taylor's Version) (From The Vault)-bg.png;
#PREVIEWVID:;
#JACKET:All Too Well (10 Minute Version) (Taylor's Version) (From The Vault).png;
#CDIMAGE:;
#DISCIMAGE:;
#LYRICSPATH:;
#CDTITLE:;
#MUSIC:All Too Well (10 Minute Version) (Taylor's Version) (From The Vault).ogg;
#OFFSET:0.000000;
#SAMPLESTART:100.000000;
#SAMPLELENGTH:12.000000;
#SELECTABLE:YES;
#BPMS:0.000=93.000,
140.000=186.000,
203.000=93.000,
323.500=186.000,
549.500=372.000,
572.500=186.000,
840.000=46.500,
864.000=93.000,
896.000=186.000,
1024.000=93.000;
#STOPS:;
#DELAYS:;
#WARPS:;
#TIMESIGNATURES:0.000=4=4;
#TICKCOUNTS:0.000=4;
#COMBOS:0.000=1;
#SPEEDS:0.000=1.000=0.000=0;
#SCROLLS:0.000=1.000;
#FAKES:;
#LABELS:0.000=Song Start;
#BGCHANGES:0.000=All Too Well (10 Minute Version) (Taylor's Version) (From The Vault)-bg.png=1.000=0=0=0=StretchNoLoop====,
0.021=All Too Well (10 Minute Version) (Taylor's Version) (From The Vault).avi=1.000=0=0=1=====,
99999=-nosongbg-=1.000=0=0=0 // don't automatically add -songbackground-
;
#KEYSOUNDS:;
#ATTACKS:
;

//---------------dance-single - ----------------
#NOTEDATA:;
#CHARTNAME:;
#STEPSTYPE:dance-single;
#DESCRIPTION:;
#CHARTSTYLE:;
#DIFFICULTY:Challenge;
#METER:17;
#RADARVALUES:0.411385,0.885797,0.392018,0.390384,0.151090,1763.000000,1523.000000,240.000000,239.000000,0.000000,0.000000,0.000000,0.000000,0.000000,0.411385,0.885797,0.392018,0.390384,0.151090,1763.000000,1523.000000,240.000000,239.000000,0.000000,0.000000,0.000000,0.000000,0.000000;
#CREDIT:;
#NOTES:
// measure 0
0000
0000
0000
0000
,  // measure 1
0000
0000
0000
0000
,  // measure 2
0000
0000
0000
0000
,  // measure 3
0000
0000
0000
0000
,  // measure 4
0000
0000
0000
0000
,  // measure 5
0000
0000
0000
1000
,  // measure 6
1000
0000
0000
0001
,  // measure 7
0001
0000
0000
0010
,  // measure 8
0010
0000
0000
0000
,  // measure 9
0010
0000
0200
0000
0000
0301
0000
0001
0100
0000
1000
0000
0100
0000
1000
0100
,  // measure 10
1000
0100
1000
0000
0020
0000
1000
0000
0130
0000
0000
0000
0010
0000
0001
0010
,  // measure 11
0001
0010
0001
0010
0100
1000
0100
0000
2000
0000
0000
0000
3200
0000
0000
0000
,  // measure 12
0320
0000
0032
0000
0203
0001
0301
0000
,  // measure 13
0000
0000
0100
0010
0001
0000
1001
0000
,  // measure 14
0100
1000
0200
0000
1000
0000
0000
0000
0301
0000
0000
1000
0000
0200
0000
0000
,  // measure 15
0000
0000
0000
0000
0010
0000
0010
0000
0310
0000
0000
0000
0000
0000
0100
0010
,  // measure 16
0100
0000
0000
0000
0000
0000
1000
0002
2000
0000
0000
0000
3003
0000
0000
0000
,  // measure 17
0000
1100
1100
1010
1010
0101
0101
0011
,  // measure 18
0011
0110
0110
1010
1010
1100
1100
0101
,  // measure 19
0101
1010
1010
0011
0011
1001
1001
0110
,  // measure 20
0110
1010
1010
0101
0101
0011
0011
1100
,  // measure 21
1100
0000
2000
0000
0000
0001
3000
0001
1000
0000
0100
0000
0010
0000
0001
0000
,  // measure 22
0100
0001
0200
0000
0000
0302
0000
0000
1003
0000
0010
0000
0001
0000
0010
0000
,  // measure 23
0100
0010
0100
0010
0100
0000
0010
0000
1000
0000
0010
0000
0001
0010
0001
0010
,  // measure 24
0200
0000
2300
0000
3020
0000
0030
0101
,  // measure 25
0001
0000
0100
0001
0000
1000
0100
0000
0010
1000
0000
0010
0001
0000
0100
0000
,  // measure 26
0000
0000
1000
0000
0100
1000
0000
0010
0100
0000
0010
0000
0001
0020
0000
0000
,  // measure 27
0000
0000
0000
0000
0130
0000
1000
0000
0001
0000
0100
0000
0010
0000
1000
0010
,  // measure 28
2000
0000
3020
0000
0032
0000
0003
0101
,  // measure 29
0100
1000
0001
0000
0001
0010
0000
0010
0100
0000
1100
0000
0101
0000
1100
0000
,  // measure 30
1000
0010
0100
0000
0010
0001
0000
0100
0001
0000
0011
0000
0101
0000
1010
0000
,  // measure 31
1000
0100
0001
0000
0001
0100
0000
0100
0010
0000
1010
0000
1001
0000
1100
0000
,  // measure 32
1010
0000
0000
0000
0000
0020
0000
1030
0001
0000
0100
0000
0010
0000
1000
0000
,  // measure 33
0200
1000
1300
1100
0200
0001
0301
0101
,  // measure 34
0020
0001
0031
0011
0020
1000
1030
1010
,  // measure 35
1000
0100
0010
0000
0001
0010
0000
0010
,  // measure 36
0100
1100
1010
0101
,  // measure 37
0000
0000
0100
1000
0000
1100
0000
0000
,  // measure 38
2020
0000
3030
0101
,  // measure 39
0000
1000
0100
1000
0000
0001
0000
0100
,  // measure 40
0020
0000
0000
0030
1000
0010
0000
0010
,  // measure 41
0000
0100
0001
0000
1000
0100
0000
0010
,  // measure 42
0001
0000
0000
0000
0101
0000
1000
0010
,  // measure 43
0000
1100
0000
0000
1010
0000
0101
0000
,  // measure 44
0011
0000
1001
0110
,  // measure 45
1010
1100
0101
0000
,  // measure 46
0200
0000
2300
0000
,  // measure 47
3020
0000
0000
0000
,  // measure 48
0000
0000
0000
0000
,  // measure 49
0030
0000
0100
0010
0001
0100
0001
0010
,  // measure 50
1000
0100
1000
0010
0100
0001
1000
0100
,  // measure 51
0010
0000
0001
0010
0000
0010
0100
0000
0010
0000
1000
0000
1100
0000
1000
0001
,  // measure 52
0100
0000
0010
1000
0000
0010
1000
0000
0100
0000
0010
0001
0100
0010
1000
0010
,  // measure 53
0100
0001
1000
0001
0100
0010
0100
0010
1000
0000
1010
0000
0101
0000
0011
0000
,  // measure 54
0000
0000
0101
0000
0000
0000
2200
0000
0000
0000
0000
0000
3300
0000
0100
1000
,  // measure 55
0100
0000
1000
0100
0000
0100
0010
0000
0010
0001
0000
0001
0100
0000
0010
0100
,  // measure 56
0010
0000
1010
0000
0000
0000
0202
0000
0000
0000
0000
0000
0303
0000
0001
0010
,  // measure 57
0001
0000
0100
0000
0010
0000
2000
0000
0000
0000
3001
1000
0000
0000
1100
0000
,  // measure 58
2000
3020
0230
0302
0000
1003
0100
0010
,  // measure 59
0002
0000
0203
0000
2300
0000
3100
0001
0000
0001
1000
0000
1100
0000
1000
0010
,  // measure 60
0000
0010
0100
0000
0101
0000
0000
0000
0002
0000
0023
0000
0130
0010
0100
0010
,  // measure 61
1000
0000
0000
0000
1100
0000
1000
0100
1000
0000
0010
0000
0100
0001
0000
0000
,  // measure 62
0101
0000
1010
0000
1100
1010
1001
0101
,  // measure 63
0100
0000
0001
0000
1000
0000
0100
1000
0000
1000
0100
0000
0010
0000
1000
0010
,  // measure 64
0000
0010
0100
0000
0000
0000
0010
0001
0010
0001
0000
0001
0000
0001
0100
0010
,  // measure 65
2000
0000
0000
0000
3100
0000
0010
0001
0100
0000
0001
0000
1000
0100
0000
0000
,  // measure 66
0020
0000
0001
0000
0130
1100
1001
0011
,  // measure 67
0100
0000
1100
0000
1000
0000
1000
0001
0000
0000
0001
0000
1001
0000
0001
1000
,  // measure 68
0000
0000
1000
0010
0000
1000
0000
0000
0010
0000
0100
0000
0001
0010
0001
0010
,  // measure 69
0100
0000
0000
0000
1100
0000
1000
0001
0100
0000
0010
0000
0001
0010
0100
1000
,  // measure 70
0010
0000
0101
0000
0010
0011
0101
1010
,  // measure 71
1000
0000
0001
0000
0010
0000
0100
0010
0000
0000
0010
0000
0100
0001
0000
1000
,  // measure 72
0000
0100
0000
1000
0100
0000
0010
0001
0000
0001
0000
0010
0000
0100
0000
2000
,  // measure 73
0000
0000
0000
3000
1100
0000
1000
0010
0100
0000
0001
0000
0010
0001
0010
0001
,  // measure 74
0000
0000
0002
0000
0000
0000
0000
0000
0000
0000
0103
0001
0000
0000
0000
0000
,  // measure 75
1100
0000
1000
0010
0000
0010
0100
0000
0020
0000
0032
0000
0203
0000
0301
0010
,  // measure 76
0100
1000
0000
0001
0000
0001
0100
0000
0010
1000
0000
0000
1100
1000
0100
1000
,  // measure 77
0200
0000
1300
0100
0010
0000
1000
0010
0100
0000
0001
0010
0000
0100
0010
1000
,  // measure 78
0020
0100
1000
0100
0000
0031
0000
0000
,  // measure 79
2000
0001
3001
0000
0002
0100
0103
0000
,  // measure 80
0200
0001
0001
0000
0010
0000
1300
0100
,  // measure 81
0010
0001
0000
0001
0100
0000
0100
1000
,  // measure 82
0000
2000
0000
3020
0000
0230
0000
0300
,  // measure 83
0000
0001
0100
0001
0100
0010
0000
1000
,  // measure 84
0000
0200
0000
0320
0000
0032
0000
0013
,  // measure 85
0001
0010
0000
0100
1000
0000
1000
0100
,  // measure 86
0000
0010
0001
0010
0001
0100
0000
0110
,  // measure 87
0000
0010
0000
1000
0001
0000
0001
0100
,  // measure 88
0000
0000
0000
0200
0000
0302
0000
2003
,  // measure 89
0000
3000
0000
0020
0000
2030
0000
3002
,  // measure 90
0000
0003
0000
0020
0000
2030
0000
3200
,  // measure 91
0010
0320
0000
0032
0000
1003
0000
0002
,  // measure 92
0000
0000
0000
0203
0000
0000
0000
0320
,  // measure 93
0000
0000
0000
0000
,  // measure 94
0000
0000
0000
0000
,  // measure 95
0000
0000
0000
0000
,  // measure 96
0000
0000
0000
0000
0000
0030
0000
0110
,  // measure 97
0000
0100
0000
0001
1000
0000
1000
0100
,  // measure 98
0000
0020
0000
2030
0000
3002
0000
0003
,  // measure 99
0000
1000
0001
0000
0001
0000
0001
0100
,  // measure 100
0000
0020
0000
2030
0000
3200
0000
0300
,  // measure 101
1000
0100
0000
0010
0000
0001
0000
1000
,  // measure 102
0001
0010
0001
0100
,  // measure 103
0000
0010
0000
1000
0000
0010
1000
0010
,  // measure 104
0000
0000
0000
0200
0000
0302
0000
0023
,  // measure 105
0000
0030
0000
0020
0000
2030
0000
3002
,  // measure 106
0000
0003
0000
0200
0000
2300
0000
3002
,  // measure 107
0000
0023
0000
0230
0000
0300
0000
2000
,  // measure 108
0000
0000
0000
3200
0000
0000
0000
0320
,  // measure 109
0000
0000
0000
0000
,  // measure 110
0000
0000
0000
0000
,  // measure 111
0000
0000
0000
0000
,  // measure 112
0000
0000
0000
0000
0000
0100
0000
0130
,  // measure 113
0000
0001
0100
0010
1000
0001
0100
0010
,  // measure 114
1000
0001
0100
0010
1000
0001
0100
0010
,  // measure 115
1000
0010
0100
0001
1000
0010
0100
0001
,  // measure 116
1000
0010
0100
0001
1000
0010
0100
0001
,  // measure 117
1000
0100
1000
0010
0100
0001
1000
0010
,  // measure 118
1000
0100
1000
0010
0100
0001
1000
0010
,  // measure 119
1000
0100
0001
0010
1000
0010
0001
1000
,  // measure 120
0010
0100
0001
0010
1000
0010
0001
1000
,  // measure 121
0010
0100
0000
0100
0000
0100
0000
0100
,  // measure 122
0000
0100
0000
0100
0000
0100
0000
0100
,  // measure 123
0000
0100
1000
0100
1000
0100
1000
0100
,  // measure 124
1000
0100
0010
0001
1000
0001
1000
0000
,  // measure 125
0000
1100
0000
0000
1010
0000
0100
0001
,  // measure 126
0000
1100
0000
0101
0000
1000
0010
0001
,  // measure 127
0000
0101
0000
0000
1010
0000
0000
0101
,  // measure 128
0000
0101
0000
1000
0000
0010
1000
0100
,  // measure 129
0000
0020
0000
2030
0000
3200
0000
0302
,  // measure 130
0000
2003
0000
3020
0000
0230
0000
0301
,  // measure 131
1000
0010
0000
0010
0100
0000
0100
0001
,  // measure 132
0000
0000
0000
1100
0000
0011
0000
0101
,  // measure 133
0000
0000
0000
1010
0000
0101
0000
0011
,  // measure 134
0000
0000
0000
1001
0000
0110
0000
1001
,  // measure 135
0000
0110
0000
1010
0000
0101
0000
0200
,  // measure 136
0000
0000
0000
0320
0000
0000
0000
0000
,  // measure 137
0000
0030
0000
2002
0000
0000
0000
0000
,  // measure 138
0000
0000
0000
0000
,  // measure 139
0000
0000
0000
0000
,  // measure 140
0000
0000
0000
0000
,  // measure 141
0000
0000
0000
0000
,  // measure 142
0000
0000
0000
0000
,  // measure 143
0000
3003
1000
0000
0001
0000
0100
0000
,  // measure 144
0010
0000
1000
0010
0000
0010
0100
0000
,  // measure 145
0002
0000
0003
0020
0000
0032
0000
0013
,  // measure 146
0200
0000
0320
0000
1030
0020
0000
2030
,  // measure 147
0000
3200
0000
0000
0300
0000
1001
0000
,  // measure 148
0010
0000
0001
0010
0000
0010
0100
0000
,  // measure 149
0000
1000
0010
0001
,  // measure 150
0100
1000
1010
0101
,  // measure 151
1100
2000
3200
0320
,  // measure 152
0032
0103
0101
0020
,  // measure 153
2030
3200
0302
0023
,  // measure 154
0230
0000
1300
0000
1100
1000
0100
1000
,  // measure 155
0010
0000
0000
0010
0000
0000
0010
0000
0000
0000
0000
0000
0200
0000
0000
0000
,  // measure 156
0000
0300
0100
0000
0000
0000
0020
0000
,  // measure 157
0000
0030
0010
0000
0000
0000
2002
0000
,  // measure 158
0000
3003
1001
0000
0000
0000
0000
0000
,  // measure 159
0000
0000
0020
2030
,  // measure 160
3002
0000
0000
0203
0000
0000
0310
0000
,  // measure 161
2000
0000
0000
3200
0000
0000
0310
0000
,  // measure 162
0002
0000
0000
2003
0000
0000
3010
0100
,  // measure 163
0000
0101
0000
1000
0100
1000
0100
0000
,  // measure 164
1000
0000
1001
0000
,  // measure 165
0001
0010
0100
1000
,  // measure 166
0020
0000
1000
0000
,  // measure 167
0001
0000
0031
0000
0110
0010
0100
0010
,  // measure 168
2000
0000
0000
3002
0000
0000
0023
0000
,  // measure 169
0032
0000
0000
0203
0000
0000
0320
0000
,  // measure 170
2030
0000
0000
3200
0000
0000
0320
0000
,  // measure 171
0032
0000
1003
0010
0000
0100
0000
0000
,  // measure 172
0002
0000
0000
0003
,  // measure 173
0000
0010
0001
0000
0101
0000
1010
0000
,  // measure 174
2000
0000
3200
0000
,  // measure 175
0301
0010
0100
1000
0010
0000
0100
0001
,  // measure 176
1000
0000
1010
0000
0010
0000
0100
0002
,  // measure 177
0000
0000
1003
0100
0000
0010
0000
0001
,  // measure 178
1000
0010
0000
0100
0000
1000
0000
0010
,  // measure 179
0000
0100
0000
0001
0000
1000
0000
0020
,  // measure 180
0000
0000
0000
0000
0130
0000
0100
0001
,  // measure 181
1000
0000
0010
1000
0000
1100
0000
0000
,  // measure 182
2000
0010
3020
0100
,  // measure 183
0230
0000
0001
0000
0301
0000
1000
0001
,  // measure 184
0010
0000
0100
0000
1000
0000
0010
0200
,  // measure 185
0000
0000
0000
0301
0000
1000
0100
0000
,  // measure 186
0110
0000
0110
0000
0110
0000
0010
1000
,  // measure 187
0000
0010
0000
0100
0000
0001
0000
0000
,  // measure 188
2000
0000
0000
3000
,  // measure 189
1100
0000
1000
0010
0000
0010
0000
0000
,  // measure 190
0202
0303
2020
3030
,  // measure 191
2200
3300
0020
0130
,  // measure 192
0010
0000
0001
0010
0000
0010
0100
0000
,  // measure 193
1100
0000
1000
0001
0010
0000
0110
0000
,  // measure 194
1000
2020
3030
0202
,  // measure 195
0000
0303
0011
0000
,  // measure 196
0100
0001
0000
1000
0000
0010
0000
0100
,  // measure 197
0001
1000
0010
0200
,  // measure 198
0000
0320
0000
2030
,  // measure 199
0000
3001
1001
1100
,  // measure 200
0010
0000
1000
0000
0001
0000
0100
0010
,  // measure 201
0000
0010
0000
1000
0000
0001
0000
0000
,  // measure 202
0100
0001
0000
1000
0000
0100
0010
0000
,  // measure 203
0110
0000
0100
0000
0001
1000
0000
0000
,  // measure 204
1001
0000
1100
0000
0010
1000
0000
2200
,  // measure 205
0000
0000
0000
3300
0000
0000
0000
0000
,  // measure 206
0200
0000
0000
0000
,  // measure 207
0000
0000
0000
0000
,  // measure 208
0000
0000
0000
0000
,  // measure 209
0000
0000
0000
0000
,  // measure 210
0300
0000
0000
0000
,  // measure 211
0000
0000
0000
0000
,  // measure 212
1000
0000
0000
0001
0000
0000
1000
0000
0000
0000
0100
1000
0000
0100
0000
0000
0000
0000
1000
0010
0100
0010
0000
0010
0000
0001
0000
0000
0000
0010
0001
0100
,  // measure 213
0020
0030
2000
3000
0200
0300
0020
0030
0001
0010
0000
0000
0000
0100
0010
0100
0010
0000
1000
0000
0100
0000
0010
0000
0000
0010
0000
0000
0100
0000
0100
0000
,  // measure 214
0001
0000
0000
1000
0000
0000
0001
0000
0000
0000
1000
0001
0000
1000
0001
0000
0100
0000
0010
0000
1000
0000
0200
0000
0000
0310
0000
0000
0000
0000
0010
0100
,  // measure 215
0002
0000
0023
0000
0230
0000
2300
0000
3000
0010
1000
0000
0000
0000
0000
0000
2000
0000
3200
0000
0320
0000
0032
0000
0023
0000
0230
0000
2300
0000
3100
1000
,  // measure 216
0100
0000
1000
0010
0100
0000
0001
0000
1000
0000
0010
0100
0001
0000
1000
0000
,  // measure 217
0100
0000
1000
0010
0000
0100
0001
0000
0010
0000
0011
0000
0101
0000
0100
0010
,  // measure 218
0200
0000
0302
0000
2003
0000
3200
0000
0320
0000
0032
0000
2003
0000
3010
1000
,  // measure 219
0010
0000
0000
1000
0000
0000
0100
0000
0000
0002
0000
0000
0000
0000
0000
0000
0013
0000
0100
0000
1000
0000
0100
0000
,  // measure 220
0010
0000
0000
0000
0001
0000
0000
0000
0000
0000
0000
0000
0010
0000
0000
0000
0000
0000
0000
0000
0000
0000
0000
0000
0010
0000
0000
0000
0000
0000
0001
0000
0000
0100
0000
0000
0010
0000
0000
0000
0000
0000
1000
0000
0000
0010
0000
0000
,  // measure 221
0000
0100
0001
0000
0000
0000
0011
0000
0000
0000
2200
0000
0000
0000
0300
0000
,  // measure 222
0000
0020
0000
0000
0000
0000
0000
3030
,  // measure 223
1100
0000
1001
0000
0011
0000
0110
0000
1010
0000
1001
0000
0101
0000
0001
0010
,  // measure 224
0100
0000
1000
0100
0000
0100
1000
0000
,  // measure 225
0101
1010
1100
0000
,  // measure 226
2000
0000
0000
3002
0000
0000
0103
0000
,  // measure 227
0110
1010
0110
0000
,  // measure 228
0101
0000
0000
0000
0000
0000
1000
0000
0000
0100
0000
0000
0000
0000
0100
0000
0000
0000
0100
0000
0000
0000
0000
0000
,  // measure 229
0000
0000
0100
0010
0000
0011
0000
0000
,  // measure 230
0101
0000
1010
0000
1000
0100
0010
0001
,  // measure 231
0000
0011
0101
1010
,  // measure 232
0000
1100
1010
0101
,  // measure 233
0000
0101
1010
1100
,  // measure 234
0110
1001
0110
2020
,  // measure 235
3030
0202
0000
0000
,  // measure 236
0003
2000
0000
0000
,  // measure 237
0000
0000
0000
3300
,  // measure 238
1000
0010
0001
0100
,  // measure 239
1000
0000
0100
0000
0001
0010
0000
0110
,  // measure 240
0000
1000
0010
0001
,  // measure 241
0000
0101
1100
1010
,  // measure 242
0101
1001
1100
0200
,  // measure 243
0300
1010
0101
0011
,  // measure 244
0000
0110
1010
1100
,  // measure 245
0000
0020
0000
0130
,  // measure 246
0010
0001
0100
0010
,  // measure 247
1000
1100
0101
1100
,  // measure 248
0000
1010
0011
1010
,  // measure 249
0000
1000
0100
0010
,  // measure 250
0001
0100
0000
2000
,  // measure 251
0000
3020
0000
0000
,  // measure 252
0000
0200
0000
0000
,  // measure 253
0000
0000
0000
0000
,  // measure 254
0330
0100
0001
1000
,  // measure 255
0010
0001
0100
1000
,  // measure 256
0020
0000
1000
0000
1030
0100
0010
0001
,  // measure 257
0000
0101
0101
0000
0010
0001
0000
0101
,  // measure 258
0000
1010
1000
0100
0010
0001
0000
0011
,  // measure 259
0000
0110
0000
1100
0000
1000
0010
0100
,  // measure 260
0200
0000
0001
0000
0301
0000
1000
0100
,  // measure 261
0000
0010
0001
0000
0010
0001
0000
0101
,  // measure 262
0000
1010
1000
0100
0010
0001
0000
1001
,  // measure 263
0000
0110
0000
1001
0000
0010
0001
0100
,  // measure 264
0002
1000
0100
1000
,  // measure 265
0100
0000
0013
0000
0101
0000
0001
0010
,  // measure 266
0100
0000
1000
0000
0010
0000
0100
0000
0001
0010
0000
0010
0000
0000
0101
0000
,  // measure 267
0000
1010
0000
1100
0000
1000
0010
0100
,  // measure 268
0001
1000
0000
0000
0100
0010
0000
0110
,  // measure 269
0000
0020
2030
3200
0302
0203
0320
2030
,  // measure 270
0000
0000
3000
0000
0000
0000
0000
0000
1100
0000
0000
0100
1000
0000
0100
0000
,  // measure 271
0000
0011
0011
0101
0101
1100
1100
1010
,  // measure 272
1000
0100
0010
0001
0010
0000
0000
0000
0101
0000
0000
0000
0000
0000
0001
0010
,  // measure 273
0100
1000
0010
0100
0001
0000
2000
0000
0000
0000
0000
0000
0100
0000
3200
0000
,  // measure 274
0000
0320
0000
0000
0031
0000
0000
0000
,  // measure 275
0000
0000
0000
0000
0101
0000
0010
0001
,  // measure 276
0100
0000
0010
0000
1000
0000
0100
0000
1000
0100
0000
0100
0000
0000
0200
0000
,  // measure 277
0000
0320
0000
2030
0000
3001
1000
0100
,  // measure 278
0010
0001
0100
0010
1100
0001
0100
0010
,  // measure 279
1000
0100
0010
0001
0101
0000
0001
1000
,  // measure 280
0010
0100
0010
0001
0000
0100
0000
0010
,  // measure 281
1000
0100
0000
0010
0000
0000
0100
0010
,  // measure 282
0000
2000
0001
0000
,  // measure 283
0000
0000
0000
0000
3001
0000
1000
0010
,  // measure 284
0001
0100
0000
0200
0000
0310
0001
1000
,  // measure 285
0100
0020
0000
0032
0000
2003
3010
0100
,  // measure 286
0001
0100
1000
0100
0000
0100
1000
0100
,  // measure 287
0000
0100
0001
0100
0010
0000
0000
0000
,  // measure 288
0000
0010
1000
0010
0000
0010
0001
0010
,  // measure 289
0000
0010
0100
0010
0100
0000
0000
0000
,  // measure 290
0000
0001
0100
0001
0000
0001
0010
0001
,  // measure 291
0000
0001
1000
0001
1000
0000
0000
0000
,  // measure 292
0000
1000
0010
1000
0000
1000
0100
1000
,  // measure 293
0010
1000
0001
1000
0001
0000
0101
0000
,  // measure 294
1000
0100
0001
0100
0000
0100
1000
0100
,  // measure 295
0000
0100
0001
0100
0010
0000
0000
0000
,  // measure 296
0000
0010
0001
0010
0000
0010
1000
0010
,  // measure 297
0000
0010
0100
0010
0100
0000
0000
0000
,  // measure 298
0000
0001
0010
0001
0000
0001
0100
0001
,  // measure 299
0000
0001
1000
0001
1000
0000
0000
0000
,  // measure 300
0000
1000
0100
1000
0000
1000
0010
1000
,  // measure 301
0100
1000
0001
1000
0001
0000
0011
0000
,  // measure 302
0001
0010
1000
0010
0000
0010
1000
0010
,  // measure 303
0000
0010
0001
0010
0001
0000
0000
0000
,  // measure 304
0000
0100
1000
0100
0000
0100
0001
0100
,  // measure 305
0000
0100
0010
0100
0010
0000
0000
0000
,  // measure 306
0000
1000
0001
1000
0000
1000
0100
1000
,  // measure 307
0000
1000
0010
1000
0010
0000
0000
0000
,  // measure 308
0000
0001
1000
0001
0000
0001
0010
0001
,  // measure 309
1000
0001
0100
0001
0100
0000
0110
0000
,  // measure 310
1000
0010
0001
0010
0000
0010
0001
0010
,  // measure 311
0000
0010
1000
0010
1000
0000
0000
0000
,  // measure 312
0000
0100
1000
0100
0000
0100
0001
0100
,  // measure 313
0000
0100
0010
0100
0010
0000
0000
0000
,  // measure 314
0000
1000
0001
1000
0000
1000
0010
1000
,  // measure 315
0000
1000
0100
1000
0100
0000
0000
0000
,  // measure 316
0000
0001
1000
0001
0000
0001
0100
0001
,  // measure 317
1000
0001
0010
0001
0010
0000
0110
0000
,  // measure 318
2002
0000
0000
0000
,  // measure 319
3003
0000
0000
0000
;
