#TITLE:All My Love;
#SUBTITLE:;
#ARTIST:kors k feat. ЯIRE;
#TITLETRANSLIT:;
#SUBTITLETRANSLIT:;
#ARTISTTRANSLIT:;
#GENRE:;
#CREDIT:;
#BANNER:All My Love.png;
#BACKGROUND:All My Love-bg.png;
#LYRICSPATH:;
#CDTITLE:;
#MUSIC:All My Love.ogg;
#OFFSET:0.000000;
#SAMPLESTART:44.610001;
#SAMPLELENGTH:15.000000;
#SELECTABLE:YES;
#DISPLAYBPM:158.000000;
#BPMS:0.000000=157.800003
,4.000000=158.000000
;
#STOPS:
;
#BGCHANGES:0.000=All My Love.avi=1.000=0=0=0=StretchNoLoop====,
99999=-nosongbg-=1.000=0=0=0 // don't automatically add -songbackground-
;
#KEYSOUNDS:;
#ATTACKS:;

//---------------dance-single - ----------------
#NOTES:
     dance-single:
     :
     Beginner:
     3:
     0.117189,0.156975,0.070892,0.000000,0.000000,81.000000,74.000000,7.000000,0.000000,0.000000,0.000000,0.117189,0.156975,0.070892,0.000000,0.000000,81.000000,74.000000,7.000000,0.000000,0.000000,0.000000:
0000
0000
0000
0000
,
0000
0000
0000
0000
,
0000
0000
0000
0000
,
0000
0000
0000
0000
,
0010
0000
0000
0000
,
0100
0000
0000
0000
,
1001
0000
0000
0000
,
0100
0000
0000
0000
,
0001
0000
0001
0000
,
0001
0000
0000
0000
,
1001
0000
0000
0000
,
0100
0000
0000
0000
,
1000
0000
1000
0000
,
1000
0000
0000
0000
,
0001
0000
0000
0000
,
1000
0000
0000
0000
,
0100
0000
0000
0000
,
1000
0000
0000
0000
,
0001
0000
0000
0000
,
0100
0000
0000
0000
,
0010
0000
0000
0000
,
0010
0000
0000
0000
,
1000
0000
1000
0000
,
1000
0000
0000
0000
,
0001
0000
0001
0000
,
0001
0000
0000
0000
,
0100
0000
0000
0000
,
0010
0000
0000
0000
,
1000
0000
0001
0000
,
1001
0000
0000
0000
,
0100
0000
0100
0000
,
0100
0000
0000
0000
,
0001
0000
0000
0000
,
1000
0000
0000
0000
,
0001
0000
0100
0000
,
0001
0000
0000
0000
,
1000
0000
0100
0000
,
1000
0000
0000
0000
,
0010
0000
0010
0000
,
0010
0000
0000
0000
,
1000
0000
0000
0000
,
0001
0000
0000
0000
,
1000
0000
0100
0000
,
1000
0000
0000
0000
,
0001
0000
1000
0000
,
1001
0000
0000
0000
,
0010
0000
0000
0000
,
0100
0000
0000
0000
,
0001
0000
0001
0000
,
0001
0000
0000
0000
,
0010
0000
0000
0000
,
0100
0000
0000
0000
,
1000
0000
1000
0000
,
1000
0000
0000
0000
,
1001
0000
0000
0000
,
0010
0000
0000
0000
,
1000
0000
0100
0000
,
1000
0000
0000
0000
,
1001
0000
0000
0000
,
0010
0000
0000
0000
,
0001
0000
0100
0000
,
0001
0000
0000
0000
,
1001
0000
0000
0000
,
0000
0000
0000
0000
;

//---------------dance-single - ----------------
#NOTES:
     dance-single:
     :
     Easy:
     5:
     0.240164,0.319013,0.111401,0.151911,0.000000,166.000000,155.000000,11.000000,15.000000,0.000000,0.000000,0.240164,0.319013,0.111401,0.151911,0.000000,166.000000,155.000000,11.000000,15.000000,0.000000,0.000000:
0000
0000
0000
0000
,
0000
0000
0000
0000
,
0000
0000
0000
0000
,
0000
0000
0000
0000
,
0001
0000
1000
0000
,
2002
0000
3003
0000
,
0020
0000
0030
0000
,
0200
0000
0300
0000
,
0001
0000
1000
0000
,
0100
0000
0010
0001
,
0020
0000
0030
0000
,
0200
0000
0300
0000
,
0010
1000
0001
0000
,
1001
0000
0000
0000
,
1000
0001
0100
0000
,
0010
1000
0001
0000
,
0100
0010
0001
0000
,
1000
0010
0100
0000
,
0001
0000
0100
1000
,
0100
0000
1000
0000
,
1000
0000
0100
0001
,
0100
0000
0001
0000
,
0110
0000
0010
0000
,
0001
1000
0001
0000
,
0110
0000
0100
0000
,
1000
0010
1000
0000
,
1000
1000
1000
0000
,
0001
0001
0001
0000
,
0100
0010
0100
0010
,
1001
0000
0000
0000
,
0001
0100
1000
0010
,
0200
0000
0300
0000
,
0010
0010
1000
0001
,
0100
0000
0100
0010
,
1000
1000
0001
0010
,
1000
0100
0010
0000
,
0001
0001
1000
0010
,
1001
0000
0000
0000
,
1000
0100
0001
0010
,
0200
0000
0300
0000
,
0010
0010
0001
1000
,
1001
0000
0100
0010
,
0001
0001
1000
0010
,
0001
0100
0010
0001
,
1000
1000
0001
0010
,
1001
0000
0000
0000
,
0020
0000
0030
0000
,
0200
0000
0300
0000
,
1000
0100
0001
0000
,
0001
0100
0010
1000
,
0020
0000
0030
0000
,
0200
0000
0300
0000
,
1000
0010
0100
0001
,
0100
0010
0110
0000
,
1000
1000
0001
0001
,
1000
0001
1000
0001
,
0100
0100
0010
0010
,
0200
0000
0300
0000
,
0010
0010
1000
1000
,
0010
0010
0001
0001
,
1000
0100
0001
0010
,
0100
0010
0110
0000
,
2002
0000
0000
0000
,
3003
0000
0000
0000
,
0000
0000
0000
0000
;

//---------------dance-single - ----------------
#NOTES:
     dance-single:
     :
     Medium:
     8:
     0.347225,0.414717,0.334204,0.273440,0.010127,240.000000,207.000000,33.000000,27.000000,0.000000,0.000000,0.347225,0.414717,0.334204,0.273440,0.010127,240.000000,207.000000,33.000000,27.000000,0.000000,0.000000:
0000
0000
0000
0000
,
0000
0000
0000
0000
,
0000
0000
0000
0000
,
0000
0000
0000
0000
,
0010
0000
0000
0010
0000
0000
0010
0000
0000
0000
0000
0000
0000
0000
2002
0000
,
0000
0000
0000
3003
,
1001
0000
0001
0000
1000
0100
0000
0020
,
0000
0001
0000
0031
,
1000
0100
0010
0000
,
0101
0000
0000
0000
0010
0100
0010
0000
,
1001
0000
1000
0000
0001
0100
0000
0020
,
0000
1000
0000
1030
,
1001
0000
0000
0000
0000
0010
0100
0010
,
0000
0100
0000
0110
0000
0000
0000
0000
,
1000
1000
0001
0001
,
1000
0010
0100
0000
,
0001
0001
1000
1000
,
0001
0000
0010
0000
0100
0000
1000
0001
,
1000
0100
2000
0000
,
3001
0100
1000
0010
,
0001
0100
0002
0000
,
1003
0010
0001
0100
,
0010
0000
1000
0001
0000
0100
0000
0010
,
0000
1000
0000
2002
0000
0000
3003
0000
,
0001
0000
0100
0010
0000
1000
0000
0001
,
0000
0100
0000
0220
0000
0000
0330
0000
,
0010
0010
1000
0000
,
0100
0100
0001
0000
,
1000
0100
0001
0000
0010
0000
0100
0000
,
1001
0000
0000
0000
,
1000
0110
0001
0110
,
1000
0100
0001
0010
,
0100
0010
0100
0000
0001
0000
1000
0000
,
1001
0000
0010
0100
,
0002
1000
0100
0013
,
1100
0000
0110
0000
,
2000
0001
0010
3100
,
0011
0000
0000
0001
1000
0001
1000
0000
,
0100
1001
0010
1001
,
0100
0001
0010
1000
,
0100
0010
0100
0010
0000
0100
0000
0110
,
0000
0000
0010
0100
,
0002
1000
0100
0013
,
1100
0000
0110
0001
,
2000
0000
0001
0000
3010
0000
0000
0220
,
0000
0000
0000
0330
,
1001
0000
1000
0000
0001
0010
0000
0200
,
0000
1000
0010
1300
,
0001
0010
0100
0000
,
1010
0000
0000
0000
0100
0010
0100
0000
,
1001
0000
0001
0000
1000
0010
0000
0200
,
0000
0001
0010
0301
,
1001
0000
0000
0000
0000
0100
0010
0100
,
0000
0010
0000
0110
0000
0000
0000
0000
,
1100
0000
0011
0000
0010
0100
0000
0020
,
0000
0032
2003
3020
,
0130
0000
0000
0100
0000
0000
0100
0000
0000
0000
0000
0000
0000
0000
0000
0000
,
0010
0000
1000
0000
0100
0010
0100
0000
,
0011
0000
1000
0100
0000
0010
0000
0002
,
0000
1000
0100
0013
,
0110
0000
1000
0000
0001
0010
0100
0010
,
0000
1001
0000
0220
0000
0000
0330
0000
,
2002
0000
0000
0000
,
3003
0000
0000
0000
,
0000
0000
0000
0000
;

//---------------dance-single - ----------------
#NOTES:
     dance-single:
     :
     Hard:
     10:
     0.471648,0.510421,0.425351,0.293695,0.025319,326.000000,284.000000,42.000000,29.000000,0.000000,0.000000,0.471648,0.510421,0.425351,0.293695,0.025319,326.000000,284.000000,42.000000,29.000000,0.000000,0.000000:
0000
0000
0000
0000
,
0000
0000
0000
0000
,
0000
0000
0000
0000
,
0000
0000
0000
0000
,
0010
0000
0000
1000
0000
0000
0001
0000
0000
0000
0100
0000
0001
0000
2002
0000
,
0000
0000
0000
3003
,
1001
0000
1100
0000
0010
0001
0010
0200
,
0000
1000
0001
1300
,
0010
0000
0000
0001
0000
0000
0100
0000
0000
0000
0000
0000
0000
0000
0010
0000
,
1000
0100
0010
0000
0010
0001
0100
1000
,
0100
0000
0100
0010
0000
0100
0000
0020
,
0000
1000
0001
1030
,
0100
0000
1010
0000
0100
0001
0010
1000
,
0000
0110
0000
2002
0000
0000
3003
0000
,
1000
0011
0100
1010
,
0001
0000
1000
0000
0001
0100
1000
0000
,
0001
1010
0100
0011
,
1000
0000
0001
0000
1000
0100
0001
0000
,
1001
0000
0010
0001
0100
0010
0000
1100
,
0000
0010
0000
0100
0000
0010
0001
0100
,
0010
0000
1000
0100
0000
0010
0000
0101
,
0000
1001
0000
1000
0010
0100
0001
0000
,
2000
3100
0002
0013
,
1000
0100
0001
0100
0010
0001
0100
0000
,
0020
1030
0200
0301
,
0010
0100
1000
0010
0100
0001
1000
0000
,
0010
0100
0010
0100
0000
1000
1100
0000
,
0010
0100
0010
0100
0000
0001
0101
0000
,
0010
0100
0010
0100
0000
0110
0000
1001
,
0000
0000
0000
1000
0100
0001
0010
0000
,
0110
0000
0001
1000
0100
0010
0000
0011
,
0000
0010
0010
0000
0001
0100
1000
0000
,
0200
0001
1000
0001
,
0310
1000
0100
0000
0010
0000
1001
0000
,
0100
0000
0100
1000
0010
1000
0000
0010
,
0100
0010
1000
0000
0001
0010
0100
0000
,
1000
0000
0100
0001
0010
0001
0000
1001
,
0000
0000
0000
0001
0010
1000
0100
0000
,
0110
0000
1000
0001
0010
0100
0000
1100
,
0000
0100
0100
0000
1000
0010
0001
0000
,
0020
1000
0001
1000
,
0130
0001
0010
0000
0100
0000
1001
0000
,
0010
0011
0101
1010
,
0010
0100
0001
0000
1000
0100
0010
0000
,
0010
0000
0001
0000
1000
0000
0100
0000
0010
0100
0010
0000
0000
0000
2002
0000
,
0000
0000
0000
3003
,
1001
0000
0101
0000
0010
1000
0010
0200
,
0000
0001
1000
0301
,
0010
0000
0000
1001
0000
0000
0100
0000
0000
0000
0000
0000
0000
0000
0010
0000
,
0001
0100
0010
0000
0010
1000
0100
0001
,
0100
0000
0100
0010
0000
0100
0000
0020
,
0000
0001
1000
0031
,
0100
0000
0011
0000
0100
1000
0010
0001
,
0000
0110
0000
2002
0000
0000
3003
0000
,
0001
0010
1000
0010
0001
0010
0100
0020
,
0000
0032
0203
2300
,
3100
0000
0000
0110
0000
0000
2002
0000
0000
0000
3003
0000
0000
0000
1000
0000
,
0100
0001
0100
0000
0100
1000
0010
0100
,
0001
0000
1000
0010
0001
0010
1000
0020
,
0000
0230
0302
1003
,
1001
0000
1000
0000
1000
0001
0100
0110
,
0000
1010
0000
0101
0000
1000
0001
0000
,
2002
0000
0000
0000
,
3003
0000
0000
0000
,
0000
0000
0000
0000
;

//---------------dance-double - ----------------
#NOTES:
     dance-double:
     :
     Easy:
     5:
     0.198208,0.287112,0.091147,0.192421,0.000000,137.000000,128.000000,9.000000,19.000000,0.000000,0.000000,0.198208,0.287112,0.091147,0.192421,0.000000,137.000000,128.000000,9.000000,19.000000,0.000000,0.000000:
00000000
00000000
00000000
00000000
,
00000000
00000000
00000000
00000000
,
00000000
00000000
00000000
00000000
,
00000000
00000000
00000000
00000000
,
00000002
00000000
00000000
00000000
,
00000003
00000000
00000000
00000000
,
00020000
00000000
00030000
00000000
,
00002000
00000000
00003000
00000000
,
00100000
00000000
00000000
00000000
,
01000000
00000000
00100000
10000000
,
02000000
00000000
03000000
00000000
,
00200000
00000000
00300000
00000000
,
00001000
00000000
00010000
00000000
,
00011000
00000000
00000000
00000000
,
00000010
00000000
00000100
00000000
,
00000001
00000100
00001000
00000000
,
00010000
00000000
01000000
00000000
,
10000000
00100000
01000000
00000000
,
00100000
10000000
00010000
00100000
,
00002000
00000000
00003000
00000000
,
00000010
00000001
00001000
00000100
,
00020000
00000000
00030000
00000000
,
01100000
00000000
10000000
00000000
,
00100000
00010000
00001000
00000000
,
00000110
00000000
00000001
00000000
,
00000100
00001000
00010000
00000000
,
00100000
01000000
00100000
00000000
,
00010000
00001000
00010000
00000000
,
00000010
00000100
00000010
00000000
,
00001001
00000000
00000000
00000000
,
00000001
00000100
00001000
00010000
,
02000000
00000000
03000000
00000000
,
00100000
00100000
00010000
10000000
,
01000000
00000000
00000000
00000000
,
10000000
01000000
00010000
00001000
,
00010000
00000000
00000100
00000010
,
00000001
00000100
00001000
00010000
,
00011000
00000000
00000000
00000000
,
00001000
00010000
01000000
10000000
,
00200000
00000000
00300000
00000000
,
01000000
00100000
10000000
00010000
,
00011000
00000000
00000000
00000000
,
00010000
00001000
00000010
00000001
,
00000100
00000000
00001000
00010000
,
00001000
00100000
00001000
00010000
,
00011000
00000000
00000000
00000000
,
00020000
00000000
00030000
00000000
,
00002000
00000000
00003000
00000000
,
00100000
00000000
00000000
00000000
,
01000000
00000000
00100000
10000000
,
02000000
00000000
03000000
00000000
,
00200000
00000000
00300000
00000000
,
00001000
00000000
00010000
00000000
,
00011000
00000000
00000000
00000000
,
00100000
00100000
01000000
00010000
,
10000000
00100000
01000000
00001000
,
00020000
00000000
00030000
00000000
,
00002000
00000000
00003000
00000000
,
00000100
00000100
00000010
00001000
,
00000001
00000100
00000010
00010000
,
00002000
00000000
00003000
00000000
,
00020000
00000000
00030000
00000000
,
00022000
00000000
00000000
00000000
,
00033000
00000000
00000000
00000000
,
00000000
00000000
00000000
00000000
;

//---------------dance-double - ----------------
#NOTES:
     dance-double:
     :
     Medium:
     9:
     0.353012,0.382816,0.293695,0.091147,0.005064,244.000000,215.000000,29.000000,9.000000,0.000000,0.000000,0.353012,0.382816,0.293695,0.091147,0.005064,244.000000,215.000000,29.000000,9.000000,0.000000,0.000000:
00000000
00000000
00000000
00000000
,
00000000
00000000
00000000
00000000
,
00000000
00000000
00000000
00000000
,
00000000
00000000
00000000
00000000
,
20020000
00000000
00000000
30030000
,
00000000
00000000
00100000
00001000
,
00011000
00000000
00000000
00000000
00001000
00000100
00000000
00000110
,
00000000
00000001
00001000
00000100
,
00010000
00000000
00001000
00010000
01000000
00000000
00000000
00000000
,
10000000
00000000
00100000
01000000
,
01100000
00000000
00100000
10000000
00000000
00010000
00000000
00110000
,
00000000
00010000
10000000
00100000
,
01000000
00000000
00000000
00000000
00000000
00001000
00010000
00001000
,
00000000
00010000
00000000
00022000
00000000
00000000
00033000
00000000
,
00001000
00000100
00000001
00000010
,
00000100
00000000
00001000
00000100
00001000
00000000
00000000
00000000
,
00000100
00010000
00001000
00100000
,
00010000
01000000
11000000
00000000
,
10000000
00000000
00010000
00100000
00010000
00000000
10000000
00000000
,
01000000
00010000
00001000
00000000
,
00000010
00000000
00000100
00000001
00000100
00000000
00000010
00000000
,
00001000
00000100
00000001
00000000
,
00000101
00000000
00000000
00000010
00000000
00000100
00000000
00001000
,
00000000
00000100
00010000
00000000
00011000
00000000
00000000
00000000
,
01100000
00000000
00000000
00010000
00000000
10000000
00000000
00100000
,
00000000
10000000
00000000
10000000
01000000
00000000
00000000
00000000
,
10000000
00100000
01000000
00000000
,
00001000
00010000
00000100
00000000
,
00000010
00000000
00000001
00000000
00001000
00010000
00000000
00011000
,
00000000
00000000
00000000
00000000
,
00101000
00000000
00010000
00000000
01000000
00100000
10000000
00000000
,
00010000
00000000
00110000
00110000
,
00001000
00000000
00010000
00000000
00000100
00001000
00000010
00000000
,
00000100
00000000
00000001
00000001
,
00000100
00000010
00000001
00000010
00000000
00000100
00000000
00010000
,
00000000
00100000
00000000
01000000
00000000
00001000
00001000
00000000
,
01000000
00100000
10000000
00100000
00000000
01000000
00000000
00001000
,
00000000
00000010
00000000
00000100
00000000
00010000
00010000
00000000
,
00010100
00000000
00001000
00000000
00000010
00000100
00000001
00000000
,
00001000
00000000
00001100
00001100
,
00010000
00000000
00001000
00000000
00100000
00010000
01000000
00000000
,
00100000
00000000
10000000
10000000
,
00100000
01000000
10000000
01000000
00000000
00100000
00000000
10000000
,
00000000
01000000
00000000
00001000
00000000
00010000
00010000
00000000
,
00000010
00000100
00000001
00000100
00000000
00000010
00000000
00001001
,
00000000
00000000
00000100
00010000
,
00011000
00000000
00000000
00000000
00010000
01000000
00000000
01100000
,
00000000
10000000
00010000
01000000
,
00001000
00000000
00010000
00001000
00000100
00000000
00000000
00000000
,
00000001
00000000
00000010
00000100
,
00000110
00000000
00000010
00000001
00000000
00001000
00000000
00001010
,
00000000
00001000
00000001
00000010
,
00000100
00000000
00000000
00000000
00000000
00010000
00001000
00010000
,
00000000
00001000
00000000
00022000
00000000
00000000
00033000
00000000
,
00100000
00000000
01010000
00000000
00100000
10000000
00000000
10010000
,
00000000
00100000
00100000
00001000
,
00010000
00000000
00000000
00010000
00000000
00000000
00010000
00000000
00000000
00000000
00000000
00000000
00000000
00000000
00000000
00000000
,
00011000
00000000
00000000
00000000
00001000
00000100
00001000
00000000
,
00000010
00000000
00000001
00001000
00000000
00000100
00000000
00000110
,
00000000
00000001
00000100
00001000
,
00020000
00000000
00000000
00000000
00030000
00001000
00010000
00001000
,
00000000
00100000
00000000
01100000
00000000
00000000
00000000
00000000
,
00022000
00000000
00000000
00000000
,
00033000
00000000
00000000
00000000
,
00000000
00000000
00000000
00000000
;

//---------------dance-double - ----------------
#NOTES:
     dance-double:
     :
     Hard:
     11:
     0.494796,0.574224,0.496243,0.131656,0.020255,342.000000,293.000000,49.000000,13.000000,0.000000,0.000000,0.494796,0.574224,0.496243,0.131656,0.020255,342.000000,293.000000,49.000000,13.000000,0.000000,0.000000:
00000000
00000000
00000000
00000000
,
00000000
00000000
00000000
00000000
,
00000000
00000000
00000000
00000000
,
00000000
00000000
00000000
00000000
,
00100000
00000000
00000000
00100000
00000000
00000000
00100000
00000000
00000000
00000000
00001000
00000000
00010000
00000000
00022000
00000000
,
00000000
00000000
00000000
00033000
,
00011000
00000000
00010100
00000000
00000010
00000001
00000010
00000100
,
00001000
00000001
00000100
00001000
,
00100000
00000000
00000000
00010000
00000000
00000000
10010000
00000000
00000000
00000000
00000000
00000000
00000000
00000000
10000000
00000000
,
01000000
00010000
00001000
00000000
00100000
00001000
00010000
00000000
,
00011000
00000000
00010000
00000010
00010000
00000100
00000010
00000000
,
00000001
00001100
00000001
00001010
,
00000200
00000000
00010000
00000000
00010300
00001000
00010000
00001000
,
00000000
00011000
00000000
02200000
00000000
00000000
03300000
00000000
,
01000000
10000000
00100000
00000000
10000000
00000000
00010000
00000000
,
01000000
00001000
00100000
01000000
,
00001000
00000010
00000100
00000000
00000001
00000000
00001000
00000000
,
00000010
00000000
00000100
00000000
00000001
00000010
00000100
00000000
,
00000010
00000101
00001010
00010100
,
00010000
00001000
00010000
00000000
00001000
00100000
01000000
00000000
,
00100000
11000000
00110000
01001000
,
00010000
00001000
00100000
00000000
00001000
00000100
00000010
00000000
,
00000100
00000001
00000010
00001000
,
00010000
00101000
01100000
00000000
,
01000000
10000000
00100000
00010000
,
00001000
00010100
00000110
00000000
,
00000001
00001000
00000100
00010000
00000000
00000000
00000000
00000000
,
00001000
00100000
00010000
10000000
00000000
00000000
00000000
00000000
,
10000000
00010000
00000000
01100000
00000000
00011000
00000000
00000110
,
00000000
00000000
00000000
00000100
00000010
00000100
00000010
00000000
,
00001001
00000000
00000001
00000100
00001000
00000100
00001000
00020000
,
00000000
00001000
00031000
00000000
00100000
00010000
00100000
00000000
,
10010000
00000000
10000000
01000000
10000000
01000000
00010000
00001000
,
00000000
00000010
00000100
00000000
00001000
00000000
00000001
00000000
,
00000100
00001000
00010000
00001000
00000000
00011000
00000000
00100000
,
00000000
10000000
01000000
00010000
01000000
00000000
00100000
00000000
,
01000000
00010000
00001000
00010000
00000000
00011000
00000000
00010010
,
00000000
00000000
00000000
00000010
00000100
00000010
00000100
00000000
,
00001001
00000000
00000001
00000010
00001000
00000010
00001000
00020000
,
00000000
00001000
00031000
00000000
01000000
00010000
01000000
00000000
,
10010000
00000000
10000000
00100000
00010000
00001000
00000100
00000010
,
00000000
00000110
00000100
00000000
00001000
00000000
00000001
00000000
,
00000010
00001000
00010000
00001000
00000000
00011000
00000000
01000000
,
00000000
10000000
00100000
00010000
00100000
10000000
01000000
00000000
,
00100000
00010000
00001000
00000100
00000000
00000110
00000000
00001001
,
00000000
00000000
00000000
00000010
00000100
00010000
00001000
00000000
,
00011000
00000000
00101000
00000000
01000000
10000000
01000000
00100000
,
00010000
10000000
00100000
00010000
,
00000100
00000000
00000000
00001000
00000000
00000000
00001001
00000000
00000000
00000000
00000000
00000000
00000000
00000000
00000001
00000000
,
00000010
00001000
00010000
00000000
00000100
00010000
00001000
00000000
,
00011000
00000000
00001000
01000000
00001000
00100000
01000000
00000000
,
10000000
00110000
10000000
01010000
,
00200000
00000000
00001000
00000000
00301000
00010000
00001000
00010000
,
00000000
00011000
00000000
00000220
00000000
00000000
00000330
00000000
,
00000001
00000010
00000001
00000010
00001000
00000100
00001000
00000100
,
00010000
00001000
00010000
00001000
00100000
00010000
00100000
00000000
,
11000000
00000000
00000000
01100000
00000000
00000000
00210000
00000000
00000000
00000000
00000000
00000000
00300000
00000000
00001000
00000000
,
00010000
00001000
00000010
00000000
00001000
00010000
00100000
01000000
,
10000000
01000000
10000000
01000000
00010000
00100000
00010000
00100000
,
00001000
00010000
00001000
00010000
00000100
00001000
00000100
00000000
,
00000011
00000000
00001100
00000000
00000001
00001000
00000100
00000010
,
00000000
00000110
00000000
00001001
00000000
00000010
00010000
00000000
,
00022000
00000000
00000000
00000000
,
00033000
00000000
00000000
00000000
,
00000000
00000000
00000000
00000000
;

//---------------dance-single - ----------------
#NOTES:
     dance-single:
     :
     Challenge:
     16:
     0.915807,1.052744,0.151911,0.445606,1.210225,633.000000,618.000000,15.000000,44.000000,0.000000,0.000000,0.915807,1.052744,0.151911,0.445606,1.210225,633.000000,618.000000,15.000000,44.000000,0.000000,0.000000:
// measure 0
0000
0000
0000
0000
,  // measure 1
0000
0000
0000
0000
,  // measure 2
0000
0000
0000
0000
,  // measure 3
0000
0000
0000
0000
,  // measure 4
0001
0000
0010
0100
0000
1000
0100
0000
0000
0000
0002
0000
0000
0000
0203
0000
,  // measure 5
0000
0000
0000
1000
1000
0010
0010
0001
,  // measure 6
0301
0000
0000
0000
0000
0000
0001
0000
0010
0000
0100
0000
1000
0000
0000
0000
0000
0000
1100
0000
0000
0000
0000
0000
1000
0000
0000
0100
0000
0000
0010
0000
0000
0001
0000
0000
0100
0000
0000
0000
0000
0000
0001
0000
0010
0000
0100
0000
,  // measure 7
1000
0000
0000
0000
0000
0000
1000
0010
0100
0001
0000
0000
1000
0100
0010
0001
0000
0000
1000
0100
0010
0001
0000
0000
,  // measure 8
0001
0000
0010
0100
0000
2000
0200
0000
0000
0000
3300
0000
0000
0000
1000
0100
,  // measure 9
0100
1000
0100
0001
0010
0001
0100
0010
1000
0100
0010
0001
0100
0010
1000
0001
,  // measure 10
0020
0000
0000
0000
0000
0000
0031
0000
0000
0001
0010
0100
1000
0000
0000
1100
0000
0000
0000
0000
0000
1010
0000
0000
,  // measure 11
0000
0000
0000
0000
0000
0000
0001
0010
0100
1000
0000
0000
0001
0100
0010
1000
0000
0000
0001
0010
0100
1000
0000
0000
,  // measure 12
0010
0001
0100
0010
1000
0100
0010
0001
0100
0010
1000
0001
0010
0100
0020
0000
,  // measure 13
0000
2030
0000
0200
0000
0000
0000
3300
,  // measure 14
1000
0020
0000
1000
0000
0001
0000
1000
,  // measure 15
0000
0001
0000
1030
0000
0101
1100
0000
,  // measure 16
0001
0020
0000
1000
0000
0001
0000
1000
,  // measure 17
0000
0000
0000
0001
0000
0000
0000
0000
0000
1030
0000
0000
0000
0000
0000
0010
0001
0100
0010
0000
0000
1100
0000
0000
,  // measure 18
1000
0000
0100
2000
0000
0010
0000
3100
,  // measure 19
1000
0000
0000
0100
0000
0000
0001
0000
0000
0100
0000
0000
1000
0000
0000
0001
0010
0100
1000
0000
0000
0101
0000
0000
,  // measure 20
0001
0000
0010
0002
0000
0100
0000
1003
,  // measure 21
0010
0000
0001
0000
0010
0000
1000
0000
0010
0000
1000
0100
0010
0000
0100
0000
,  // measure 22
0001
0010
0001
0010
0001
0010
0001
0010
0001
0010
0001
0010
0001
0010
0001
0010
,  // measure 23
0001
0010
0001
0010
0100
0010
0100
0010
1000
0010
1000
0010
0001
0010
0001
0010
,  // measure 24
1000
0100
1000
0100
1000
0100
1000
0100
1000
0100
1000
0100
1000
0100
1000
0100
,  // measure 25
1000
0100
1000
0100
0010
0100
0010
0100
0001
0100
0001
0100
1000
0100
1000
0100
,  // measure 26
0010
0100
0010
0100
0010
0100
0010
0100
0010
0100
0010
0100
0010
0100
0010
0100
,  // measure 27
0001
1000
0001
1000
0001
1000
0001
1000
0001
1000
0001
1000
0001
1000
0001
1000
,  // measure 28
0001
0010
0100
1000
0010
0100
0001
1000
0100
0010
0001
0100
0010
1000
0002
0000
,  // measure 29
0000
0000
0000
0000
0000
0000
0103
0000
1000
0000
0010
0100
0001
1000
0100
0010
,  // measure 30
0002
0000
0013
0100
1000
0000
0020
0000
0000
0000
0031
1000
0100
0000
0010
0001
,  // measure 31
0100
0000
0000
0000
0000
0000
0001
0000
0000
1000
0000
0000
0100
0000
0000
0000
0000
0000
0000
0000
0000
0000
0000
0000
1000
0000
0100
0000
0010
0000
0001
0000
0000
0000
0000
0000
1000
0000
0010
0000
0100
0000
0001
0000
0000
0000
0000
0000
,  // measure 32
1000
0000
0010
0100
0001
0000
2000
0000
0000
0000
3020
0000
0000
0000
0230
0000
,  // measure 33
0000
0000
0000
0000
0000
0000
0301
0000
0000
0010
0000
0000
0100
0000
0000
0000
0000
0000
0000
0000
0000
0000
0000
0000
0001
0000
0010
0000
0100
0000
1000
0000
0000
0000
0000
0000
0001
0000
0100
0000
0010
0000
1000
0000
0000
0000
0000
0000
,  // measure 34
0001
0000
0010
0100
1000
0000
0200
0000
0000
0000
0302
0000
0000
0000
2003
0000
,  // measure 35
0000
0000
0000
3000
0000
0000
0000
0000
0000
0000
0000
0000
0001
0010
0100
1000
0000
0000
1000
0100
0010
0001
0000
0000
,  // measure 36
0100
0000
0010
1000
0001
0000
0020
0000
0000
0000
0130
0000
0000
0000
2002
0000
,  // measure 37
0000
0000
3003
0000
0000
0000
0100
0000
0010
0000
1000
0100
0010
0001
0010
0100
,  // measure 38
1000
0000
0001
0010
0100
0000
2000
0000
0000
0000
3020
0000
0000
0000
0032
0000
,  // measure 39
0000
0000
0000
0000
0000
0000
1003
0000
0000
0100
0000
0000
0001
0000
0000
0000
0000
0000
0000
0000
0000
0000
0000
0000
1000
0000
0100
0000
0010
0000
0001
0000
0000
0000
0000
0000
1000
0000
0010
0000
0100
0000
0001
0000
0000
0000
0000
0000
,  // measure 40
0001
0000
0010
0100
1000
0000
0200
0000
0000
0000
2300
0000
0000
0000
3002
0000
,  // measure 41
0000
0000
0000
0000
0000
0000
1003
0000
0000
0100
0000
0000
0010
0000
0000
0000
0000
0000
0000
0000
0000
0000
0000
0000
1000
0000
0010
0000
0100
0000
0001
0000
0000
0000
0000
0000
0001
0000
0100
0000
0010
0000
1000
0000
0000
0000
0000
0000
,  // measure 42
0010
0000
1000
0001
0010
0000
0200
0000
0000
0000
0320
0000
0000
0000
2030
0000
,  // measure 43
0000
0000
0000
0000
0000
0000
3001
0000
0000
0010
0000
0000
1000
0000
0000
0000
0000
0000
0000
0000
0000
0000
0000
0000
0001
0000
0100
0000
0010
0000
1000
0000
0000
0000
0000
0000
0001
0000
0010
0000
0100
0000
1000
0000
0000
0000
0000
0000
,  // measure 44
0010
0000
1000
0001
0010
0000
2000
0000
0000
0000
3001
0000
0000
0000
0220
0000
,  // measure 45
0000
0000
0330
0000
0000
0000
1000
0000
0001
0000
1000
0100
0010
0001
0010
0100
,  // measure 46
1000
0000
0000
0000
0000
0000
0001
0000
0010
0000
0100
0000
1000
0000
0000
0000
0000
0000
0100
0000
0000
0010
0000
0000
1000
0000
0000
0100
0000
0000
0010
0000
0000
0000
0000
0000
0101
0000
0000
0000
0000
0000
1000
0000
0000
0100
0000
0000
,  // measure 47
0010
0000
0000
0000
0000
0000
0001
0010
0100
1000
0000
0000
0001
0100
0010
1000
0000
0000
0101
0000
0000
0000
0000
0000
,  // measure 48
1000
0000
0001
0100
0000
0020
0200
0000
0000
0000
0330
0000
0000
0000
1000
1000
,  // measure 49
0010
0010
0100
0100
0001
0001
1000
0100
0010
0001
0100
0010
1000
0001
0010
0100
,  // measure 50
1000
0000
0000
0000
0000
0000
0010
0000
1000
0000
0100
0000
0010
0000
0001
0000
0010
0000
0100
0000
0000
0000
0000
0000
0100
0000
0000
1000
0000
0000
0100
0000
0000
1000
0000
0000
0010
0000
0000
0000
0000
0000
1000
0000
0000
0100
0000
0000
,  // measure 51
0010
0000
0000
0011
0000
0000
0001
0010
0100
1000
0000
0000
1000
0100
0010
0001
0000
0000
0001
0100
0010
1000
0000
0000
,  // measure 52
1000
0000
0010
0000
0100
0000
0001
0000
0000
0010
0000
0000
0100
0000
0000
1000
0000
0000
0100
0000
0000
0010
0000
0000
0100
0000
0000
0001
0000
0000
1000
0000
0000
0100
0000
0000
0010
0000
0000
0000
0000
0000
0002
0000
0000
0000
0000
0000
,  // measure 53
0000
0000
0203
0000
0000
0000
0320
0000
1000
0000
0031
0010
0100
1000
0010
0100
,  // measure 54
0001
0000
0000
0000
0000
0000
1000
0000
0100
0000
0010
0000
0001
0000
0000
0000
0000
0000
0101
0000
0000
0000
0000
0000
1000
0000
0000
0100
0000
0000
0010
0000
0000
0001
0000
0000
0100
0000
0000
0000
0000
0000
0100
0000
0000
0001
0000
0000
,  // measure 55
0010
0000
0000
0110
0000
0000
0010
0100
0001
1000
0000
0000
0100
0010
1000
0001
0000
0000
0010
0100
0001
1000
0000
0000
,  // measure 56
0100
0000
0001
0010
0000
0100
0010
0000
1000
0000
0100
0000
0010
0000
0001
0001
,  // measure 57
0010
0010
0100
0100
1000
1000
0010
0100
0001
1000
0100
0010
0001
0010
0100
1000
,  // measure 58
0010
0000
0000
0000
0000
0000
1000
0000
0100
0000
0010
0000
0001
0000
0010
0000
0100
0000
1000
0000
0000
0000
0000
0000
0001
0000
0000
0000
0000
0000
1000
0000
0000
0001
0000
0000
0010
0000
0000
0100
0000
0000
2000
0000
0000
0000
0000
0000
,  // measure 59
0010
0000
0000
3100
0000
0000
1000
0100
0010
0001
0000
0000
0010
0100
0001
1000
0000
0000
0100
0010
1000
0001
0000
0000
,  // measure 60
0001
0000
0010
0000
0100
0000
1000
0000
0000
0010
0000
0000
0100
0000
0000
0001
0000
0000
1000
0000
0000
0100
0000
0000
0010
0000
0000
0001
0000
0000
0100
0000
0000
0010
0000
0000
1000
0000
0000
0001
0000
0000
0010
0000
0000
0100
0000
0000
,  // measure 61
1000
0000
0010
0100
0001
0000
1000
0100
0010
0001
0100
0010
1000
0100
0010
0000
,  // measure 62
0202
0000
0000
0000
,  // measure 63
0303
0000
0000
0000
;
