#VERSION:0.83;
#TITLE:Akin Ka Na Lang;
#SUBTITLE:;
#ARTIST:The Itchyworms;
#TITLETRANSLIT:;
#SUBTITLETRANSLIT:;
#ARTISTTRANSLIT:;
#GENRE:;
#ORIGIN:;
#CREDIT:;
#BANNER:;
#BACKGROUND:Akin Ka Na Lang-bg.jpg;
#PREVIEWVID:;
#JACKET:Akin Ka Na Lang-jacket.jpg;
#CDIMAGE:;
#DISCIMAGE:;
#LYRICSPATH:;
#CDTITLE:;
#MUSIC:Akin Ka Na Lang.mp3;
#OFFSET:-0.022146;
#SAMPLESTART:106.500000;
#SAMPLELENGTH:12.000000;
#SELECTABLE:YES;
#DISPLAYBPM:60.000000:129.000000;
#BPMS:0.000=191.923,
116.500=95.962,
128.500=191.923,
266.000=95.962,
278.000=192.500,
302.000=197.000,
320.000=191.923,
352.000=95.962,
369.500=203.000,
375.500=197.000,
378.000=191.923,
435.000=195.000,
459.500=191.923,
476.500=200.000,
477.000=191.923,
492.000=197.000,
504.000=195.000,
516.000=197.000,
524.500=200.000,
530.000=191.923;
#STOPS:66.500=0.500,
193.750=1.261,
216.000=0.550,
350.000=1.300,
363.000=0.300,
477.000=1.080,
524.500=0.220,
530.000=0.100;
#DELAYS:;
#WARPS:;
#TIMESIGNATURES:0.000=4=4;
#TICKCOUNTS:0.000=4;
#COMBOS:0.000=1;
#SPEEDS:0.000=1.000=0.000=0;
#SCROLLS:0.000=1.000;
#FAKES:;
#LABELS:0.000=Song Start;
#BGCHANGES:0.000=Akin Ka Na Lang-bg.jpg=1.000=0=0=0=StretchNoLoop====,
0.021=Akin Ka Na Lang.mp4=1.000=0=0=1=====,
99999=-nosongbg-=1.000=0=0=0 // don't automatically add -songbackground-
;
#KEYSOUNDS:;
#ATTACKS:
;

//---------------dance-single - ----------------
#NOTEDATA:;
#CHARTNAME:;
#STEPSTYPE:dance-single;
#DESCRIPTION:;
#CHARTSTYLE:;
#DIFFICULTY:Challenge;
#METER:17;
#RADARVALUES:0.552926,0.820783,0.486948,0.356426,0.481928,771.000000,674.000000,97.000000,71.000000,0.000000,0.000000,0.000000,0.000000,0.000000,0.552926,0.820783,0.486948,0.356426,0.481928,771.000000,674.000000,97.000000,71.000000,0.000000,0.000000,0.000000,0.000000,0.000000;
#CREDIT:;
#DISPLAYBPM:60.000000:129.000000;
#NOTES:
// measure 0
0000
0000
0000
0000
,  // measure 1
0000
0000
0000
0000
,  // measure 2
0000
0000
0000
0000
,  // measure 3
0000
0000
0000
0000
,  // measure 4
0000
0000
0000
0000
,  // measure 5
0000
0000
0000
0000
,  // measure 6
0000
0000
0000
0000
,  // measure 7
0000
0000
0000
0000
,  // measure 8
0000
0000
0000
0000
,  // measure 9
0000
0000
0000
0000
,  // measure 10
0000
0000
0000
0000
,  // measure 11
0000
0000
0000
0000
0000
0000
0000
0000
0000
0000
1000
0000
0000
1000
0000
0001
,  // measure 12
0000
0000
0000
0001
0000
1000
0000
0000
0000
1000
0000
0100
0000
0000
0100
0000
,  // measure 13
0000
0010
0000
0000
0010
0000
0000
0001
0000
0010
0000
0001
0000
0010
0000
0000
,  // measure 14
0002
0003
2000
3000
0000
0000
0200
0300
2000
3000
0000
1000
0000
0000
1000
0000
,  // measure 15
0000
0001
0000
0000
0001
0000
0000
0100
0000
0000
0100
0000
0000
0100
0000
0001
,  // measure 16
1000
0001
0000
1000
0000
0001
0000
0000
0000
2002
0000
0000
3003
0000
0000
0000
,  // measure 17
0001
0010
0100
0000
0000
0000
0000
0000
1100
0000
0000
0000
0000
0000
1010
0000
,  // measure 18
0000
0000
1100
0000
0000
1001
0000
0000
,  // measure 19
0011
0000
0000
0000
0000
0010
0000
0001
0000
1000
0000
0001
0000
1000
0000
0100
,  // measure 20
0000
1100
0000
0000
1010
0000
0000
1001
,  // measure 21
0000
0000
0011
0000
0000
1001
0000
0000
,  // measure 22
0101
0000
0000
0000
0000
0100
0000
0001
0000
1000
0000
0001
0000
1000
0000
0001
,  // measure 23
0000
0101
0000
0000
1010
0000
0000
1100
,  // measure 24
0000
0000
0011
0000
0000
1001
0000
0000
,  // measure 25
1100
0000
0000
0000
0000
1000
0000
0001
0000
1000
0000
0001
0000
1000
0000
0010
,  // measure 26
0000
1010
0000
0000
0101
0000
0000
0011
,  // measure 27
0000
0000
0101
0000
0000
1001
0000
0000
,  // measure 28
1010
0000
0000
0000
0000
1000
0000
0010
0000
1000
0000
0001
0000
1000
0000
0100
,  // measure 29
0000
0000
2000
0000
0000
0000
0000
0000
3001
0000
0001
1000
0000
1000
0100
0000
,  // measure 30
0100
1000
0000
1000
0010
0000
0010
0100
0000
0100
0001
0000
0000
0101
0000
0100
,  // measure 31
0001
0000
0100
1000
0000
0002
0010
0000
0020
0000
0033
0000
0011
0000
0001
0001
,  // measure 32
0000
1001
0000
0000
1010
0000
0000
0101
,  // measure 33
0000
0000
0011
0000
0000
1001
0000
0000
,  // measure 34
1100
0000
0000
0000
0000
1000
0000
0001
0000
1000
0000
0001
0000
1000
0000
0001
,  // measure 35
0000
1001
0000
0000
0101
0000
0000
0011
,  // measure 36
0000
0000
0000
0000
1100
0000
0000
0000
0000
0000
1001
0000
0000
1000
0000
0100
,  // measure 37
0000
0000
0110
0000
0000
0000
0000
0100
0000
1000
0000
0001
0000
0100
0000
0010
,  // measure 38
0000
2000
0000
0000
3000
0100
0000
1000
0000
0000
0000
1000
0000
0001
0000
0000
,  // measure 39
0000
0010
0000
0001
0000
0000
0000
0001
0000
1000
0000
0000
0000
1000
0000
0100
,  // measure 40
0000
0000
0000
0000
0110
0000
0000
0010
0000
0001
0000
0000
0000
1000
0000
0100
,  // measure 41
0000
0020
0000
0000
0000
0001
0000
0000
0000
0130
0000
0100
0000
0000
0000
0010
,  // measure 42
0000
0000
0110
0000
0000
0200
0000
0000
0000
0000
0000
0000
2300
0000
0000
0000
,  // measure 43
3000
0020
0000
0000
0000
0000
0230
0000
0000
0000
0302
0000
0000
0000
1003
0000
,  // measure 44
0001
0000
0000
1000
0000
0100
0000
0000
0000
1000
0000
0010
0000
0000
0000
0100
,  // measure 45
0000
0001
0000
0000
0000
1000
0000
0100
0000
0000
0000
0010
0000
0001
0000
0000
,  // measure 46
0000
0000
0000
1001
0000
0000
0000
0001
0000
0010
0000
0000
0000
0100
0000
2000
,  // measure 47
0000
0000
0000
0010
0000
0010
0000
0000
0000
0100
0000
0100
0000
0000
0000
0001
,  // measure 48
0000
3001
0000
0000
0000
1000
0000
2002
0000
0000
0000
0000
3003
0000
0000
0000
,  // measure 49
2001
0000
0000
0000
0000
3100
0000
0000
0000
1000
0000
0010
0000
0000
0000
0100
,  // measure 50
0000
0001
0000
0000
0000
1000
0000
0001
0000
0000
0000
0001
0000
0100
0000
0000
,  // measure 51
0000
0100
0000
0010
0000
0000
0000
0010
0000
0010
0000
0000
0000
0100
0000
0100
,  // measure 52
0000
0000
0000
0100
0000
0001
0000
0000
0000
0001
0000
1000
0000
0000
0000
1000
,  // measure 53
0000
0000
0100
0000
0000
0000
0000
0000
0000
0000
0100
0000
0000
0000
0010
0000
0000
0001
0000
0000
0010
0000
0000
0000
0001
0000
0000
0000
0000
0000
0000
0000
,  // measure 54
0220
0000
0000
0000
0330
0000
0010
0100
1000
0000
0000
0000
0000
0000
1000
0000
,  // measure 55
0000
0001
0100
0000
0010
1000
0000
0001
,  // measure 56
2000
0000
0000
0000
0000
0000
3001
0000
0000
1000
0000
0000
0000
0000
0000
0100
0000
0000
0001
0000
0010
0000
0001
0000
,  // measure 57
0010
0000
0001
0000
0010
0000
0001
0000
0000
1000
0000
0000
0010
0000
0000
0000
0000
0000
0100
0000
0000
0001
0000
0000
,  // measure 58
0000
1000
0100
0000
1000
0010
0000
0100
,  // measure 59
0001
0000
0000
0000
0000
0000
1000
0000
0000
0100
0000
0000
0000
0000
0000
1000
0000
0000
0001
0000
0010
0000
0100
0000
,  // measure 60
1000
0000
0100
0000
0010
0000
0001
0000
0010
0000
0001
0000
0010
0000
0000
0000
0000
0000
0001
0000
0000
1000
0000
0000
,  // measure 61
0000
1000
0100
0000
0100
0010
0000
0010
,  // measure 62
0001
0000
0000
0000
0000
0000
0001
0000
0000
1000
0000
0000
0000
0000
0000
1000
0000
0000
0001
0000
0010
0000
0001
0000
,  // measure 63
0010
0000
0001
0000
0010
0000
0001
0000
0000
1000
0000
0000
0010
0000
0000
0000
0000
0000
1000
0000
0000
0010
0000
0000
,  // measure 64
0000
0100
0001
0000
1000
0001
0000
0010
,  // measure 65
0001
0000
0000
0000
0000
0000
1000
0000
0000
0010
0000
0000
0000
0000
0000
0100
0000
0000
0001
0000
0010
0000
0001
0000
,  // measure 66
0010
0000
0001
0000
0010
0000
0001
0000
0100
0000
0010
0000
0200
0000
0000
0000
0000
0000
0300
0000
0000
1100
0000
0000
,  // measure 67
1000
0100
0000
0100
0010
0000
0010
0001
0000
0001
1000
0000
0001
1000
0000
1000
,  // measure 68
0001
0000
0000
0101
0000
0100
0001
0000
1000
0100
0000
0110
0000
0000
0220
0000
,  // measure 69
0330
0000
0011
0000
0000
0110
0000
0000
1100
0000
0000
0000
1000
0000
0100
0000
,  // measure 70
0000
1000
0100
0000
0110
0110
0000
0011
,  // measure 71
0011
0000
0101
0101
0000
1001
1001
0001
,  // measure 72
1000
0001
1000
0001
0100
0000
0101
0101
,  // measure 73
0000
1010
1010
0000
1100
1100
0000
0000
,  // measure 74
2002
3003
0001
1000
0000
2002
0000
3003
,  // measure 75
0001
1000
0100
0010
0100
0000
1100
1100
,  // measure 76
0000
1000
0100
0000
1000
0100
0010
0001
,  // measure 77
0011
0000
0001
0010
0000
0001
1000
0000
,  // measure 78
0100
1000
0000
0001
0100
0000
0010
1000
,  // measure 79
0000
0001
1000
0000
0100
1000
0000
0010
,  // measure 80
2000
0000
0010
0010
0000
0100
3100
0000
,  // measure 81
1000
0000
0000
1100
0000
0000
1001
0000
,  // measure 82
0000
0011
0000
0000
1001
0000
0000
0101
,  // measure 83
0001
0000
0001
0100
0000
0010
1000
0000
,  // measure 84
1000
0100
0000
1000
0010
0000
0010
0100
,  // measure 85
0000
0100
0001
0000
0001
1000
0000
1000
,  // measure 86
0002
0000
0010
0010
0000
0100
0103
0000
,  // measure 87
0001
1000
0000
2000
0200
3300
0000
0000
,  // measure 88
2002
0000
0000
0000
3003
0000
1010
0000
0010
1000
0000
1000
0001
0000
0000
0000
,  // measure 89
0000
0101
0000
0000
0001
1000
0000
1000
0100
0000
1000
0100
0000
1000
0100
0000
,  // measure 90
1000
0001
0000
0002
0010
0000
0000
0013
0000
0001
1000
0000
1001
0000
1100
0000
,  // measure 91
1000
0000
0100
0000
0000
0000
0100
0000
1000
0000
0000
0000
1000
0000
0010
0000
0000
0000
1010
0000
0000
0000
0000
0000
1000
0001
1000
0000
0000
0000
1001
0000
,  // measure 92
0000
0000
1000
0100
0000
0010
0001
0000
0000
0000
0000
0000
0011
0000
0000
0000
,  // measure 93
0000
1001
0000
0000
1100
0000
0000
2002
,  // measure 94
3003
0001
1000
0000
2002
0000
3003
1000
,  // measure 95
0001
0000
0001
1000
0100
1000
0001
0100
,  // measure 96
0010
1000
0001
0010
0001
0100
0010
1000
,  // measure 97
0000
1000
0100
0000
1000
0010
0000
0100
,  // measure 98
0001
0000
0010
0001
0000
1000
0010
0000
,  // measure 99
0100
0001
0000
1000
0010
0000
1000
0100
,  // measure 100
0000
0100
0010
0000
0010
0100
0000
0110
,  // measure 101
0000
0200
1300
0000
0200
0310
0000
0200
,  // measure 102
0301
0000
0200
0310
0000
0200
1300
0100
,  // measure 103
1000
0010
0000
0100
0001
0000
1000
0010
,  // measure 104
0000
1000
0100
0000
1000
0010
0000
0100
,  // measure 105
0001
0000
1000
0001
0000
0010
0002
0000
,  // measure 106
0100
0100
0000
1000
1000
0003
0001
0100
,  // measure 107
0000
0010
1000
0000
0001
1000
0000
1000
,  // measure 108
0100
0000
0010
0001
0100
0010
1000
0002
,  // measure 109
0000
0103
0002
0000
1003
0020
0000
0130
,  // measure 110
0002
0000
0013
0200
0000
1300
0001
0000
,  // measure 111
1001
0000
2000
0100
3000
0020
0001
0030
,  // measure 112
0000
0020
0000
0001
0031
0000
0010
0001
,  // measure 113
2000
0010
3000
0002
0100
0003
0020
1000
,  // measure 114
0030
0002
1000
0003
0100
1000
0001
0010
,  // measure 115
0000
0010
0001
0000
1000
0100
0000
1000
,  // measure 116
0010
0000
0100
0001
0000
1000
0001
0000
,  // measure 117
1001
0000
0001
1000
0000
0100
2000
0000
,  // measure 118
0010
0010
0000
0100
3100
0000
1000
0001
,  // measure 119
0000
0200
0020
0000
0000
0000
0330
0000
,  // measure 120
0110
0000
0100
1000
0010
1000
0001
0000
,  // measure 121
0010
0001
1000
0001
0100
0000
0010
1000
,  // measure 122
0100
1000
0001
0000
0010
0100
0000
0001
,  // measure 123
1000
0000
1000
0100
1000
0010
0100
0000
,  // measure 124
0010
0002
0000
0013
0000
0000
0001
0010
,  // measure 125
0000
0100
1000
0000
1000
0001
0100
0010
,  // measure 126
0200
0000
0001
0001
0000
0010
0010
0000
,  // measure 127
0001
0001
0000
0010
0320
1000
1000
1000
,  // measure 128
1000
1000
1000
0000
0100
0100
0000
1000
,  // measure 129
1030
0000
0001
1000
0010
0100
0001
0000
,  // measure 130
1001
0000
1000
0001
1000
0000
0001
0000
0100
0000
0010
0000
0000
0000
0110
0000
,  // measure 131
0000
0000
2002
0000
0000
0000
3003
0000
0001
0010
0100
0000
1000
0000
0001
0000
,  // measure 132
1000
0000
1001
0000
2002
3003
0001
1000
,  // measure 133
0000
0220
0000
0000
,  // measure 134
0000
0000
0000
0000
,  // measure 135
0000
0000
0000
0000
,  // measure 136
0000
0330
0000
0000
;
